osu file format v12

[General]
AudioFilename: LapFox Trax - BRUTAL RHYTHM RIDER - 05 HIT AND RUN IN 1920 A.D..mp3
AudioLeadIn: 2000
PreviewTime: 16064
Countdown: 0
SampleSet: Normal
StackLeniency: 0.7
Mode: 1
LetterboxInBreaks: 0

[Editor]
Bookmarks: 32058,48058,64047,66047,71047,72047,88047,104047,112047,120047,128047
DistanceSpacing: 0.8
BeatDivisor: 4
GridSize: 32

[Metadata]
Title:HIT AND RUN IN 1920 A.D.
TitleUnicode:HIT AND RUN IN 1920 A.D.
Artist:The Quick Brown Fox
ArtistUnicode:The Quick Brown Fox
Creator:kazukisinx
Version:Inner Oni
Source:
Tags:taiko lapfox trax speedcore
BeatmapID:218190
BeatmapSetID:77858

[Difficulty]
HPDrainRate:5
CircleSize:6
OverallDifficulty:5
ApproachRate:5
SliderMultiplier:1.4
SliderTickRate:1

[Events]
//Background and Video events
0,0,"Pwnage.jpg",0,0
//Break Periods
//Storyboard Layer 0 (Background)
//Storyboard Layer 1 (Fail)
//Storyboard Layer 2 (Pass)
//Storyboard Layer 3 (Foreground)
//Storyboard Sound Samples
//Background Colour Transformations
3,100,163,162,255

[TimingPoints]
64,250,4,1,0,60,1,0
64,-200,4,1,0,60,0,0
14064,-166.666666666667,4,1,0,60,0,0
14564,-142.857142857143,4,1,0,60,0,0
15064,-125,4,1,0,60,0,0
15314,-111.111111111111,4,1,0,60,0,0
15564,-100,4,1,0,100,0,0
56064,-100,4,1,0,100,0,1
72064,-100,4,1,0,100,0,0
74064,-200,4,1,0,100,0,0
88064,-133.333333333333,4,1,0,100,0,0
104064,-100,4,1,0,100,0,0
112064,-100,4,1,0,100,0,1
128064,-133.333333333333,4,1,0,100,0,0
136064,-133.333333333333,4,1,0,70,0,0
138064,-133.333333333333,4,1,0,60,0,0
140064,-133.333333333333,4,1,0,40,0,0
142064,-133.333333333333,4,1,0,20,0,0

[Colours]
Combo1 : 48,176,192
Combo2 : 248,72,40

[HitObjects]
256,192,64,1,0,0:0:0:0:
256,192,314,1,0,0:0:0:0:
256,192,564,1,8,0:0:0:0:
256,192,2064,1,8,0:0:0:0:
256,192,2314,1,0,0:0:0:0:
256,192,2564,1,8,0:0:0:0:
256,192,4064,1,0,0:0:0:0:
256,192,4314,1,0,0:0:0:0:
256,192,4564,1,8,0:0:0:0:
256,192,6064,1,8,0:0:0:0:
256,192,6314,1,0,0:0:0:0:
256,192,6564,1,8,0:0:0:0:
256,192,6814,1,0,0:0:0:0:
256,192,7064,1,8,0:0:0:0:
256,192,7314,1,0,0:0:0:0:
256,192,7564,1,8,0:0:0:0:
256,192,7814,1,0,0:0:0:0:
256,192,8064,1,4,0:0:0:0:
256,192,8314,1,0,0:0:0:0:
256,192,8564,1,8,0:0:0:0:
256,192,9064,1,8,0:0:0:0:
256,192,10064,1,8,0:0:0:0:
256,192,10314,1,0,0:0:0:0:
256,192,10564,1,8,0:0:0:0:
256,192,11814,1,8,0:0:0:0:
256,192,11876,1,8,0:0:0:0:
256,192,11939,1,8,0:0:0:0:
256,192,12001,1,8,0:0:0:0:
256,192,12064,1,0,0:0:0:0:
256,192,12314,1,0,0:0:0:0:
256,192,12564,1,8,0:0:0:0:
256,192,13064,1,8,0:0:0:0:
256,192,14064,1,4,0:0:0:0:
256,192,14564,1,4,0:0:0:0:
256,192,15064,1,4,0:0:0:0:
256,192,15314,1,4,0:0:0:0:
256,192,15564,1,4,0:0:0:0:
256,192,15689,1,4,0:0:0:0:
256,192,15814,1,8,0:0:0:0:
256,192,15876,1,8,0:0:0:0:
256,192,15939,1,8,0:0:0:0:
256,192,16001,1,8,0:0:0:0:
256,192,16064,1,0,0:0:0:0:
256,192,16314,1,0,0:0:0:0:
256,192,16564,1,8,0:0:0:0:
256,192,16814,1,0,0:0:0:0:
256,192,17064,1,8,0:0:0:0:
256,192,17314,1,0,0:0:0:0:
256,192,17564,1,8,0:0:0:0:
256,192,17814,1,0,0:0:0:0:
256,192,18064,1,8,0:0:0:0:
256,192,18314,1,0,0:0:0:0:
256,192,18564,1,8,0:0:0:0:
256,192,18814,1,0,0:0:0:0:
256,192,19064,1,8,0:0:0:0:
256,192,19189,1,8,0:0:0:0:
256,192,19314,1,8,0:0:0:0:
256,192,19439,1,0,0:0:0:0:
256,192,19564,1,0,0:0:0:0:
256,192,19814,1,0,0:0:0:0:
256,192,20064,1,4,0:0:0:0:
256,192,20314,1,0,0:0:0:0:
256,192,20564,1,8,0:0:0:0:
256,192,20814,1,0,0:0:0:0:
256,192,21064,1,8,0:0:0:0:
256,192,21314,1,0,0:0:0:0:
256,192,21564,1,8,0:0:0:0:
256,192,21814,1,0,0:0:0:0:
256,192,22064,1,4,0:0:0:0:
256,192,22314,1,0,0:0:0:0:
256,192,22564,1,8,0:0:0:0:
256,192,22814,1,0,0:0:0:0:
256,192,23064,1,0,0:0:0:0:
256,192,23189,1,8,0:0:0:0:
224,160,23314,1,8,0:0:0:0:
256,192,23439,1,0,0:0:0:0:
288,160,23564,1,0,0:0:0:0:
256,192,23647,1,0,0:0:0:0:
256,192,23730,1,8,0:0:0:0:
256,192,23814,1,0,0:0:0:0:
256,192,24064,1,4,0:0:0:0:
256,192,24314,1,0,0:0:0:0:
256,192,24564,1,8,0:0:0:0:
256,192,24814,1,0,0:0:0:0:
256,192,25064,1,8,0:0:0:0:
256,192,25314,1,0,0:0:0:0:
256,192,25564,1,8,0:0:0:0:
256,192,25814,1,0,0:0:0:0:
256,192,26064,1,8,0:0:0:0:
256,192,26314,1,0,0:0:0:0:
256,192,26564,1,8,0:0:0:0:
256,192,26814,1,0,0:0:0:0:
256,192,27064,1,8,0:0:0:0:
256,192,27189,1,8,0:0:0:0:
256,192,27314,1,0,0:0:0:0:
256,192,27439,1,0,0:0:0:0:
256,192,27564,1,0,0:0:0:0:
256,192,27814,1,0,0:0:0:0:
256,192,28064,1,4,0:0:0:0:
256,192,28314,1,0,0:0:0:0:
256,192,28564,1,8,0:0:0:0:
256,192,28814,1,0,0:0:0:0:
256,192,29064,1,8,0:0:0:0:
256,192,29314,1,0,0:0:0:0:
256,192,29564,1,8,0:0:0:0:
256,192,29814,1,0,0:0:0:0:
256,192,30064,1,8,0:0:0:0:
256,192,30314,1,0,0:0:0:0:
256,192,30564,1,8,0:0:0:0:
256,192,30689,1,8,0:0:0:0:
256,192,30814,1,0,0:0:0:0:
256,192,31064,1,0,0:0:0:0:
224,224,31126,1,0,0:0:0:0:
256,192,31189,1,0,0:0:0:0:
224,224,31251,1,0,0:0:0:0:
224,224,31314,1,8,0:0:0:0:
224,224,31376,1,8,0:0:0:0:
224,224,31439,1,8,0:0:0:0:
224,224,31501,1,8,0:0:0:0:
224,224,31564,1,0,0:0:0:0:
224,224,31626,1,0,0:0:0:0:
224,224,31689,1,0,0:0:0:0:
224,224,31751,1,0,0:0:0:0:
224,224,31814,1,8,0:0:0:0:
224,224,31876,1,8,0:0:0:0:
224,224,31939,1,8,0:0:0:0:
256,192,32001,1,8,0:0:0:0:
256,192,32064,1,0,0:0:0:0:
256,192,32189,1,0,0:0:0:0:
256,192,32314,1,8,0:0:0:0:
256,192,32439,1,0,0:0:0:0:
256,192,32501,1,0,0:0:0:0:
256,192,32564,1,0,0:0:0:0:
256,192,32689,1,0,0:0:0:0:
256,192,32814,1,8,0:0:0:0:
256,192,32939,1,0,0:0:0:0:
256,192,33001,1,0,0:0:0:0:
256,192,33064,1,0,0:0:0:0:
256,192,33189,1,0,0:0:0:0:
256,192,33251,1,0,0:0:0:0:
256,192,33314,1,8,0:0:0:0:
256,192,33439,1,8,0:0:0:0:
256,192,33564,1,0,0:0:0:0:
256,192,33689,1,0,0:0:0:0:
256,192,33751,1,0,0:0:0:0:
256,192,33814,1,8,0:0:0:0:
256,192,33939,1,8,0:0:0:0:
256,256,34064,1,8,0:0:0:0:
256,256,34126,1,8,0:0:0:0:
256,256,34189,1,8,0:0:0:0:
256,256,34251,1,8,0:0:0:0:
256,192,34314,1,8,0:0:0:0:
256,192,34439,1,8,0:0:0:0:
256,192,34564,1,0,0:0:0:0:
256,192,34626,1,0,0:0:0:0:
256,192,34689,1,0,0:0:0:0:
256,192,34751,1,0,0:0:0:0:
256,192,34814,1,8,0:0:0:0:
256,192,34939,1,8,0:0:0:0:
256,192,35064,1,0,0:0:0:0:
256,192,35126,1,0,0:0:0:0:
256,192,35189,1,0,0:0:0:0:
256,192,35314,1,0,0:0:0:0:
256,192,35376,1,8,0:0:0:0:
256,192,35439,1,0,0:0:0:0:
256,192,35564,1,0,0:0:0:0:
256,192,35689,1,0,0:0:0:0:
256,192,35814,1,8,0:0:0:0:
256,192,35876,1,8,0:0:0:0:
256,192,35939,1,8,0:0:0:0:
256,192,36001,1,8,0:0:0:0:
256,192,36064,1,0,0:0:0:0:
256,192,36189,1,0,0:0:0:0:
256,192,36314,1,8,0:0:0:0:
256,192,36439,1,0,0:0:0:0:
256,192,36501,1,0,0:0:0:0:
256,192,36564,1,0,0:0:0:0:
256,192,36689,1,0,0:0:0:0:
256,192,36814,1,8,0:0:0:0:
256,192,36939,1,0,0:0:0:0:
256,192,37001,1,8,0:0:0:0:
256,192,37064,1,0,0:0:0:0:
256,192,37189,1,0,0:0:0:0:
256,192,37314,1,8,0:0:0:0:
256,192,37439,1,0,0:0:0:0:
256,192,37501,1,0,0:0:0:0:
256,192,37564,1,0,0:0:0:0:
256,192,37689,1,0,0:0:0:0:
256,192,37814,1,8,0:0:0:0:
256,192,37939,1,0,0:0:0:0:
256,192,38064,1,8,0:0:0:0:
256,192,38126,1,8,0:0:0:0:
256,192,38189,1,0,0:0:0:0:
256,192,38314,1,8,0:0:0:0:
256,192,38376,1,8,0:0:0:0:
256,192,38439,1,0,0:0:0:0:
256,192,38564,1,0,0:0:0:0:
256,192,38626,1,0,0:0:0:0:
256,192,38689,1,0,0:0:0:0:
256,192,38751,1,0,0:0:0:0:
256,192,38814,1,8,0:0:0:0:
256,192,38939,1,0,0:0:0:0:
256,192,39064,1,0,0:0:0:0:
256,192,39189,1,0,0:0:0:0:
256,192,39251,1,0,0:0:0:0:
256,192,39314,1,8,0:0:0:0:
256,192,39439,1,8,0:0:0:0:
256,192,39564,1,0,0:0:0:0:
256,192,39689,1,0,0:0:0:0:
160,192,39814,1,8,0:0:0:0:
160,192,39876,1,8,0:0:0:0:
160,192,39939,1,8,0:0:0:0:
160,192,40001,1,8,0:0:0:0:
160,192,40064,1,8,0:0:0:0:
256,192,40189,1,0,0:0:0:0:
256,192,40314,1,8,0:0:0:0:
256,192,40439,1,0,0:0:0:0:
256,192,40501,1,0,0:0:0:0:
256,192,40564,1,0,0:0:0:0:
256,192,40689,1,0,0:0:0:0:
256,192,40814,1,8,0:0:0:0:
256,192,40939,1,0,0:0:0:0:
256,192,41001,1,8,0:0:0:0:
256,192,41064,1,0,0:0:0:0:
256,192,41189,1,0,0:0:0:0:
256,192,41314,1,8,0:0:0:0:
256,192,41439,1,0,0:0:0:0:
256,192,41501,1,0,0:0:0:0:
256,192,41564,1,0,0:0:0:0:
256,192,41689,1,0,0:0:0:0:
256,192,41814,1,8,0:0:0:0:
256,192,41939,1,0,0:0:0:0:
256,192,42001,1,0,0:0:0:0:
256,192,42064,1,0,0:0:0:0:
256,192,42189,1,0,0:0:0:0:
256,192,42314,1,8,0:0:0:0:
256,192,42439,1,0,0:0:0:0:
256,192,42501,1,8,0:0:0:0:
256,192,42564,1,0,0:0:0:0:
256,192,42689,1,0,0:0:0:0:
256,192,42814,1,8,0:0:0:0:
256,192,42939,1,0,0:0:0:0:
256,192,43064,1,0,0:0:0:0:
256,192,43126,1,0,0:0:0:0:
256,192,43189,1,0,0:0:0:0:
256,192,43314,1,0,0:0:0:0:
256,192,43376,1,0,0:0:0:0:
256,192,43439,1,0,0:0:0:0:
256,192,43564,1,0,0:0:0:0:
256,192,43689,1,0,0:0:0:0:
256,192,43814,1,8,0:0:0:0:
256,192,43876,1,8,0:0:0:0:
256,192,43939,1,8,0:0:0:0:
256,192,44001,1,8,0:0:0:0:
256,192,44064,1,0,0:0:0:0:
256,192,44189,1,0,0:0:0:0:
256,192,44314,1,8,0:0:0:0:
256,192,44376,1,0,0:0:0:0:
256,192,44439,1,0,0:0:0:0:
256,192,44564,1,0,0:0:0:0:
256,192,44689,1,0,0:0:0:0:
256,192,44814,1,8,0:0:0:0:
256,192,44876,1,8,0:0:0:0:
256,192,44939,1,0,0:0:0:0:
256,192,45064,1,0,0:0:0:0:
256,192,45189,1,0,0:0:0:0:
256,192,45314,1,8,0:0:0:0:
256,192,45376,1,0,0:0:0:0:
256,192,45439,1,0,0:0:0:0:
256,192,45564,1,0,0:0:0:0:
256,192,45689,1,0,0:0:0:0:
256,192,45814,1,8,0:0:0:0:
256,192,45939,1,0,0:0:0:0:
256,192,46064,1,8,0:0:0:0:
256,192,46126,1,8,0:0:0:0:
256,192,46189,1,0,0:0:0:0:
256,192,46314,1,8,0:0:0:0:
288,160,46376,1,8,0:0:0:0:
256,192,46439,1,0,0:0:0:0:
256,192,46564,1,0,0:0:0:0:
256,192,46689,1,0,0:0:0:0:
256,192,46814,1,8,0:0:0:0:
256,192,46939,1,0,0:0:0:0:
256,192,47064,1,0,0:0:0:0:
256,192,47126,1,0,0:0:0:0:
256,192,47189,1,0,0:0:0:0:
256,192,47314,1,0,0:0:0:0:
256,192,47376,1,0,0:0:0:0:
256,192,47439,1,0,0:0:0:0:
256,192,47564,1,0,0:0:0:0:
256,192,47689,1,0,0:0:0:0:
256,192,47814,1,8,0:0:0:0:
160,160,47876,1,8,0:0:0:0:
160,160,47939,1,8,0:0:0:0:
160,160,48001,1,8,0:0:0:0:
256,192,48064,1,0,0:0:0:0:
192,192,48314,1,8,0:0:0:0:
256,192,48564,1,8,0:0:0:0:
224,192,48626,1,0,0:0:0:0:
224,192,48689,1,0,0:0:0:0:
224,192,48814,1,8,0:0:0:0:
256,192,49064,1,0,0:0:0:0:
256,128,49314,1,8,0:0:0:0:
256,192,49564,1,0,0:0:0:0:
256,192,49626,1,8,0:0:0:0:
256,192,49689,1,0,0:0:0:0:
256,192,49814,1,8,0:0:0:0:
64,160,50001,1,8,0:0:0:0:
256,192,50064,1,0,0:0:0:0:
224,128,50314,1,8,0:0:0:0:
256,192,50564,1,0,0:0:0:0:
224,128,50626,1,8,0:0:0:0:
224,128,50689,1,0,0:0:0:0:
224,128,50814,1,8,0:0:0:0:
256,192,51064,1,0,0:0:0:0:
224,128,51314,1,8,0:0:0:0:
256,192,51564,1,8,0:0:0:0:
256,192,51626,1,8,0:0:0:0:
256,192,51689,1,8,0:0:0:0:
256,192,51814,1,8,0:0:0:0:
256,192,51939,1,0,0:0:0:0:
256,192,52064,1,4,0:0:0:0:
224,128,52314,1,8,0:0:0:0:
256,192,52564,1,8,0:0:0:0:
224,128,52626,1,0,0:0:0:0:
224,128,52689,1,0,0:0:0:0:
224,128,52814,1,8,0:0:0:0:
256,192,53064,1,4,0:0:0:0:
256,128,53189,1,0,0:0:0:0:
256,128,53314,1,8,0:0:0:0:
224,96,53439,1,0,0:0:0:0:
256,192,53564,1,8,0:0:0:0:
224,128,53626,1,0,0:0:0:0:
224,128,53689,1,0,0:0:0:0:
224,160,53814,1,8,0:0:0:0:
224,160,53939,1,0,0:0:0:0:
256,192,54064,1,4,0:0:0:0:
224,160,54189,1,0,0:0:0:0:
224,160,54314,1,8,0:0:0:0:
224,160,54376,1,8,0:0:0:0:
224,160,54439,1,0,0:0:0:0:
256,192,54564,1,4,0:0:0:0:
288,128,54689,1,0,0:0:0:0:
288,128,54814,1,8,0:0:0:0:
288,128,54939,1,0,0:0:0:0:
256,192,55064,1,8,0:0:0:0:
256,192,55126,1,8,0:0:0:0:
256,192,55189,1,8,0:0:0:0:
256,192,55314,1,8,0:0:0:0:
256,192,55376,1,0,0:0:0:0:
256,192,55439,1,8,0:0:0:0:
32,256,55564,2,0,L|224:128,1,210
256,160,56064,5,0,0:0:0:0:
256,192,56126,1,0,0:0:0:0:
256,192,56189,1,8,0:0:0:0:
256,192,56314,1,0,0:0:0:0:
256,192,56439,1,0,0:0:0:0:
256,192,56501,1,0,0:0:0:0:
256,192,56564,1,8,0:0:0:0:
256,192,56689,1,0,0:0:0:0:
256,192,56814,1,0,0:0:0:0:
256,192,56876,1,0,0:0:0:0:
256,192,56939,1,8,0:0:0:0:
256,192,57064,1,0,0:0:0:0:
256,192,57189,1,0,0:0:0:0:
256,192,57314,1,0,0:0:0:0:
256,192,57376,1,0,0:0:0:0:
256,192,57439,1,8,0:0:0:0:
256,192,57564,1,0,0:0:0:0:
256,192,57689,1,0,0:0:0:0:
256,192,57814,1,0,0:0:0:0:
256,192,57876,1,0,0:0:0:0:
256,192,57939,1,0,0:0:0:0:
256,192,58064,1,8,0:0:0:0:
256,192,58126,1,8,0:0:0:0:
256,192,58189,1,0,0:0:0:0:
256,192,58314,1,0,0:0:0:0:
256,192,58439,1,8,0:0:0:0:
256,192,58501,1,8,0:0:0:0:
256,192,58564,1,0,0:0:0:0:
256,192,58689,1,0,0:0:0:0:
256,192,58814,1,0,0:0:0:0:
256,192,58876,1,8,0:0:0:0:
256,192,58939,1,0,0:0:0:0:
256,192,59064,1,0,0:0:0:0:
256,192,59189,1,8,0:0:0:0:
256,192,59251,1,8,0:0:0:0:
256,192,59314,1,8,0:0:0:0:
256,192,59439,1,8,0:0:0:0:
256,192,59564,1,0,0:0:0:0:
256,192,59626,1,0,0:0:0:0:
256,192,59689,1,0,0:0:0:0:
256,192,59814,1,0,0:0:0:0:
256,192,59876,1,8,0:0:0:0:
256,192,59939,1,8,0:0:0:0:
256,192,60064,1,8,0:0:0:0:
256,192,60189,1,8,0:0:0:0:
256,192,60314,1,0,0:0:0:0:
256,192,60439,1,8,0:0:0:0:
256,192,60501,1,8,0:0:0:0:
256,192,60564,1,8,0:0:0:0:
256,192,60689,1,0,0:0:0:0:
256,192,60751,1,0,0:0:0:0:
256,192,60814,1,8,0:0:0:0:
256,192,60876,1,8,0:0:0:0:
256,192,60939,1,0,0:0:0:0:
256,192,61064,1,0,0:0:0:0:
256,192,61126,1,0,0:0:0:0:
256,192,61189,1,0,0:0:0:0:
256,192,61314,1,0,0:0:0:0:
256,192,61439,1,8,0:0:0:0:
256,192,61501,1,8,0:0:0:0:
256,192,61564,1,8,0:0:0:0:
256,192,61689,1,0,0:0:0:0:
256,192,61814,1,0,0:0:0:0:
256,192,61939,1,0,0:0:0:0:
256,192,62064,1,8,0:0:0:0:
256,192,62126,1,0,0:0:0:0:
256,192,62189,1,0,0:0:0:0:
256,192,62314,1,0,0:0:0:0:
256,192,62439,1,8,0:0:0:0:
256,192,62501,1,0,0:0:0:0:
256,192,62564,1,0,0:0:0:0:
256,192,62689,1,0,0:0:0:0:
256,192,62814,1,0,0:0:0:0:
256,192,62876,1,0,0:0:0:0:
256,192,62939,1,8,0:0:0:0:
256,192,63064,1,0,0:0:0:0:
288,224,63189,1,8,0:0:0:0:
256,192,63251,1,8,0:0:0:0:
256,192,63314,1,0,0:0:0:0:
256,192,63376,1,0,0:0:0:0:
256,192,63439,1,0,0:0:0:0:
256,192,63564,1,0,0:0:0:0:
256,192,63626,1,8,0:0:0:0:
256,192,63689,1,0,0:0:0:0:
256,192,63814,1,0,0:0:0:0:
256,192,63939,1,0,0:0:0:0:
256,192,64064,1,0,0:0:0:0:
256,192,64126,1,0,0:0:0:0:
256,192,64189,1,0,0:0:0:0:
256,192,64251,1,0,0:0:0:0:
256,192,64314,1,8,0:0:0:0:
256,192,64439,1,0,0:0:0:0:
256,192,64501,1,0,0:0:0:0:
256,192,64564,1,0,0:0:0:0:
256,192,64626,1,0,0:0:0:0:
256,192,64689,1,8,0:0:0:0:
256,192,64814,1,0,0:0:0:0:
256,192,64876,1,0,0:0:0:0:
256,192,64939,1,0,0:0:0:0:
256,192,65064,1,8,0:0:0:0:
256,192,65189,1,0,0:0:0:0:
256,192,65314,1,0,0:0:0:0:
256,192,65439,1,8,0:0:0:0:
256,192,65564,1,0,0:0:0:0:
256,192,65626,1,0,0:0:0:0:
256,192,65689,1,0,0:0:0:0:
256,192,65814,1,0,0:0:0:0:
256,192,65876,1,0,0:0:0:0:
256,192,65939,1,0,0:0:0:0:
256,192,66064,1,0,0:0:0:0:
256,192,66189,1,8,0:0:0:0:
256,192,66314,1,0,0:0:0:0:
256,192,66439,1,8,0:0:0:0:
256,192,66501,1,8,0:0:0:0:
256,192,66564,1,8,0:0:0:0:
256,192,66689,1,8,0:0:0:0:
256,192,66751,1,8,0:0:0:0:
256,192,66814,1,8,0:0:0:0:
256,192,66939,1,0,0:0:0:0:
256,192,67064,1,0,0:0:0:0:
256,192,67189,1,0,0:0:0:0:
256,192,67251,1,0,0:0:0:0:
256,192,67314,1,0,0:0:0:0:
256,192,67439,1,0,0:0:0:0:
256,192,67564,1,0,0:0:0:0:
256,192,67689,1,8,0:0:0:0:
256,192,67751,1,8,0:0:0:0:
256,192,67814,1,8,0:0:0:0:
256,192,67939,1,0,0:0:0:0:
256,192,68064,1,0,0:0:0:0:
256,192,68126,1,0,0:0:0:0:
256,192,68189,1,8,0:0:0:0:
256,192,68314,1,0,0:0:0:0:
256,192,68439,1,8,0:0:0:0:
256,192,68501,1,8,0:0:0:0:
256,192,68564,1,0,0:0:0:0:
256,192,68689,1,8,0:0:0:0:
256,192,68751,1,8,0:0:0:0:
256,192,68814,1,0,0:0:0:0:
256,192,68939,1,0,0:0:0:0:
256,192,69064,1,0,0:0:0:0:
256,192,69189,1,8,0:0:0:0:
256,192,69314,1,0,0:0:0:0:
256,192,69439,1,8,0:0:0:0:
256,192,69501,1,8,0:0:0:0:
256,192,69564,1,8,0:0:0:0:
256,192,69689,1,0,0:0:0:0:
256,192,69751,1,0,0:0:0:0:
256,192,69814,1,0,0:0:0:0:
256,192,69939,1,0,0:0:0:0:
256,192,70064,1,0,0:0:0:0:
256,192,70189,1,8,0:0:0:0:
256,192,70314,1,0,0:0:0:0:
256,192,70376,1,0,0:0:0:0:
256,192,70439,1,8,0:0:0:0:
256,192,70564,1,0,0:0:0:0:
256,192,70689,1,8,0:0:0:0:
256,192,70814,1,0,0:0:0:0:
256,192,70939,1,0,0:0:0:0:
256,192,71064,1,8,0:0:0:0:
256,192,71126,1,8,0:0:0:0:
256,192,71189,1,8,0:0:0:0:
256,192,71251,1,8,0:0:0:0:
256,192,71314,1,0,0:0:0:0:
256,192,71439,1,0,0:0:0:0:
256,192,71501,1,0,0:0:0:0:
256,192,71564,1,8,0:0:0:0:
256,192,71689,1,8,0:0:0:0:
256,192,71814,1,0,0:0:0:0:
256,192,71876,1,0,0:0:0:0:
256,192,71939,1,0,0:0:0:0:
256,192,72064,1,4,0:0:0:0:
256,192,72314,1,0,0:0:0:0:
256,192,72564,1,8,0:0:0:0:
256,192,74064,1,8,0:0:0:0:
256,192,74314,1,0,0:0:0:0:
256,192,74564,1,8,0:0:0:0:
256,192,76064,1,0,0:0:0:0:
256,192,76314,1,0,0:0:0:0:
256,192,76564,1,8,0:0:0:0:
256,192,78064,1,8,0:0:0:0:
256,192,78314,1,0,0:0:0:0:
256,192,78564,1,8,0:0:0:0:
256,192,78814,1,0,0:0:0:0:
256,192,79064,1,8,0:0:0:0:
256,192,79314,1,0,0:0:0:0:
256,192,79564,1,8,0:0:0:0:
256,192,79814,1,0,0:0:0:0:
256,192,80064,1,0,0:0:0:0:
256,192,80314,1,0,0:0:0:0:
256,192,80564,1,8,0:0:0:0:
256,192,82064,1,8,0:0:0:0:
256,192,82314,1,0,0:0:0:0:
256,192,82564,1,8,0:0:0:0:
256,192,84064,1,0,0:0:0:0:
256,192,84314,1,0,0:0:0:0:
256,192,84564,1,8,0:0:0:0:
256,192,86064,1,8,0:0:0:0:
256,192,86314,1,0,0:0:0:0:
256,192,86564,1,8,0:0:0:0:
256,192,86814,1,0,0:0:0:0:
256,192,87064,1,8,0:0:0:0:
256,192,87314,1,0,0:0:0:0:
256,192,87564,1,8,0:0:0:0:
256,192,87814,1,0,0:0:0:0:
256,192,88064,1,4,0:0:0:0:
256,192,88189,1,8,0:0:0:0:
256,192,88564,1,8,0:0:0:0:
256,192,88814,1,0,0:0:0:0:
256,192,89064,1,0,0:0:0:0:
256,192,89189,1,8,0:0:0:0:
256,192,89314,1,0,0:0:0:0:
256,192,89564,1,8,0:0:0:0:
256,192,90064,1,4,0:0:0:0:
256,192,90189,1,8,0:0:0:0:
256,192,90314,1,0,0:0:0:0:
256,192,90376,1,0,0:0:0:0:
256,192,90439,1,0,0:0:0:0:
256,192,90501,1,0,0:0:0:0:
256,192,90564,1,8,0:0:0:0:
256,192,90689,1,0,0:0:0:0:
256,192,90814,1,0,0:0:0:0:
256,192,91064,1,0,0:0:0:0:
256,192,91189,1,8,0:0:0:0:
256,192,91314,1,0,0:0:0:0:
256,192,91439,1,0,0:0:0:0:
256,192,91564,1,8,0:0:0:0:
256,192,92064,1,4,0:0:0:0:
256,192,92189,1,8,0:0:0:0:
256,192,92564,1,8,0:0:0:0:
256,192,92814,1,0,0:0:0:0:
256,192,92939,1,0,0:0:0:0:
256,192,93064,1,0,0:0:0:0:
256,192,93189,1,8,0:0:0:0:
256,192,93314,1,0,0:0:0:0:
256,192,93564,1,8,0:0:0:0:
256,192,94064,1,4,0:0:0:0:
256,192,94189,1,8,0:0:0:0:
256,192,94314,1,0,0:0:0:0:
256,192,94376,1,0,0:0:0:0:
256,192,94439,1,0,0:0:0:0:
256,192,94564,1,8,0:0:0:0:
256,192,94689,1,0,0:0:0:0:
256,192,94814,1,0,0:0:0:0:
256,192,95314,1,8,0:0:0:0:
256,192,95439,1,8,0:0:0:0:
256,192,95564,1,8,0:0:0:0:
256,192,95814,1,0,0:0:0:0:
256,192,95939,1,0,0:0:0:0:
256,192,96064,1,4,0:0:0:0:
256,192,96189,1,8,0:0:0:0:
256,192,96314,1,0,0:0:0:0:
256,192,96564,1,8,0:0:0:0:
256,192,96814,1,0,0:0:0:0:
256,192,96939,1,0,0:0:0:0:
256,192,97064,1,0,0:0:0:0:
256,192,97189,1,8,0:0:0:0:
256,192,97314,1,0,0:0:0:0:
256,192,97439,1,0,0:0:0:0:
256,192,97564,1,8,0:0:0:0:
256,192,98064,1,4,0:0:0:0:
256,192,98189,1,8,0:0:0:0:
256,192,98314,1,0,0:0:0:0:
256,192,98376,1,0,0:0:0:0:
256,192,98439,1,0,0:0:0:0:
256,192,98564,1,8,0:0:0:0:
256,192,98689,1,0,0:0:0:0:
256,192,98814,1,0,0:0:0:0:
256,192,99064,1,0,0:0:0:0:
256,192,99189,1,8,0:0:0:0:
256,192,99314,1,0,0:0:0:0:
256,192,99564,1,8,0:0:0:0:
256,192,100064,1,4,0:0:0:0:
256,192,100189,1,8,0:0:0:0:
256,192,100564,1,8,0:0:0:0:
256,192,100814,1,0,0:0:0:0:
256,192,101064,1,0,0:0:0:0:
256,192,101189,1,8,0:0:0:0:
256,192,101439,1,0,0:0:0:0:
256,192,101501,1,0,0:0:0:0:
256,192,101564,1,8,0:0:0:0:
256,192,102064,1,4,0:0:0:0:
256,192,102189,1,8,0:0:0:0:
256,192,102314,1,0,0:0:0:0:
256,192,102376,1,0,0:0:0:0:
256,192,102439,1,0,0:0:0:0:
256,192,102564,1,8,0:0:0:0:
256,192,102689,1,0,0:0:0:0:
256,192,102814,1,0,0:0:0:0:
256,192,103314,1,8,0:0:0:0:
256,192,103439,1,8,0:0:0:0:
256,192,103564,1,0,0:0:0:0:
256,192,103626,1,0,0:0:0:0:
256,192,103689,1,0,0:0:0:0:
256,192,103751,1,0,0:0:0:0:
256,192,103814,1,0,0:0:0:0:
256,192,103876,1,0,0:0:0:0:
256,192,103939,1,0,0:0:0:0:
256,192,104064,5,4,0:0:0:0:
256,192,104314,1,8,0:0:0:0:
256,192,104564,1,0,0:0:0:0:
256,192,104626,1,0,0:0:0:0:
256,192,104689,1,0,0:0:0:0:
256,192,104814,1,8,0:0:0:0:
256,192,105064,1,0,0:0:0:0:
256,192,105314,1,8,0:0:0:0:
256,192,105564,1,0,0:0:0:0:
256,192,105626,1,8,0:0:0:0:
256,192,105689,1,0,0:0:0:0:
256,192,105814,1,8,0:0:0:0:
256,192,105876,1,8,0:0:0:0:
256,192,105939,1,8,0:0:0:0:
256,192,106001,1,8,0:0:0:0:
256,192,106064,1,0,0:0:0:0:
256,192,106314,1,8,0:0:0:0:
256,192,106564,1,0,0:0:0:0:
256,192,106626,1,0,0:0:0:0:
256,192,106689,1,0,0:0:0:0:
256,192,106814,1,8,0:0:0:0:
256,192,107064,1,0,0:0:0:0:
256,192,107314,1,8,0:0:0:0:
256,192,107564,1,8,0:0:0:0:
256,192,107626,1,8,0:0:0:0:
256,192,107689,1,8,0:0:0:0:
256,192,107751,1,8,0:0:0:0:
256,192,107814,1,0,0:0:0:0:
256,192,107876,1,0,0:0:0:0:
256,192,107939,1,0,0:0:0:0:
256,192,108064,1,4,0:0:0:0:
256,192,108314,1,8,0:0:0:0:
256,192,108564,1,0,0:0:0:0:
256,192,108626,1,0,0:0:0:0:
256,192,108689,1,0,0:0:0:0:
256,192,108814,1,8,0:0:0:0:
256,192,109064,1,4,0:0:0:0:
256,192,109314,1,8,0:0:0:0:
256,192,109564,1,0,0:0:0:0:
256,192,109626,1,0,0:0:0:0:
256,192,109689,1,0,0:0:0:0:
256,192,109814,1,8,0:0:0:0:
256,192,110064,1,4,0:0:0:0:
256,192,110189,1,0,0:0:0:0:
256,192,110251,1,0,0:0:0:0:
256,192,110314,1,8,0:0:0:0:
256,192,110439,1,0,0:0:0:0:
256,192,110564,1,4,0:0:0:0:
256,192,110689,1,0,0:0:0:0:
256,192,110751,1,0,0:0:0:0:
256,192,110814,1,8,0:0:0:0:
256,192,110939,1,0,0:0:0:0:
256,192,111064,1,0,0:0:0:0:
256,192,111126,1,0,0:0:0:0:
256,192,111189,1,0,0:0:0:0:
256,192,111251,1,0,0:0:0:0:
256,192,111314,1,8,0:0:0:0:
256,192,111376,1,8,0:0:0:0:
256,192,111439,1,8,0:0:0:0:
256,192,111501,1,8,0:0:0:0:
256,192,111564,1,0,0:0:0:0:
256,192,111626,1,0,0:0:0:0:
256,192,111689,1,0,0:0:0:0:
256,192,111751,1,0,0:0:0:0:
256,192,111814,1,8,0:0:0:0:
256,192,111876,1,8,0:0:0:0:
256,192,111939,1,8,0:0:0:0:
256,192,112001,1,8,0:0:0:0:
256,192,112064,1,0,0:0:0:0:
256,192,112126,1,0,0:0:0:0:
256,192,112189,1,0,0:0:0:0:
256,192,112314,1,8,0:0:0:0:
256,192,112439,1,0,0:0:0:0:
256,192,112564,1,8,0:0:0:0:
256,192,112626,1,8,0:0:0:0:
256,192,112689,1,0,0:0:0:0:
256,192,112814,1,8,0:0:0:0:
256,192,112939,1,0,0:0:0:0:
256,192,113064,1,0,0:0:0:0:
256,192,113126,1,8,0:0:0:0:
256,192,113189,1,0,0:0:0:0:
256,192,113314,1,8,0:0:0:0:
256,192,113439,1,0,0:0:0:0:
256,192,113564,1,8,0:0:0:0:
256,192,113626,1,8,0:0:0:0:
256,192,113689,1,0,0:0:0:0:
256,192,113751,1,0,0:0:0:0:
256,192,113814,1,8,0:0:0:0:
256,192,113876,1,8,0:0:0:0:
256,192,113939,1,0,0:0:0:0:
256,192,114064,1,0,0:0:0:0:
256,192,114126,1,0,0:0:0:0:
256,192,114189,1,0,0:0:0:0:
256,192,114314,1,8,0:0:0:0:
256,192,114439,1,0,0:0:0:0:
256,192,114564,1,8,0:0:0:0:
256,192,114626,1,8,0:0:0:0:
256,192,114689,1,0,0:0:0:0:
256,192,114814,1,8,0:0:0:0:
256,192,114939,1,0,0:0:0:0:
256,192,115064,1,0,0:0:0:0:
256,192,115126,1,8,0:0:0:0:
256,192,115189,1,0,0:0:0:0:
256,192,115314,1,8,0:0:0:0:
256,192,115439,1,0,0:0:0:0:
256,192,115564,1,8,0:0:0:0:
256,192,115626,1,8,0:0:0:0:
256,192,115689,1,8,0:0:0:0:
256,192,115751,1,8,0:0:0:0:
256,192,115814,1,0,0:0:0:0:
256,192,115876,1,0,0:0:0:0:
256,192,115939,1,0,0:0:0:0:
256,192,116064,1,0,0:0:0:0:
256,192,116126,1,8,0:0:0:0:
256,192,116189,1,0,0:0:0:0:
256,192,116314,1,8,0:0:0:0:
256,192,116439,1,0,0:0:0:0:
256,192,116564,1,0,0:0:0:0:
256,192,116626,1,0,0:0:0:0:
256,192,116689,1,0,0:0:0:0:
256,192,116814,1,8,0:0:0:0:
256,192,116939,1,0,0:0:0:0:
256,192,117064,1,8,0:0:0:0:
256,192,117126,1,8,0:0:0:0:
256,192,117189,1,0,0:0:0:0:
256,192,117314,1,8,0:0:0:0:
256,192,117439,1,0,0:0:0:0:
256,192,117564,1,8,0:0:0:0:
256,192,117626,1,8,0:0:0:0:
256,192,117689,1,0,0:0:0:0:
256,192,117751,1,0,0:0:0:0:
256,192,117814,1,8,0:0:0:0:
256,192,117876,1,8,0:0:0:0:
256,192,117939,1,0,0:0:0:0:
256,192,118064,1,0,0:0:0:0:
256,192,118126,1,8,0:0:0:0:
256,192,118189,1,0,0:0:0:0:
256,192,118314,1,8,0:0:0:0:
256,192,118439,1,0,0:0:0:0:
256,192,118564,1,0,0:0:0:0:
256,192,118626,1,0,0:0:0:0:
256,192,118689,1,0,0:0:0:0:
256,192,118814,1,8,0:0:0:0:
256,192,118939,1,0,0:0:0:0:
256,192,119064,1,8,0:0:0:0:
256,192,119126,1,8,0:0:0:0:
256,192,119189,1,0,0:0:0:0:
256,192,119314,1,8,0:0:0:0:
256,192,119439,1,0,0:0:0:0:
256,192,119564,1,0,0:0:0:0:
256,192,119626,1,0,0:0:0:0:
256,192,119689,1,0,0:0:0:0:
256,192,119751,1,0,0:0:0:0:
256,192,119814,1,8,0:0:0:0:
256,192,119939,1,0,0:0:0:0:
256,192,120064,1,0,0:0:0:0:
224,224,120126,1,0,0:0:0:0:
256,192,120189,1,0,0:0:0:0:
256,192,120314,1,8,0:0:0:0:
256,192,120439,1,0,0:0:0:0:
256,192,120564,1,0,0:0:0:0:
256,192,120626,1,8,0:0:0:0:
256,192,120689,1,0,0:0:0:0:
256,192,120814,1,8,0:0:0:0:
256,192,120939,1,0,0:0:0:0:
256,192,121064,1,0,0:0:0:0:
256,192,121126,1,8,0:0:0:0:
256,192,121189,1,0,0:0:0:0:
256,192,121314,1,8,0:0:0:0:
256,192,121439,1,0,0:0:0:0:
256,192,121564,1,8,0:0:0:0:
256,192,121626,1,8,0:0:0:0:
256,192,121689,1,0,0:0:0:0:
256,192,121751,1,0,0:0:0:0:
256,192,121814,1,8,0:0:0:0:
256,192,121876,1,8,0:0:0:0:
256,192,121939,1,0,0:0:0:0:
256,192,122064,1,0,0:0:0:0:
256,192,122126,1,8,0:0:0:0:
256,192,122189,1,0,0:0:0:0:
256,192,122314,1,8,0:0:0:0:
256,192,122439,1,0,0:0:0:0:
256,192,122564,1,0,0:0:0:0:
256,192,122626,1,0,0:0:0:0:
256,192,122689,1,0,0:0:0:0:
256,192,122814,1,8,0:0:0:0:
256,192,122939,1,0,0:0:0:0:
256,192,123064,1,8,0:0:0:0:
256,192,123126,1,8,0:0:0:0:
256,192,123189,1,0,0:0:0:0:
256,192,123314,1,8,0:0:0:0:
256,192,123439,1,0,0:0:0:0:
256,192,123564,1,8,0:0:0:0:
256,192,123626,1,8,0:0:0:0:
256,192,123689,1,8,0:0:0:0:
256,192,123751,1,8,0:0:0:0:
256,192,123814,1,0,0:0:0:0:
256,192,123876,1,0,0:0:0:0:
256,192,123939,1,0,0:0:0:0:
256,192,124064,1,0,0:0:0:0:
224,192,124126,1,0,0:0:0:0:
256,192,124189,1,0,0:0:0:0:
256,192,124314,1,8,0:0:0:0:
256,192,124439,1,0,0:0:0:0:
224,192,124564,1,8,0:0:0:0:
256,192,124626,1,8,0:0:0:0:
256,192,124689,1,0,0:0:0:0:
256,192,124814,1,8,0:0:0:0:
256,192,124939,1,0,0:0:0:0:
256,192,125064,1,0,0:0:0:0:
256,192,125126,1,8,0:0:0:0:
256,192,125189,1,0,0:0:0:0:
256,192,125314,1,8,0:0:0:0:
256,192,125439,1,0,0:0:0:0:
256,192,125564,1,8,0:0:0:0:
256,192,125626,1,8,0:0:0:0:
256,192,125689,1,0,0:0:0:0:
256,192,125751,1,0,0:0:0:0:
256,192,125814,1,8,0:0:0:0:
256,192,125876,1,8,0:0:0:0:
256,192,125939,1,8,0:0:0:0:
256,192,126001,1,0,0:0:0:0:
256,192,126064,1,8,0:0:0:0:
256,192,126314,1,0,0:0:0:0:
256,192,126564,1,8,0:0:0:0:
256,192,126689,1,0,0:0:0:0:
256,192,126814,1,0,0:0:0:0:
256,192,127064,1,8,0:0:0:0:
160,192,127564,2,0,P|192:96|192:32,1,140
256,192,128064,5,0,0:0:0:0:
256,192,128314,1,0,0:0:0:0:
256,192,128564,1,8,0:0:0:0:
256,192,130064,1,8,0:0:0:0:
256,192,130314,1,0,0:0:0:0:
256,192,130564,1,8,0:0:0:0:
256,192,132064,1,0,0:0:0:0:
256,192,132314,1,0,0:0:0:0:
256,192,132564,1,8,0:0:0:0:
256,192,134064,1,8,0:0:0:0:
256,192,134314,1,0,0:0:0:0:
256,192,134564,1,8,0:0:0:0:
256,192,136064,1,0,0:0:0:0:
256,192,136314,1,0,0:0:0:0:
256,192,136564,1,8,0:0:0:0:
256,192,138064,1,8,0:0:0:0:
256,192,138314,1,0,0:0:0:0:
256,192,138564,1,8,0:0:0:0:
256,192,140064,1,0,0:0:0:0:
256,192,140314,1,0,0:0:0:0:
256,192,140564,1,8,0:0:0:0:
256,192,142064,5,8,0:0:0:0:
256,192,142314,1,0,0:0:0:0:
256,192,142564,5,8,0:0:0:0:
