osu file format v12

[General]
AudioFilename: LapFox Trax - BRUTAL RHYTHM RIDER - 05 HIT AND RUN IN 1920 A.D..mp3
AudioLeadIn: 2000
PreviewTime: 16064
Countdown: 0
SampleSet: Normal
StackLeniency: 0.7
Mode: 1
LetterboxInBreaks: 0

[Editor]
Bookmarks: 32075,48075,56064,64064,66064,71064,72064,88064,104064,112064,120064,128064
DistanceSpacing: 0.8
BeatDivisor: 1
GridSize: 32

[Metadata]
Title:HIT AND RUN IN 1920 A.D.
TitleUnicode:HIT AND RUN IN 1920 A.D.
Artist:The Quick Brown Fox
ArtistUnicode:The Quick Brown Fox
Creator:kazukisinx
Version:Futsuu
Source:
Tags:taiko lapfox trax speedcore
BeatmapID:218457
BeatmapSetID:77858

[Difficulty]
HPDrainRate:4
CircleSize:2
OverallDifficulty:4
ApproachRate:0
SliderMultiplier:1
SliderTickRate:1

[Events]
//Background and Video events
0,0,"Pwnage.jpg",0,0
//Break Periods
//Storyboard Layer 0 (Background)
//Storyboard Layer 1 (Fail)
//Storyboard Layer 2 (Pass)
//Storyboard Layer 3 (Foreground)
//Storyboard Sound Samples
//Background Colour Transformations
3,100,163,162,255

[TimingPoints]
64,250,4,1,0,60,1,0
16064,-100,4,1,0,90,0,0
32064,-100,4,1,0,100,0,0
56064,-100,4,1,0,100,0,1
72064,-100,4,1,0,100,0,0
112064,-100,4,1,0,100,0,1
128064,-100,4,1,0,100,0,0
136064,-100,4,1,0,70,0,0
138064,-100,4,1,0,60,0,0
140064,-100,4,1,0,40,0,0
142064,-100,4,1,0,20,0,0

[Colours]
Combo1 : 48,176,192
Combo2 : 248,72,40

[HitObjects]
256,192,64,1,0,0:0:0:0:
256,192,564,5,8,0:0:0:0:
256,192,2064,1,8,0:0:0:0:
256,192,2564,1,8,0:0:0:0:
256,192,4064,5,0,0:0:0:0:
256,192,4564,5,8,0:0:0:0:
256,192,6064,1,8,0:0:0:0:
256,192,6564,5,0,0:0:0:0:
256,192,7064,5,8,0:0:0:0:
256,192,7564,1,8,0:0:0:0:
256,192,8064,5,4,0:0:0:0:
256,192,8564,5,8,0:0:0:0:
256,192,10064,1,8,0:0:0:0:
256,192,10564,1,8,0:0:0:0:
256,192,11814,5,0,0:0:0:0:
256,192,12064,1,4,0:0:0:0:
256,192,12564,5,8,0:0:0:0:
256,192,14064,5,4,0:0:0:0:
256,192,14564,1,4,0:0:0:0:
256,192,15064,1,4,0:0:0:0:
256,192,15314,1,0,0:0:0:0:
256,192,15564,1,0,0:0:0:0:
256,192,16064,5,8,0:0:0:0:
256,192,17064,1,8,0:0:0:0:
256,192,18064,1,8,0:0:0:0:
256,192,19064,1,8,0:0:0:0:
256,192,19564,1,8,0:0:0:0:
256,192,20064,5,4,0:0:0:0:
256,192,21064,5,8,0:0:0:0:
256,192,22064,5,4,0:0:0:0:
256,192,23064,5,8,0:0:0:0:
256,192,23564,1,8,0:0:0:0:
256,192,24064,5,4,0:0:0:0:
256,192,25064,5,8,0:0:0:0:
256,192,26064,1,8,0:0:0:0:
256,192,27064,1,8,0:0:0:0:
256,192,27564,1,8,0:0:0:0:
256,192,28064,5,4,0:0:0:0:
256,192,29064,5,8,0:0:0:0:
256,192,30064,1,8,0:0:0:0:
256,192,30314,1,8,0:0:0:0:
256,192,30564,5,0,0:0:0:0:
256,192,30814,1,0,0:0:0:0:
256,192,31064,12,8,31814,0:0:0:0:
256,192,32064,5,0,0:0:0:0:
256,192,32564,1,8,0:0:0:0:
256,192,33064,5,0,0:0:0:0:
256,192,33564,5,8,0:0:0:0:
256,192,33814,5,8,0:0:0:0:
256,192,34064,1,0,0:0:0:0:
256,192,34564,5,8,0:0:0:0:
256,192,35064,5,0,0:0:0:0:
256,192,35564,5,8,0:0:0:0:
256,192,35814,1,8,0:0:0:0:
256,192,36064,5,0,0:0:0:0:
256,192,36564,5,8,0:0:0:0:
256,192,37064,5,0,0:0:0:0:
256,192,37564,5,8,0:0:0:0:
256,192,37814,5,0,0:0:0:0:
256,192,38064,5,8,0:0:0:0:
256,192,38314,1,8,0:0:0:0:
256,192,38564,5,0,0:0:0:0:
256,192,39064,1,0,0:0:0:0:
256,192,39564,1,0,0:0:0:0:
256,192,39814,5,8,0:0:0:0:
256,192,40064,5,0,0:0:0:0:
256,192,40564,5,8,0:0:0:0:
256,192,41064,5,0,0:0:0:0:
256,192,41564,5,8,0:0:0:0:
256,192,41814,5,8,0:0:0:0:
256,192,42064,1,0,0:0:0:0:
256,192,42564,5,8,0:0:0:0:
256,192,43064,5,0,0:0:0:0:
256,192,43564,5,8,0:0:0:0:
256,192,43814,1,8,0:0:0:0:
256,192,44064,5,4,0:0:0:0:
256,192,44564,5,8,0:0:0:0:
256,192,45064,5,0,0:0:0:0:
256,192,45564,5,8,0:0:0:0:
256,192,45814,5,0,0:0:0:0:
256,192,46064,5,8,0:0:0:0:
256,192,46314,1,8,0:0:0:0:
256,192,46564,5,0,0:0:0:0:
256,192,47064,1,0,0:0:0:0:
256,192,47564,5,8,0:0:0:0:
256,192,47814,1,8,0:0:0:0:
256,192,48064,5,4,0:0:0:0:
256,192,49814,1,0,0:0:0:0:
256,192,50064,1,4,0:0:0:0:
256,192,51564,5,8,0:0:0:0:
256,192,51814,5,0,0:0:0:0:
256,192,52064,1,4,0:0:0:0:
256,192,53064,1,4,0:0:0:0:
256,192,54064,1,4,0:0:0:0:
256,192,54564,1,4,0:0:0:0:
256,192,55064,12,0,55814,0:0:0:0:
256,192,56064,5,0,0:0:0:0:
256,192,56314,1,8,0:0:0:0:
256,192,56814,1,8,0:0:0:0:
256,192,57064,5,0,0:0:0:0:
256,192,57314,5,8,0:0:0:0:
256,192,57814,5,0,0:0:0:0:
256,192,58064,1,4,0:0:0:0:
256,192,58439,1,4,0:0:0:0:
256,192,58814,1,4,0:0:0:0:
256,192,59314,5,8,0:0:0:0:
256,192,59564,1,8,0:0:0:0:
256,192,59814,5,0,0:0:0:0:
256,192,60064,5,12,0:0:0:0:
256,192,60439,1,12,0:0:0:0:
256,192,60814,1,12,0:0:0:0:
256,192,61314,5,0,0:0:0:0:
256,192,61564,5,8,0:0:0:0:
256,192,61814,5,0,0:0:0:0:
256,192,62064,1,0,0:0:0:0:
256,192,62564,1,0,0:0:0:0:
256,192,63064,1,0,0:0:0:0:
256,192,63314,1,0,0:0:0:0:
256,192,63564,1,0,0:0:0:0:
256,192,63814,5,8,0:0:0:0:
256,192,64064,5,0,0:0:0:0:
256,192,64314,5,8,0:0:0:0:
256,192,64814,1,8,0:0:0:0:
256,192,65064,5,0,0:0:0:0:
256,192,65314,5,8,0:0:0:0:
256,192,65814,5,0,0:0:0:0:
256,192,66064,1,0,0:0:0:0:
256,192,66314,1,8,0:0:0:0:
256,192,66689,1,8,0:0:0:0:
256,192,66939,5,0,0:0:0:0:
256,192,67314,1,0,0:0:0:0:
256,192,67564,5,8,0:0:0:0:
256,192,67814,5,0,0:0:0:0:
256,192,68064,1,0,0:0:0:0:
256,192,68564,1,0,0:0:0:0:
256,192,69064,1,0,0:0:0:0:
256,192,69314,5,8,0:0:0:0:
256,192,69564,5,0,0:0:0:0:
256,192,69814,1,0,0:0:0:0:
256,192,70064,1,0,0:0:0:0:
256,192,70564,1,0,0:0:0:0:
256,192,71064,5,8,0:0:0:0:
256,192,71314,1,8,0:0:0:0:
256,192,71564,5,0,0:0:0:0:
256,192,71814,1,0,0:0:0:0:
256,192,72064,1,4,0:0:0:0:
256,192,72564,5,8,0:0:0:0:
256,192,74064,1,8,0:0:0:0:
256,192,74564,1,8,0:0:0:0:
256,192,76064,5,0,0:0:0:0:
256,192,76564,5,8,0:0:0:0:
256,192,78064,1,8,0:0:0:0:
256,192,78564,1,8,0:0:0:0:
256,192,79064,5,0,0:0:0:0:
256,192,79564,1,8,0:0:0:0:
256,192,80064,1,0,0:0:0:0:
256,192,80564,5,8,0:0:0:0:
256,192,82064,1,8,0:0:0:0:
256,192,82564,1,8,0:0:0:0:
256,192,84064,5,0,0:0:0:0:
256,192,84564,5,8,0:0:0:0:
256,192,86064,1,8,0:0:0:0:
256,192,86564,5,0,0:0:0:0:
256,192,87064,5,8,0:0:0:0:
256,192,87564,1,8,0:0:0:0:
256,192,88064,5,4,0:0:0:0:
256,192,88564,5,8,0:0:0:0:
256,192,89564,1,8,0:0:0:0:
256,192,90064,5,0,0:0:0:0:
256,192,90564,5,8,0:0:0:0:
256,192,90814,5,0,0:0:0:0:
256,192,91564,5,8,0:0:0:0:
256,192,92064,5,0,0:0:0:0:
256,192,92814,1,0,0:0:0:0:
256,192,93314,1,0,0:0:0:0:
256,192,93564,5,8,0:0:0:0:
256,192,94064,5,0,0:0:0:0:
256,192,94814,1,0,0:0:0:0:
256,192,95564,5,12,0:0:0:0:
256,192,96064,5,0,0:0:0:0:
256,192,96814,1,0,0:0:0:0:
256,192,97314,1,0,0:0:0:0:
256,192,97564,5,8,0:0:0:0:
256,192,98064,5,0,0:0:0:0:
256,192,98439,1,0,0:0:0:0:
256,192,98814,1,0,0:0:0:0:
256,192,99564,5,8,0:0:0:0:
256,192,100064,5,0,0:0:0:0:
256,192,100814,1,0,0:0:0:0:
256,192,101314,1,0,0:0:0:0:
256,192,101564,5,8,0:0:0:0:
256,192,102064,5,0,0:0:0:0:
256,192,102439,1,0,0:0:0:0:
256,192,102814,1,0,0:0:0:0:
256,192,103314,1,0,0:0:0:0:
256,192,103564,5,12,0:0:0:0:
256,192,104064,5,4,0:0:0:0:
256,192,105814,1,0,0:0:0:0:
256,192,106064,1,4,0:0:0:0:
256,192,107564,5,8,0:0:0:0:
256,192,107814,5,0,0:0:0:0:
256,192,108064,1,4,0:0:0:0:
256,192,109064,1,4,0:0:0:0:
256,192,110064,1,4,0:0:0:0:
256,192,110564,1,4,0:0:0:0:
256,192,111064,12,0,111814,0:0:0:0:
256,192,112064,5,0,0:0:0:0:
256,192,112314,1,8,0:0:0:0:
256,192,112564,5,0,0:0:0:0:
256,192,112814,5,8,0:0:0:0:
256,192,113064,5,0,0:0:0:0:
256,192,113314,5,8,0:0:0:0:
256,192,113814,5,0,0:0:0:0:
256,192,114064,1,0,0:0:0:0:
256,192,114314,5,8,0:0:0:0:
256,192,114564,5,0,0:0:0:0:
256,192,114814,5,8,0:0:0:0:
256,192,115064,5,0,0:0:0:0:
256,192,115314,5,8,0:0:0:0:
256,192,115814,1,8,0:0:0:0:
256,192,116064,5,0,0:0:0:0:
256,192,116314,5,8,0:0:0:0:
256,192,116564,5,0,0:0:0:0:
256,192,116814,5,8,0:0:0:0:
256,192,117064,5,0,0:0:0:0:
256,192,117314,5,8,0:0:0:0:
256,192,117814,1,8,0:0:0:0:
256,192,118064,5,0,0:0:0:0:
256,192,118314,5,8,0:0:0:0:
256,192,118564,5,0,0:0:0:0:
256,192,118814,5,8,0:0:0:0:
256,192,119064,5,0,0:0:0:0:
256,192,119314,5,8,0:0:0:0:
256,192,119564,5,0,0:0:0:0:
256,192,119814,1,0,0:0:0:0:
256,192,120064,1,0,0:0:0:0:
256,192,120564,1,8,0:0:0:0:
256,192,120814,1,0,0:0:0:0:
256,192,121064,1,0,0:0:0:0:
256,192,121314,5,8,0:0:0:0:
256,192,121564,5,0,0:0:0:0:
256,192,121814,1,0,0:0:0:0:
256,192,122064,1,0,0:0:0:0:
256,192,122564,5,8,0:0:0:0:
256,192,123064,5,0,0:0:0:0:
256,192,123314,1,0,0:0:0:0:
256,192,123564,5,8,0:0:0:0:
256,192,123814,5,0,0:0:0:0:
256,192,124064,1,0,0:0:0:0:
256,192,124439,5,8,0:0:0:0:
256,192,124814,5,0,0:0:0:0:
256,192,125064,5,12,0:0:0:0:
256,192,125439,1,12,0:0:0:0:
256,192,125814,1,12,0:0:0:0:
256,192,126064,12,0,127064,0:0:0:0:
256,192,127564,5,0,0:0:0:0:
256,192,127814,1,0,0:0:0:0:
256,192,128064,1,4,0:0:0:0:
256,192,128564,5,8,0:0:0:0:
256,192,130064,1,8,0:0:0:0:
256,192,130564,1,8,0:0:0:0:
256,192,132064,5,0,0:0:0:0:
256,192,132564,5,8,0:0:0:0:
256,192,134064,1,8,0:0:0:0:
256,192,134564,1,8,0:0:0:0:
256,192,136064,1,0,0:0:0:0:
256,192,136564,1,8,0:0:0:0:
256,192,138064,1,8,0:0:0:0:
256,192,138564,1,8,0:0:0:0:
288,192,140064,1,0,0:0:0:0:
288,192,140564,1,8,0:0:0:0:
288,192,142064,1,8,0:0:0:0:
288,192,142564,1,8,0:0:0:0:
