osu file format v14

[General]
AudioFilename: 10 Go Go Go!.mp3
AudioLeadIn: 0
PreviewTime: -1
Countdown: 1
SampleSet: None
StackLeniency: 0.7
Mode: 0
LetterboxInBreaks: 1
WidescreenStoryboard: 1

[Editor]
DistanceSpacing: 1.5
BeatDivisor: 4
GridSize: 32
TimelineZoom: 2.2

[Metadata]
Title:Go Go Go!
TitleUnicode:Go Go Go!
Artist:The Quick Brown Fox
ArtistUnicode:The Quick Brown Fox
Creator:zwoots
Version:Go
Source:
Tags:
BeatmapID:649365
BeatmapSetID:287192

[Difficulty]
HPDrainRate:4.5
CircleSize:4.5
OverallDifficulty:4.5
ApproachRate:4.5
SliderMultiplier:0.999999999999999
SliderTickRate:1

[Events]
//Background and Video events
0,0,"gooo.jpg",0,0
//Break Periods
//Storyboard Layer 0 (Background)
//Storyboard Layer 1 (Fail)
//Storyboard Layer 2 (Pass)
//Storyboard Layer 3 (Foreground)
//Storyboard Sound Samples

[TimingPoints]
2436.87003179455,299.7,4,1,0,100,1,0
88900,297.151879699247,4,1,0,100,1,0

[HitObjects]
256,192,9629,12,0,10529,0:0:0:0:
256,192,10828,6,0,P|320:128|384:128,1,150
256,192,13226,6,0,P|192:128|128:128,1,150
256,192,15623,6,0,P|192:256|128:256,1,150
256,192,16822,6,0,P|320:256|384:256,1,150
32,128,18021,2,0,P|32:192|96:256,1,150
160,256,18620,1,0,0:0:0:0:
384,256,19070,1,0,0:0:0:0:
416,192,19220,2,0,P|416:128|384:96,3,99.9999999999999
256,96,20418,1,0,0:0:0:0:
256,96,20718,1,0,0:0:0:0:
256,96,21018,1,0,0:0:0:0:
96,96,21317,6,0,L|96:128,3,25
96,160,21617,2,0,B|128:224|160:256|224:256,1,150
288,256,22217,2,0,L|288:192,3,50
352,256,22816,2,0,B|395:257|427:225|459:161,1,150
416,96,23415,2,0,L|416:32,3,50
352,64,24015,6,0,P|288:64|192:96,1,150
160,160,24614,2,0,L|224:192,3,50
192,256,25214,6,0,P|256:256|352:224,1,150
320,160,25813,2,0,L|256:192,3,50
288,96,26412,6,0,L|128:160,1,150
128,224,27012,2,0,L|192:256,3,50
224,288,27611,6,0,L|384:256,1,150
352,192,28211,2,0,L|288:160,3,50
288,96,28810,6,0,P|256:160|192:224,1,150
192,128,29409,2,0,L|160:192,3,50
288,256,30009,6,0,L|256:160,2,99.9999999999999
320,128,30908,2,0,L|288:128,4,25
320,192,31357,5,0,0:0:0:0:
256,320,31657,1,0,0:0:0:0:
96,320,31957,1,0,0:0:0:0:
32,192,32257,1,0,0:0:0:0:
192,192,32556,5,0,0:0:0:0:
256,320,32856,1,0,0:0:0:0:
416,320,33156,1,0,0:0:0:0:
480,192,33456,1,0,0:0:0:0:
384,96,33755,6,0,L|288:128,3,99.9999999999999
160,96,34954,2,0,L|64:64,3,99.9999999999999
64,128,36153,6,0,L|160:96,3,99.9999999999999
288,128,37352,2,0,L|384:160,3,99.9999999999999
256,96,38550,5,0,0:0:0:0:
256,96,38850,1,0,0:0:0:0:
256,96,39150,1,0,0:0:0:0:
256,96,39449,1,0,0:0:0:0:
320,96,39599,6,0,L|352:192,3,99.9999999999999
192,160,40798,6,0,L|256:192,3,50
224,256,41397,2,0,P|288:288|416:256,1,200
416,192,42147,2,0,P|322:162|231:197,1,200
160,192,42896,2,0,L|160:224,2,25
224,192,43196,6,0,L|160:224,3,50
192,288,43795,2,0,P|128:320|0:288,1,200
0,224,44545,2,0,P|93:194|184:229,1,200
256,224,45294,2,0,L|256:256,2,25
192,224,45593,6,0,L|256:192,3,50
224,128,46192,2,0,P|288:96|416:128,1,200
416,192,46942,2,0,P|322:221|231:186,1,200
160,192,47691,2,0,L|160:160,2,25
224,192,47991,6,0,L|160:160,3,50
192,96,48590,2,0,P|128:64|0:96,1,200
0,160,49340,2,0,P|93:189|184:154,1,200
256,160,50089,2,0,L|256:128,2,25
320,96,50388,6,0,L|352:160,3,50
352,224,50988,2,0,L|288:256,3,50
224,256,51587,2,0,L|192:192,3,50
128,160,52187,2,0,L|64:192,3,50
64,96,52786,6,0,L|128:96,3,50
192,96,53385,2,0,L|256:96,3,50
320,96,53985,2,0,L|384:96,3,50
416,160,54584,2,0,L|416:224,3,50
416,288,55184,6,0,L|352:256,3,50
320,320,55783,2,0,L|256:288,3,50
192,320,56382,2,0,L|128:288,3,50
64,320,56982,2,0,L|0:288,3,50
64,224,57581,6,0,L|128:192,3,50
192,192,58181,2,0,L|256:160,3,50
320,160,58780,1,0,0:0:0:0:
320,160,59080,1,0,0:0:0:0:
320,160,59379,1,0,0:0:0:0:
320,160,59679,1,0,0:0:0:0:
192,96,59979,6,0,L|192:160,4,50
96,224,60878,2,0,L|128:256,2,25
160,256,61178,6,0,L|160:320,4,50
320,224,62077,2,0,L|352:256,2,25
384,160,62376,6,0,L|384:224,4,50
256,64,63275,2,0,L|288:96,2,25
192,96,63575,6,0,L|192:160,4,50
192,256,64474,2,0,L|224:288,2,25
256,192,64774,6,0,L|256:256,4,50
384,96,65673,2,0,L|416:128,2,25
320,128,65973,6,0,L|320:192,4,50
96,224,66872,2,0,L|128:256,2,25
160,192,67172,6,0,L|160:256,4,50
320,224,68071,2,0,L|352:256,2,25
256,192,68370,6,0,L|256:256,4,50
128,96,69269,2,0,L|160:128,2,25
192,96,69569,6,0,L|192:160,7,50
256,96,70768,6,0,L|256:160,7,50
320,96,71967,6,0,L|320:160,7,50
384,96,73166,6,0,L|384:160,7,50
448,192,74364,6,0,L|448:128,7,50
384,192,75563,6,0,L|384:128,7,50
320,192,76762,6,0,L|320:128,7,50
320,64,77961,5,0,0:0:0:0:
320,64,78560,5,0,0:0:0:0:
