osu file format v14

[General]
AudioFilename: 10 Go Go Go!.mp3
AudioLeadIn: 0
PreviewTime: -1
Countdown: 1
SampleSet: Normal
StackLeniency: 0.7
Mode: 0
LetterboxInBreaks: 1
WidescreenStoryboard: 1

[Editor]
DistanceSpacing: 1.5
BeatDivisor: 4
GridSize: 16
TimelineZoom: 2.2

[Metadata]
Title:Go Go Go!
TitleUnicode:Go Go Go!
Artist:The Quick Brown Fox
ArtistUnicode:The Quick Brown Fox
Creator:zwoots
Version:Go Go
Source:
Tags:
BeatmapID:649315
BeatmapSetID:287192

[Difficulty]
HPDrainRate:6
CircleSize:3
OverallDifficulty:6
ApproachRate:8
SliderMultiplier:2
SliderTickRate:1

[Events]
//Background and Video events
0,0,"gooo.jpg",0,0
//Break Periods
2,79359,90378
2,91774,92904
//Storyboard Layer 0 (Background)
//Storyboard Layer 1 (Fail)
//Storyboard Layer 2 (Pass)
//Storyboard Layer 3 (Foreground)
//Storyboard Sound Samples

[TimingPoints]
2436.87003179455,299.7,4,1,0,100,1,0
88900,297.151879699247,4,1,0,100,1,0

[HitObjects]
256,192,9629,12,0,10529,0:0:0:0:
256,176,10828,5,0,0:0:0:0:
256,176,11278,1,0,0:0:0:0:
256,176,13226,5,0,0:0:0:0:
256,176,13675,1,0,0:0:0:0:
256,176,15623,5,0,0:0:0:0:
256,176,16073,1,0,0:0:0:0:
256,176,16822,5,0,0:0:0:0:
256,176,17272,1,0,0:0:0:0:
256,176,18021,5,0,0:0:0:0:
256,176,18470,2,0,L|256:288,1,100
64,80,19070,6,0,L|192:80,1,100
208,240,19519,1,0,0:0:0:0:
352,80,19819,2,0,L|320:176,1,100
352,80,20119,2,0,L|400:112,2,50
480,16,20418,5,0,0:0:0:0:
449,52,20718,1,0,0:0:0:0:
418,89,21018,1,0,0:0:0:0:
128,160,21317,2,0,L|96:160,7,25
144,144,21617,2,0,P|192:112|256:128,1,100
288,256,21917,2,0,P|368:240|400:192,1,100
336,80,22217,2,0,P|384:48|448:64,1,100
400,192,22516,6,0,L|448:224,2,50
304,304,22816,2,0,P|320:208|336:208,1,100
160,288,23116,2,0,P|144:192|128:192,1,100
192,176,23340,1,0,0:0:0:0:
224,144,23415,2,0,P|128:127|123:143,1,100
48,224,23715,2,0,L|96:160,4,50
192,304,24165,2,0,P|256:288|256:256,1,100
336,144,24464,2,0,L|272:144,4,50
208,64,24914,2,0,P|144:80|128:128,1,100
272,160,25214,6,0,L|320:208,4,50
416,192,25663,2,0,L|448:240,2,50
432,64,25963,2,0,P|383:158|396:177,1,100
288,256,26263,2,0,P|383:257|400:241,1,100
272,144,26562,2,0,P|177:145|160:129,1,100
192,64,26862,6,0,P|99:88|87:108,1,100
48,224,27162,2,0,L|160:224,1,100
148,224,27386,2,0,L|176:176,1,50
288,288,27611,2,0,P|208:288|192:272,1,100
352,304,27911,2,0,P|432:304|448:320,1,100
442,313,28136,2,0,L|448:256,1,50
256,304,28360,2,0,P|336:304|352:288,1,100
368,256,28585,2,0,L|320:192,3,50
432,128,28960,6,0,L|352:64,1,100
272,176,29260,2,0,L|224:208,4,50
416,160,29709,2,0,L|288:96,1,100
288,256,30009,2,0,L|208:240,4,50
176,160,30458,2,0,L|128:96,1,50
176,160,30608,2,0,P|96:192|80:176,1,100
224,272,30908,6,0,L|208:240,4,25
240,128,31208,2,0,L|320:224,1,100
160,224,31507,2,0,P|96:208|96:176,1,100
224,272,31807,2,0,L|304:368,1,100
352,208,32107,2,0,L|368:144,2,50
288,112,32406,2,0,L|240:240,1,100
400,240,32706,2,0,L|448:128,1,100
416,112,32931,1,0,0:0:0:0:
384,112,33006,2,0,L|336:208,1,100
384,288,33305,6,0,L|384:352,3,50
320,304,33605,2,0,P|288:256|320:224,1,100
176,160,33905,2,0,P|224:128|256:160,1,100
304,192,34130,2,0,L|352:176,2,50
272,256,34354,2,0,P|272:192|304:192,1,100
448,208,34654,6,0,L|448:80,1,100
416,80,34879,2,0,L|464:48,3,50
304,64,35254,2,0,L|256:112,2,50
432,224,35553,6,0,P|432:144|400:128,1,100
335,144,35853,2,0,P|377:119|423:136,1,100
413,47,36153,2,0,P|397:93|422:135,1,100
328,45,36452,2,0,P|371:67|416:48,1,100
416,48,36752,2,0,L|416:192,1,100
416,148,36977,2,0,L|416:240,1,50
272,192,37202,6,0,P|320:144|304:96,1,100
176,176,37501,2,0,P|208:128|256:112,1,100
245,112,37726,2,0,L|320:112,1,50
112,160,37951,2,0,L|0:96,1,100
25,110,38176,2,0,L|0:160,2,50
32,192,38400,2,0,P|112:240|144:224,1,100
256,192,38700,2,0,P|176:144|144:160,1,100
160,192,38925,2,0,L|192:240,3,50
304,272,39299,2,0,L|208:368,1,100
464,48,39599,6,0,L|368:112,4,100
464,48,40498,2,0,L|448:112,2,50
304,144,40798,6,0,P|272:208|288:240,1,100
160,144,41098,2,0,P|192:96|240:80,1,100
192,224,41397,2,0,P|220:289|256:297,1,100
384,240,41697,2,0,L|432:192,2,50
352,96,41997,2,0,L|256:176,1,100
304,304,42296,2,0,L|176:304,1,100
160,304,42521,1,0,0:0:0:0:
112,304,42596,2,0,L|-16:304,1,100
112,192,42896,2,0,L|160:160,4,50
464,272,43345,6,0,L|336:272,1,100
364,272,43645,2,0,L|368:208,4,50
364,272,44095,2,0,L|240:272,1,100
264,272,44394,2,0,L|264:208,3,50
208,272,44694,2,0,L|208:160,1,100
240,144,44919,1,0,0:0:0:0:
272,112,44994,2,0,L|368:64,1,100
496,128,45293,2,0,L|432:240,1,100
320,96,45593,2,0,L|256:208,1,100
416,192,45893,2,0,L|352:304,1,100
272,192,46193,2,0,P|240:112|256:80,1,100
384,80,46492,2,0,L|320:48,2,50
128,112,46792,6,0,P|192:80|256:96,1,100
368,128,47092,2,0,P|304:160|240:144,1,100
240,176,47316,1,0,0:0:0:0:
192,176,47391,2,0,P|160:128|176:80,1,100
320,48,47691,2,0,L|320:112,4,50
176,64,48141,6,0,L|288:144,1,100
352,240,48440,2,0,L|304:176,4,50
208,224,48890,2,0,P|121:181|121:146,1,100
224,96,49190,2,0,L|288:112,4,50
176,240,49639,2,0,L|96:240,1,50
176,240,49789,2,0,L|176:128,1,100
208,80,50089,2,0,L|224:48,6,25
48,144,50388,2,0,P|64:208|96:224,1,100
240,256,50688,2,0,P|224:320|192:336,1,100
144,192,50988,2,0,L|240:128,1,100
384,128,51287,2,0,L|336:144,2,50
208,48,51587,6,0,L|208:160,1,100
352,144,51887,2,0,L|352:32,1,100
320,64,52112,1,0,0:0:0:0:
288,80,52187,2,0,L|160:80,1,100
64,176,52486,2,0,L|64:240,4,50
224,304,52936,2,0,L|224:176,1,100
368,224,53236,6,0,L|418:224,4,50
224,48,53685,2,0,L|144:144,1,100
96,80,53985,2,0,L|144:48,4,50
96,224,54434,2,0,L|160:192,2,50
96,368,54734,2,0,L|176:272,1,100
240,320,55034,6,0,L|368:256,1,100
400,144,55333,2,0,P|384:80|336:48,1,100
208,80,55633,2,0,L|240:192,1,100
64,112,55933,2,0,P|32:192|48:224,1,100
34,200,56158,2,0,L|96:192,1,50
160,272,56382,2,0,P|208:288|256:272,2,100
304,224,56832,2,0,L|384:208,2,50
32,160,57132,6,0,P|48:208|96:256,1,100
128,272,57356,2,0,L|144:208,3,50
256,144,57731,2,0,P|320:112|384:112,1,100
416,240,58031,2,0,L|464:272,4,50
368,96,58480,2,0,L|496:80,1,100
480,16,58780,5,0,0:0:0:0:
449,52,59080,1,0,0:0:0:0:
418,89,59380,1,0,0:0:0:0:
384,128,59679,1,0,0:0:0:0:
96,64,59979,6,0,P|80:128|96:176,1,100
192,272,60278,2,0,P|208:208|192:160,1,100
320,80,60578,2,0,P|255:64|208:80,1,100,0|0,0:3|0:3,0:3:0:0:
160,208,60878,2,0,L|224:224,2,50
80,304,61178,2,0,L|80:176,1,100
224,176,61477,2,0,L|96:176,1,100
96,144,61702,1,0,0:0:0:0:
96,96,61777,2,0,P|16:112|-16:160,1,100
144,192,62077,6,0,L|192:256,4,50
352,176,62526,2,0,L|240:176,1,100
304,32,62826,2,0,L|272:96,3,50
352,64,63126,2,0,L|464:64,1,100
336,320,63425,2,0,L|208:320,1,100
192,320,63650,2,0,L|192:256,3,50
112,112,64025,6,0,L|112:176,2,50
256,96,64324,2,0,L|256:208,1,100
384,112,64624,2,0,L|384:224,1,100
272,320,64924,2,0,L|272:192,1,100
128,208,65224,2,0,L|128:96,2,100
208,80,65673,2,0,L|240:160,2,50
352,80,65973,6,0,L|352:192,2,100
464,176,66422,2,0,L|416:192,2,50
464,320,66722,2,0,L|336:320,1,100
320,320,66947,2,0,L|320:256,3,50
192,192,67321,1,0,0:0:0:0:
272,80,67471,2,0,L|416:80,1,100
416,112,67696,6,0,L|352:144,3,50
416,272,68071,2,0,L|272:272,1,100
256,272,68295,2,0,L|256:192,3,50
176,272,68670,2,0,L|176:160,1,100
192,176,68895,1,0,0:0:0:0:
208,176,68970,2,0,L|208:288,1,100
352,256,69269,2,0,L|362:232,4,25
416,320,69569,6,0,P|432:256|416:208,1,100
320,112,69868,2,0,P|304:176|320:224,1,100
192,304,70168,2,0,P|257:320|304:304,1,100,0|0,0:3|0:3,0:3:0:0:
352,176,70468,2,0,L|368:256,2,50
432,80,70768,2,0,L|432:208,1,100
288,208,71067,2,0,L|416:208,1,100
416,240,71292,1,0,0:0:0:0:
416,288,71367,2,0,P|496:272|528:224,1,100
416,144,71667,6,0,L|368:80,4,50
160,208,72116,2,0,L|272:208,1,100
240,192,72416,2,0,L|288:144,3,50
192,192,72716,2,0,L|80:192,1,100
176,64,73015,2,0,L|304:64,1,100
320,64,73240,2,0,L|320:128,3,50
416,240,73615,6,0,L|480:304,2,50
256,288,73914,2,0,L|256:176,1,100
128,272,74214,2,0,L|128:160,1,100
240,64,74514,2,0,L|240:192,1,100
384,176,74814,2,0,L|384:288,2,100
304,304,75263,2,0,L|272:240,2,50
160,304,75563,6,0,L|160:192,2,100
48,208,76013,2,0,L|96:176,2,50
48,64,76312,2,0,L|176:64,1,100
192,64,76537,2,0,L|192:128,3,50
320,192,76911,1,0,0:0:0:0:
240,304,77061,2,0,L|96:304,1,100
96,272,77286,6,0,L|160:240,3,50
80,112,77661,2,0,L|208:176,1,100
256,176,77961,5,0,0:0:0:0:
256,176,78560,1,0,0:0:0:0:
256,176,78860,2,0,L|320:112,4,50
256,176,91128,5,0,0:0:0:0:
256,176,91574,1,0,0:0:0:0:
256,176,93654,5,0,0:0:0:0:
256,176,94100,1,0,0:0:0:0:
256,176,94843,5,0,0:0:0:0:
256,176,95289,1,0,0:0:0:0:
256,176,96031,5,0,0:0:0:0:
256,176,96480,2,0,L|256:288,1,100
64,80,97080,6,0,L|192:80,1,100
208,240,97529,1,0,0:0:0:0:
352,80,97829,2,0,L|320:176,1,100
352,80,98129,2,0,L|400:112,2,50
480,16,98428,5,0,0:0:0:0:
449,52,98728,1,0,0:0:0:0:
418,89,99028,1,0,0:0:0:0:
384,224,99327,2,0,L|416:224,7,25
368,240,99627,2,0,P|320:272|256:256,1,100
224,128,99927,2,0,P|144:144|112:192,1,100
176,304,100227,2,0,P|128:336|64:320,1,100
112,192,100526,6,0,L|64:160,2,50
208,80,100826,2,0,P|192:176|176:176,1,100
352,96,101126,2,0,P|368:192|384:192,1,100
320,208,101350,1,0,0:0:0:0:
288,240,101425,2,0,P|384:257|389:241,1,100
464,160,101725,2,0,L|416:224,4,50
320,80,102175,2,0,P|256:96|256:128,1,100
176,240,102474,2,0,L|240:240,4,50
304,320,102924,2,0,P|368:304|384:256,1,100
240,224,103224,6,0,L|192:176,4,50
96,192,103673,2,0,L|64:144,2,50
80,320,103973,2,0,P|129:226|116:207,1,100
224,128,104273,2,0,P|129:127|112:143,1,100
240,240,104572,2,0,P|335:239|352:255,1,100
320,320,104872,6,0,P|413:296|425:276,1,100
464,160,105172,2,0,L|352:160,1,100
364,160,105396,2,0,L|336:208,1,50
224,96,105621,2,0,P|304:96|320:112,1,100
160,80,105921,2,0,P|80:80|64:64,1,100
69,70,106134,2,0,L|64:128,1,50
256,80,106370,2,0,P|176:80|160:96,1,100
144,128,106595,2,0,L|192:192,3,50
80,256,106970,6,0,L|160:320,1,100
240,208,107270,2,0,L|288:176,4,50
96,224,107719,2,0,L|224:288,1,100
224,128,108019,2,0,L|304:144,4,50
336,224,108468,2,0,L|384:288,1,50
336,224,108618,2,0,P|416:192|432:208,1,100
288,112,108918,6,0,L|304:144,4,25
272,256,109218,2,0,L|192:160,1,100
352,160,109517,2,0,P|416:176|416:208,1,100
288,112,109817,2,0,L|208:16,1,100
160,176,110117,2,0,L|144:240,2,50
224,272,110416,2,0,L|272:144,1,100
112,144,110716,2,0,L|64:256,1,100
96,272,110941,1,0,0:0:0:0:
128,272,111016,2,0,L|176:176,1,100
128,96,111315,6,0,L|128:32,3,50
192,80,111615,2,0,P|224:128|192:160,1,100
336,224,111915,2,0,P|288:256|256:224,1,100
208,192,112140,2,0,L|160:208,2,50
240,128,112364,2,0,P|240:192|208:192,1,100
64,176,112664,6,0,L|64:304,1,100
96,304,112889,2,0,L|48:336,3,50
208,320,113264,2,0,L|256:272,2,50
80,160,113563,6,0,P|80:240|112:256,1,100
177,240,113863,2,0,P|135:265|89:248,1,100
99,337,114163,2,0,P|115:291|90:249,1,100
184,339,114462,2,0,P|141:317|96:336,1,100
96,336,114762,2,0,L|96:192,1,100
96,236,114987,2,0,L|96:144,1,50
240,192,115212,6,0,P|192:240|208:288,1,100
336,208,115511,2,0,P|304:256|256:272,1,100
267,272,115736,2,0,L|192:272,1,50
400,224,115961,2,0,L|512:288,1,100
487,274,116186,2,0,L|512:224,2,50
480,192,116410,2,0,P|400:144|368:160,1,100
256,192,116710,2,0,P|336:240|368:224,1,100
352,192,116935,2,0,L|320:144,3,50
208,112,117309,2,0,L|304:16,1,100
