osu file format v14

[General]
AudioFilename: 10 Go Go Go!.mp3
AudioLeadIn: 0
PreviewTime: -1
Countdown: 1
SampleSet: Normal
StackLeniency: 0.7
Mode: 0
LetterboxInBreaks: 1
WidescreenStoryboard: 1

[Editor]
DistanceSpacing: 1.5
BeatDivisor: 4
GridSize: 16
TimelineZoom: 2.2

[Metadata]
Title:Go Go Go!
TitleUnicode:Go Go Go!
Artist:The Quick Brown Fox
ArtistUnicode:The Quick Brown Fox
Creator:zwoots
Version:Go Go Go
Source:
Tags:
BeatmapID:648068
BeatmapSetID:287192

[Difficulty]
HPDrainRate:6
CircleSize:3
OverallDifficulty:6
ApproachRate:9
SliderMultiplier:2
SliderTickRate:1

[Events]
//Background and Video events
0,0,"gooo.jpg",0,0
//Break Periods
2,79359,90528
2,91774,93054
//Storyboard Layer 0 (Background)
//Storyboard Layer 1 (Fail)
//Storyboard Layer 2 (Pass)
//Storyboard Layer 3 (Foreground)
//Storyboard Sound Samples

[TimingPoints]
2436.87003179455,299.7,4,1,0,100,1,0
88900,297.151879699247,4,1,0,100,1,0

[HitObjects]
256,192,9629,12,0,10529,0:0:0:0:
256,176,10828,5,0,0:0:0:0:
256,176,11278,1,0,0:0:0:0:
256,176,13226,5,0,0:0:0:0:
256,176,13675,1,0,0:0:0:0:
256,176,15623,5,0,0:0:0:0:
256,176,16073,1,0,0:0:0:0:
256,176,16822,5,0,0:0:0:0:
256,176,17272,1,0,0:0:0:0:
256,176,18021,5,0,0:0:0:0:
256,176,18470,1,0,0:0:0:0:
256,176,18620,1,0,0:0:0:0:
64,80,19070,5,0,0:0:0:0:
64,80,19220,1,0,0:0:0:0:
208,240,19519,1,0,0:0:0:0:
352,80,19819,5,0,0:0:0:0:
352,80,19969,1,0,0:0:0:0:
352,80,20119,1,0,0:0:0:0:
352,80,20194,1,0,0:0:0:0:
352,80,20269,1,0,0:0:0:0:
480,16,20418,5,0,0:0:0:0:
449,52,20718,1,0,0:0:0:0:
418,89,21018,1,0,0:0:0:0:
128,160,21317,2,0,L|96:160,7,25
144,144,21617,2,0,P|192:112|256:128,1,100
288,256,21917,2,0,P|368:240|400:192,1,100
336,80,22217,2,0,P|384:48|448:64,1,100
400,192,22516,5,0,0:0:0:0:
400,192,22591,1,0,0:0:0:0:
400,192,22666,1,0,0:0:0:0:
304,304,22816,2,0,P|320:208|336:208,1,100
160,288,23116,2,0,P|144:192|128:192,1,100
192,176,23340,1,0,0:0:0:0:
224,144,23415,2,0,P|128:127|123:143,1,100
16,176,23715,2,0,L|0:240,1,50
80,176,23865,2,0,L|64:240,1,50
128,176,24015,1,0,0:0:0:0:
192,304,24165,2,0,P|256:288|256:256,1,100
336,144,24464,2,0,L|272:144,4,50
208,64,24914,2,0,P|144:80|128:128,1,100
288,144,25214,6,0,L|352:96,1,50
336,144,25363,2,0,L|396:83,1,50
384,160,25513,1,0,0:0:0:0:
448,208,25663,1,0,0:0:0:0:
448,208,25738,1,0,0:0:0:0:
448,208,25813,1,0,0:0:0:0:
432,64,25963,2,0,P|383:158|396:177,1,100
288,256,26263,2,0,P|383:257|400:241,1,100
272,144,26562,2,0,P|177:145|160:129,1,100
192,64,26862,6,0,P|99:88|87:108,1,100
48,224,27162,2,0,L|160:224,1,100
148,224,27386,1,0,0:0:0:0:
148,224,27461,1,0,0:0:0:0:
288,288,27611,2,0,P|208:288|192:272,1,100
352,304,27911,2,0,P|432:304|448:320,1,100
442,313,28136,1,0,0:0:0:0:
442,313,28211,1,0,0:0:0:0:
256,304,28360,2,0,P|336:304|352:288,1,100
368,256,28585,2,0,L|320:192,1,50
416,240,28735,2,0,L|464:288,1,50
432,128,28960,6,0,L|352:64,1,100
272,176,29260,2,0,L|224:208,4,50
416,160,29709,2,0,L|288:96,1,100
288,256,30009,2,0,L|208:240,4,50
176,160,30458,1,0,0:0:0:0:
176,160,30533,1,0,0:0:0:0:
176,160,30608,2,0,P|96:192|80:176,1,100
224,272,30908,6,0,L|208:240,4,25
240,128,31208,2,0,L|320:224,1,100
160,224,31507,2,0,P|96:208|96:176,1,100
224,272,31807,2,0,L|304:368,1,100
352,208,32107,1,0,0:0:0:0:
352,208,32182,1,0,0:0:0:0:
352,208,32257,1,0,0:0:0:0:
288,112,32406,2,0,L|240:240,1,100
400,240,32706,2,0,L|448:128,1,100
416,112,32931,1,0,0:0:0:0:
384,112,33006,2,0,L|336:208,1,100
448,304,33305,6,0,L|448:240,1,50
384,288,33455,2,0,L|384:352,1,50
320,304,33605,2,0,P|288:256|320:224,1,100
176,160,33905,2,0,P|224:128|256:160,1,100
304,192,34130,2,0,L|352:176,2,50
272,256,34354,2,0,P|272:192|304:192,1,100
448,208,34654,6,0,L|448:80,1,100
384,80,34879,2,0,L|432:48,1,50
352,80,35029,2,0,L|320:128,1,50
176,80,35254,1,0,0:0:0:0:
176,80,35328,1,0,0:0:0:0:
176,80,35403,1,0,0:0:0:0:
432,224,35553,6,0,P|432:144|400:128,1,100
335,144,35853,2,0,P|377:119|423:136,1,100
413,47,36153,2,0,P|397:93|422:135,1,100
328,45,36452,2,0,P|371:67|416:48,1,100
416,48,36752,2,0,L|416:192,1,100
416,148,36977,1,0,0:0:0:0:
416,148,37052,1,0,0:0:0:0:
272,192,37202,6,0,P|320:144|304:96,1,100
176,176,37501,2,0,P|208:128|256:112,1,100
245,112,37726,1,0,0:0:0:0:
245,112,37801,1,0,0:0:0:0:
112,160,37951,2,0,L|0:96,1,100
25,110,38176,2,0,L|0:160,2,50
32,192,38400,2,0,P|112:240|144:224,1,100
256,192,38700,2,0,P|176:144|144:160,1,100
160,192,38925,2,0,L|192:240,1,50
128,240,39075,2,0,L|160:288,1,50
304,272,39299,2,0,L|208:368,1,100
464,48,39599,6,0,L|368:112,4,100
464,48,40498,1,0,0:0:0:0:
464,48,40572,1,0,0:0:0:0:
464,48,40647,1,0,0:0:0:0:
304,144,40798,6,0,P|272:208|288:240,1,100
160,144,41098,2,0,P|192:96|240:80,1,100
192,224,41397,2,0,P|220:289|256:297,1,100
384,240,41697,1,0,0:0:0:0:
384,240,41772,1,0,0:0:0:0:
384,240,41847,1,0,0:0:0:0:
352,96,41997,2,0,L|256:176,1,100
304,304,42296,2,0,L|176:304,1,100
160,304,42521,1,0,0:0:0:0:
112,304,42596,2,0,L|-16:304,1,100
112,192,42896,2,0,L|160:160,4,50
464,272,43345,6,0,L|336:272,1,100
364,272,43645,2,0,L|368:208,4,50
364,272,44095,2,0,L|240:272,1,100
240,256,44394,2,0,L|240:192,1,50
176,272,44544,2,0,L|176:208,1,50
112,288,44694,2,0,L|112:176,1,100
144,160,44919,1,0,0:0:0:0:
176,128,44994,2,0,L|272:80,1,100
480,112,45293,2,0,L|416:224,1,100
320,96,45593,2,0,L|256:208,1,100
416,224,45893,2,0,L|352:336,1,100
272,192,46193,2,0,P|240:112|256:80,1,100
384,80,46492,1,0,0:0:0:0:
384,80,46567,1,0,0:0:0:0:
384,80,46642,1,0,0:0:0:0:
128,112,46792,6,0,P|192:80|256:96,1,100
368,128,47092,2,0,P|304:160|240:144,1,100
240,176,47316,1,0,0:0:0:0:
192,176,47391,2,0,P|160:128|176:80,1,100
320,48,47691,2,0,L|320:112,4,50
176,64,48141,6,0,L|288:144,1,100
384,208,48440,2,0,L|336:144,1,50
320,224,48590,2,0,L|301:177,1,50
272,240,48739,1,0,0:0:0:0:
192,224,48890,2,0,P|105:181|105:146,1,100
224,96,49190,2,0,L|288:112,4,50
176,240,49639,5,0,0:0:0:0:
176,240,49714,1,0,0:0:0:0:
176,240,49789,2,0,L|176:128,1,100
208,80,50089,2,0,L|224:48,1,25
176,80,50164,2,0,L|160:48,1,25
144,80,50239,2,0,L|112:64,1,25
48,144,50388,2,0,P|64:208|96:224,1,100
240,256,50688,2,0,P|224:320|192:336,1,100
144,192,50988,2,0,L|240:128,1,100
384,128,51287,1,0,0:0:0:0:
384,128,51362,1,0,0:0:0:0:
384,128,51437,1,0,0:0:0:0:
208,48,51587,6,0,L|208:160,1,100
352,144,51887,2,0,L|352:32,1,100
320,64,52112,1,0,0:0:0:0:
288,80,52187,2,0,L|160:80,1,100
96,96,52486,2,0,L|16:96,1,50
96,160,52636,2,0,L|160:160,1,50
96,224,52786,1,0,0:0:0:0:
224,304,52936,2,0,L|224:176,1,100
368,224,53236,6,0,L|418:224,1,50
368,160,53386,2,0,L|318:160,1,50
368,96,53536,1,0,0:0:0:0:
224,48,53685,2,0,L|144:144,1,100
96,80,53985,2,0,L|144:48,4,50
96,224,54434,1,0,0:0:0:0:
96,224,54509,1,0,0:0:0:0:
96,224,54584,1,0,0:0:0:0:
96,368,54734,2,0,L|176:272,1,100
240,320,55034,6,0,L|368:256,1,100
400,144,55333,2,0,P|384:80|336:48,1,100
208,80,55633,2,0,L|240:192,1,100
64,112,55933,2,0,P|32:192|48:224,1,100
34,200,56158,1,0,0:0:0:0:
34,200,56233,1,0,0:0:0:0:
160,272,56382,2,0,P|208:288|256:272,2,100
304,224,56832,1,0,0:0:0:0:
304,224,56907,1,0,0:0:0:0:
304,224,56982,1,0,0:0:0:0:
32,160,57132,6,0,P|48:208|96:256,1,100
128,272,57356,2,0,L|144:208,1,50
192,272,57506,2,0,L|192:208,1,50
256,144,57731,2,0,P|320:112|384:112,1,100
416,240,58031,2,0,L|464:272,4,50
368,96,58480,2,0,L|496:80,1,100
480,16,58780,5,0,0:0:0:0:
449,52,59080,1,0,0:0:0:0:
418,89,59380,1,0,0:0:0:0:
384,128,59679,1,0,0:0:0:0:
96,64,59979,6,0,P|80:128|96:176,1,100
192,272,60278,2,0,P|208:208|192:160,1,100
320,80,60578,2,0,P|255:64|208:80,1,100,0|0,0:3|0:3,0:3:0:0:
160,208,60878,1,0,0:0:0:0:
160,208,60953,1,0,0:0:0:0:
160,208,61028,1,0,0:0:0:0:
80,304,61178,2,0,L|80:176,1,100
224,176,61477,2,0,L|96:176,1,100
96,144,61702,1,0,0:0:0:0:
96,96,61777,2,0,P|16:112|-16:160,1,100
96,240,62077,6,0,L|144:304,1,50
160,240,62227,2,0,L|208:288,1,50
224,240,62376,1,0,0:0:0:0:
352,176,62526,2,0,L|240:176,1,100
224,128,62826,2,0,L|176:176,1,50
272,160,62976,2,0,L|240:224,1,50
320,192,63126,2,0,L|432:192,1,100
336,320,63425,2,0,L|208:320,1,100
192,320,63650,2,0,L|192:256,1,50
128,320,63800,2,0,L|128:256,1,50
112,112,64025,5,0,0:0:0:0:
112,112,64100,1,0,0:0:0:0:
112,112,64175,1,0,0:0:0:0:
256,96,64324,2,0,L|256:208,1,100
384,112,64624,2,0,L|384:224,1,100
272,320,64924,2,0,L|272:192,1,100
128,208,65224,2,0,L|128:96,2,100
208,80,65673,1,0,0:0:0:0:
208,80,65748,1,0,0:0:0:0:
208,80,65823,1,0,0:0:0:0:
352,80,65973,6,0,L|352:192,2,100
464,176,66422,1,0,0:0:0:0:
464,176,66497,1,0,0:0:0:0:
464,176,66572,1,0,0:0:0:0:
464,320,66722,2,0,L|336:320,1,100
320,320,66947,2,0,L|320:256,1,50
256,320,67097,2,0,L|256:256,1,50
144,160,67321,1,0,0:0:0:0:
272,80,67471,2,0,L|416:80,1,100
416,112,67696,6,0,L|352:144,1,50
416,176,67846,2,0,L|368:208,1,50
464,320,68071,2,0,L|320:320,1,100
208,304,68370,2,0,L|208:240,1,50
144,288,68520,2,0,L|144:208,1,50
80,272,68670,2,0,L|80:160,1,100
144,176,68895,1,0,0:0:0:0:
208,176,68970,2,0,L|208:288,1,100
352,256,69269,2,0,L|362:232,1,25
338,213,69344,2,0,L|360:199,1,25
334,159,69419,2,0,L|357:168,1,25
416,320,69569,6,0,P|432:256|416:208,1,100
320,112,69868,2,0,P|304:176|320:224,1,100
192,304,70168,2,0,P|257:320|304:304,1,100,0|0,0:3|0:3,0:3:0:0:
352,176,70468,1,0,0:0:0:0:
352,176,70543,1,0,0:0:0:0:
352,176,70618,1,0,0:0:0:0:
432,80,70768,2,0,L|432:208,1,100
288,208,71067,2,0,L|416:208,1,100
416,240,71292,1,0,0:0:0:0:
416,288,71367,2,0,P|496:272|528:224,1,100
416,144,71667,6,0,L|368:80,1,50
352,144,71817,2,0,L|304:96,1,50
288,144,71966,1,0,0:0:0:0:
160,208,72116,2,0,L|272:208,1,100
288,256,72416,2,0,L|336:208,1,50
240,224,72566,2,0,L|272:160,1,50
192,192,72716,2,0,L|80:192,1,100
176,64,73015,2,0,L|304:64,1,100
320,64,73240,2,0,L|320:128,1,50
384,64,73390,2,0,L|384:128,1,50
400,272,73615,5,0,0:0:0:0:
400,272,73690,1,0,0:0:0:0:
400,272,73765,1,0,0:0:0:0:
256,288,73914,2,0,L|256:176,1,100
128,272,74214,2,0,L|128:160,1,100
240,64,74514,2,0,L|240:192,1,100
384,176,74814,2,0,L|384:288,2,100
304,304,75263,1,0,0:0:0:0:
304,304,75338,1,0,0:0:0:0:
304,304,75413,1,0,0:0:0:0:
160,304,75563,6,0,L|160:192,2,100
48,208,76012,1,0,0:0:0:0:
48,208,76087,1,0,0:0:0:0:
48,208,76162,1,0,0:0:0:0:
48,64,76312,2,0,L|176:64,1,100
192,64,76537,2,0,L|192:128,1,50
256,64,76687,2,0,L|256:128,1,50
368,224,76911,1,0,0:0:0:0:
240,304,77061,2,0,L|96:304,1,100
96,272,77286,6,0,L|160:240,1,50
96,208,77436,2,0,L|144:176,1,50
64,48,77661,2,0,L|192:112,1,100
256,176,77961,5,0,0:0:0:0:
256,176,78560,1,0,0:0:0:0:
256,176,78860,2,0,L|320:112,4,50
256,176,91128,5,0,0:0:0:0:
256,176,91574,1,0,0:0:0:0:
256,176,93654,5,0,0:0:0:0:
256,176,94100,1,0,0:0:0:0:
256,176,94843,5,0,0:0:0:0:
256,176,95289,1,0,0:0:0:0:
256,176,96031,5,0,0:0:0:0:
256,176,96477,1,0,0:0:0:0:
256,176,96625,1,0,0:0:0:0:
64,80,97071,5,0,0:0:0:0:
64,80,97221,1,0,0:0:0:0:
208,240,97520,1,0,0:0:0:0:
352,80,97820,5,0,0:0:0:0:
352,80,97970,1,0,0:0:0:0:
352,80,98120,1,0,0:0:0:0:
352,80,98195,1,0,0:0:0:0:
352,80,98270,1,0,0:0:0:0:
480,16,98419,5,0,0:0:0:0:
449,52,98719,1,0,0:0:0:0:
418,89,99019,1,0,0:0:0:0:
384,224,99300,2,0,L|416:224,7,25
368,240,99600,2,0,P|320:272|256:256,1,100
224,128,99900,2,0,P|144:144|112:192,1,100
176,304,100200,2,0,P|128:336|64:320,1,100
112,192,100499,5,0,0:0:0:0:
112,192,100574,1,0,0:0:0:0:
112,192,100649,1,0,0:0:0:0:
208,80,100799,2,0,P|192:176|176:176,1,100
352,96,101099,2,0,P|368:192|384:192,1,100
320,208,101323,1,0,0:0:0:0:
288,240,101398,2,0,P|384:257|389:241,1,100
496,208,101698,2,0,L|512:144,1,50
432,208,101848,2,0,L|448:144,1,50
384,208,101998,1,0,0:0:0:0:
320,80,102148,2,0,P|256:96|256:128,1,100
176,240,102447,2,0,L|240:240,4,50
304,320,102897,2,0,P|368:304|384:256,1,100
224,240,103197,6,0,L|160:288,1,50
176,240,103346,2,0,L|116:301,1,50
128,224,103496,1,0,0:0:0:0:
64,176,103646,1,0,0:0:0:0:
64,176,103721,1,0,0:0:0:0:
64,176,103796,1,0,0:0:0:0:
80,320,103946,2,0,P|129:226|116:207,1,100
224,128,104246,2,0,P|129:127|112:143,1,100
240,240,104545,2,0,P|335:239|352:255,1,100
320,320,104845,6,0,P|413:296|425:276,1,100
464,160,105145,2,0,L|352:160,1,100
364,160,105369,1,0,0:0:0:0:
364,160,105444,1,0,0:0:0:0:
224,96,105594,2,0,P|304:96|320:112,1,100
160,80,105894,2,0,P|80:80|64:64,1,100
70,71,106119,1,0,0:0:0:0:
70,71,106194,1,0,0:0:0:0:
256,80,106343,2,0,P|176:80|160:96,1,100
144,128,106568,2,0,L|192:192,1,50
96,144,106718,2,0,L|48:96,1,50
80,256,106943,6,0,L|160:320,1,100
240,208,107243,2,0,L|288:176,4,50
96,224,107692,2,0,L|224:288,1,100
224,128,107992,2,0,L|304:144,4,50
336,224,108441,1,0,0:0:0:0:
336,224,108516,1,0,0:0:0:0:
336,224,108591,2,0,P|416:192|432:208,1,100
288,112,108891,6,0,L|304:144,4,25
272,256,109191,2,0,L|192:160,1,100
352,160,109490,2,0,P|416:176|416:208,1,100
288,112,109790,2,0,L|208:16,1,100
160,176,110090,1,0,0:0:0:0:
160,176,110165,1,0,0:0:0:0:
160,176,110240,1,0,0:0:0:0:
224,272,110389,2,0,L|272:144,1,100
112,144,110689,2,0,L|64:256,1,100
96,272,110914,1,0,0:0:0:0:
128,272,110989,2,0,L|176:176,1,100
64,80,111288,6,0,L|64:144,1,50
128,96,111438,2,0,L|128:32,1,50
192,80,111588,2,0,P|224:128|192:160,1,100
336,224,111888,2,0,P|288:256|256:224,1,100
208,192,112113,2,0,L|160:208,2,50
240,128,112337,2,0,P|240:192|208:192,1,100
64,176,112637,6,0,L|64:304,1,100
128,304,112862,2,0,L|128:224,1,50
176,320,113012,2,0,L|176:256,1,50
336,304,113237,1,0,0:0:0:0:
336,304,113311,1,0,0:0:0:0:
336,304,113386,1,0,0:0:0:0:
80,160,113536,6,0,P|80:240|112:256,1,100
177,240,113836,2,0,P|135:265|89:248,1,100
99,337,114136,2,0,P|115:291|90:249,1,100
184,339,114435,2,0,P|141:317|96:336,1,100
96,336,114735,2,0,L|96:192,1,100
96,236,114960,1,0,0:0:0:0:
96,236,115035,1,0,0:0:0:0:
240,192,115185,6,0,P|192:240|208:288,1,100
336,208,115484,2,0,P|304:256|256:272,1,100
267,272,115709,1,0,0:0:0:0:
267,272,115784,1,0,0:0:0:0:
400,224,115934,2,0,L|512:288,1,100
487,274,116159,2,0,L|512:224,2,50
480,192,116383,2,0,P|400:144|368:160,1,100
256,192,116683,2,0,P|336:240|368:224,1,100
368,224,116908,2,0,L|336:176,1,50
400,176,117058,2,0,L|368:128,1,50
208,112,117282,2,0,L|304:16,1,100
