osu file format v14

[General]
AudioFilename: 10 Go Go Go!.mp3
AudioLeadIn: 0
PreviewTime: 59904
Countdown: 1
SampleSet: Normal
StackLeniency: 0.7
Mode: 0
LetterboxInBreaks: 1
WidescreenStoryboard: 0

[Editor]
DistanceSpacing: 1.5
BeatDivisor: 4
GridSize: 16
TimelineZoom: 2.2

[Metadata]
Title:Go Go Go!
TitleUnicode:Go Go Go!
Artist:The Quick Brown Fox
ArtistUnicode:The Quick Brown Fox
Creator:zwoots
Version:Go Go Go!
Source:
Tags:
BeatmapID:648067
BeatmapSetID:287192

[Difficulty]
HPDrainRate:6
CircleSize:2
OverallDifficulty:7
ApproachRate:9
SliderMultiplier:2
SliderTickRate:1

[Events]
//Background and Video events
0,0,"gooo.jpg",0,0
//Break Periods
2,79360,90548
2,91797,92945
//Storyboard Layer 0 (Background)
//Storyboard Layer 1 (Fail)
//Storyboard Layer 2 (Pass)
//Storyboard Layer 3 (Foreground)
//Storyboard Sound Samples

[TimingPoints]
2436.87003179455,299.7,4,1,0,100,1,0
94819,299.5,4,1,0,100,1,0

[HitObjects]
256,192,9629,12,0,10529,0:0:0:0:
256,176,10828,5,2,0:0:0:0:
256,176,11278,1,2,0:0:0:0:
256,176,13226,5,2,0:0:0:0:
256,176,13675,1,2,0:0:0:0:
256,176,15623,5,2,0:0:0:0:
256,176,16073,1,2,0:0:0:0:
256,176,16822,5,2,0:0:0:0:
256,176,17272,1,2,0:0:0:0:
256,176,18021,5,2,0:0:0:0:
256,176,18470,1,8,0:0:0:0:
256,176,18620,1,2,0:0:0:0:
64,80,19070,5,8,0:0:0:0:
64,80,19220,1,2,0:0:0:0:
208,240,19519,1,8,0:0:0:0:
352,80,19819,5,2,0:0:0:0:
352,80,19969,1,2,0:0:0:0:
352,80,20119,1,8,0:0:0:0:
352,80,20194,1,2,0:0:0:0:
352,80,20269,1,8,0:0:0:0:
480,16,20418,5,0,0:0:0:0:
449,52,20718,1,0,0:0:0:0:
418,89,21018,1,0,0:0:0:0:
144,320,21317,2,0,L|112:320,1,25,8|0,0:0|0:0,0:0:0:0:
112,272,21392,2,0,L|80:256,1,25
96,224,21467,2,0,L|64:192,1,25
112,176,21542,2,0,L|80:144,1,25
144,144,21617,2,0,P|192:112|256:128,1,100,8|0,0:0|0:0,0:0:0:0:
384,320,21917,2,0,P|464:304|496:256,1,100,8|0,0:0|0:0,0:0:0:0:
256,16,22217,2,0,P|288:52|295:102,1,100,8|0,0:0|0:0,0:0:0:0:
416,224,22516,5,8,0:0:0:0:
336,224,22591,1,0,0:0:0:0:
256,224,22666,1,0,0:0:0:0:
16,224,22816,2,0,P|32:128|48:128,1,100,2|0,0:0|0:0,0:0:0:0:
400,224,23116,2,0,P|384:128|368:128,1,100,8|0,0:0|0:0,0:0:0:0:
352,96,23340,1,0,0:0:0:0:
288,144,23415,2,0,P|304:240|320:239,1,100,8|0,0:0|0:0,0:0:0:0:
208,96,23715,5,8,0:0:0:0:
176,160,23790,1,0,0:0:0:0:
144,224,23865,1,8,0:0:0:0:
112,288,23940,1,0,0:0:0:0:
80,352,24015,1,2,0:0:0:0:
256,336,24165,2,0,P|320:320|320:288,1,100,0|8,0:0|0:0,0:0:0:0:
322,296,24464,1,8,0:0:0:0:
368,240,24539,1,0,0:0:0:0:
384,160,24614,1,8,0:0:0:0:
352,96,24689,1,0,0:0:0:0:
288,64,24764,1,8,0:0:0:0:
80,160,24914,2,0,P|16:176|0:224,1,100,8|0,0:0|0:0,0:0:0:0:
208,32,25214,5,2,0:0:0:0:
208,112,25288,1,0,0:0:0:0:
208,192,25363,1,8,0:0:0:0:
208,272,25438,1,0,0:0:0:0:
208,352,25513,1,8,0:0:0:0:
384,240,25663,1,0,0:0:0:0:
432,192,25738,1,0,0:0:0:0:
480,144,25813,1,8,0:0:0:0:
48,96,25963,2,0,P|31:190|44:209,1,100,0|8,0:0|0:0,0:0:0:0:
208,352,26263,2,0,P|303:353|320:337,1,100,0|2,0:0|0:0,0:0:0:0:
496,192,26562,2,0,P|485:96|468:82,1,100,0|8,0:0|0:0,0:0:0:0:
288,64,26862,6,0,P|195:88|183:108,1,100,0|8,0:0|0:0,0:0:0:0:
96,192,27162,2,0,L|208:192,1,100,0|8,0:0|0:0,0:0:0:0:
272,192,27386,1,0,0:0:0:0:
352,192,27461,1,0,0:0:0:0:
256,368,27611,2,0,P|176:368|160:352,1,100,2|0,0:0|0:0,0:0:0:0:
256,32,27911,2,0,P|336:32|352:48,1,100,8|0,0:0|0:0,0:0:0:0:
346,41,28136,1,0,0:0:0:0:
346,41,28211,1,8,0:0:0:0:
256,304,28360,2,0,P|336:304|352:288,1,100,0|8,0:0|0:0,0:0:0:0:
384,224,28585,1,0,0:0:0:0:
368,144,28660,1,8,0:0:0:0:
304,112,28735,1,0,0:0:0:0:
224,112,28810,1,2,0:0:0:0:
64,112,28960,5,0,0:0:0:0:
64,112,29110,1,8,0:0:0:0:
48,304,29260,1,8,0:0:0:0:
128,304,29334,1,0,0:0:0:0:
208,304,29409,1,8,0:0:0:0:
288,304,29484,1,0,0:0:0:0:
368,304,29559,1,8,0:0:0:0:
448,176,29709,2,0,L|320:112,1,100,8|0,0:0|0:0,0:0:0:0:
224,176,30009,1,2,0:0:0:0:
288,144,30084,1,0,0:0:0:0:
368,144,30159,1,8,0:0:0:0:
432,176,30234,1,0,0:0:0:0:
464,240,30308,1,8,0:0:0:0:
240,256,30458,1,0,0:0:0:0:
168,254,30533,1,0,0:0:0:0:
103,266,30608,2,0,P|40:207|47:185,1,100,8|0,0:0|0:0,0:0:0:0:
144,96,30908,6,8,L|128:64,1,25
176,80,30983,2,0,L|160:48,1,25
208,64,31058,2,0,L|192:32,1,25
464,48,31208,2,0,L|464:160,1,100,2|0,0:0|0:0,0:0:0:0:
480,352,31507,1,8,0:0:0:0:
480,352,31657,1,0,0:0:0:0:
320,176,31807,2,0,L|400:272,1,100,8|0,0:0|0:0,0:0:0:0:
240,320,32107,1,8,0:0:0:0:
172,320,32182,1,0,0:0:0:0:
104,320,32257,1,0,0:0:0:0:
64,48,32406,2,0,L|16:176,1,100,2|0,0:0|0:0,0:0:0:0:
160,288,32706,2,0,L|208:176,1,100,8|0,0:0|0:0,0:0:0:0:
272,176,32931,1,0,0:0:0:0:
352,160,33006,2,0,L|304:256,1,100,8|0,0:0|0:0,0:0:0:0:
480,368,33305,5,8,0:0:0:0:
400,368,33380,1,0,0:0:0:0:
324,370,33455,1,8,0:0:0:0:
240,368,33530,1,0,0:0:0:0:
160,368,33605,2,0,P|128:320|160:288,1,100,2|0,0:0|0:0,0:0:0:0:
240,80,33905,2,0,P|288:48|320:80,1,100,8|0,0:0|0:0,0:0:0:0:
304,144,34130,1,0,0:0:0:0:
240,192,34205,1,8,0:0:0:0:
160,192,34279,1,0,0:0:0:0:
98,149,34354,2,0,P|98:85|130:85,1,100,8|8,0:0|0:0,0:0:0:0:
480,48,34654,6,0,L|352:48,1,100,0|2,0:0|0:0,0:0:0:0:
304,48,34879,1,0,0:0:0:0:
240,80,34954,1,8,0:0:0:0:
208,144,35029,1,0,0:0:0:0:
239,208,35104,1,8,0:0:0:0:
32,256,35254,1,0,0:0:0:0:
80,304,35328,1,0,0:0:0:0:
144,352,35403,1,8,0:0:0:0:
112,272,35553,6,0,P|179:339|213:328,1,100,0|8,0:0|0:0,0:0:0:0:
464,80,35853,2,0,P|396:12|362:23,1,100,0|2,0:0|0:0,0:0:0:0:
48,304,36153,2,0,P|115:371|149:360,1,100,0|8,0:0|0:0,0:0:0:0:
80,32,36452,2,0,P|12:99|23:133,1,100,0|8,0:0|0:0,0:0:0:0:
416,352,36752,2,0,P|483:285|472:251,1,100,0|8,0:0|0:0,0:0:0:0:
482,291,36977,1,0,0:0:0:0:
482,291,37052,1,0,0:0:0:0:
208,256,37202,6,0,P|256:208|240:160,1,100,2|0,0:0|0:0,0:0:0:0:
32,96,37501,2,0,P|64:48|112:32,1,100,8|0,0:0|0:0,0:0:0:0:
176,32,37726,1,0,0:0:0:0:
240,64,37801,1,8,0:0:0:0:
448,80,37951,2,0,L|467:207,1,100,0|8,0:0|0:0,0:0:0:0:
451,252,38176,1,0,0:0:0:0:
398,300,38251,1,8,0:0:0:0:
321,322,38325,1,0,0:0:0:0:
246,293,38400,2,0,P|229:201|256:176,1,100,2|0,0:0|0:0,0:0:0:0:
48,48,38700,2,0,P|49:141|80:159,1,100,8|8,0:0|0:0,0:0:0:0:
97,187,38925,1,0,0:0:0:0:
168,180,39000,1,8,0:0:0:0:
237,137,39075,1,0,0:0:0:0:
273,76,39150,1,8,0:0:0:0:
32,336,39299,2,0,L|144:336,1,100,8|0,0:0|0:0,0:0:0:0:
512,16,39599,6,0,L|416:80,4,100,2|0|8|0|8,0:0|0:0|0:0|0:0|0:0,0:0:0:0:
512,16,40498,1,8,0:0:0:0:
512,16,40572,1,0,0:0:0:0:
512,16,40647,1,0,0:0:0:0:
432,160,40798,6,0,P|400:224|416:256,1,100,2|0,0:0|0:0,0:0:0:0:
128,144,41098,1,8,0:0:0:0:
128,144,41248,1,0,0:0:0:0:
144,368,41397,2,0,P|215:373|239:346,1,100,8|0,0:0|0:0,0:0:0:0:
240,208,41697,1,8,0:0:0:0:
240,128,41772,1,0,0:0:0:0:
240,48,41847,1,0,0:0:0:0:
384,64,41997,2,0,L|288:144,1,100,2|0,0:0|0:0,0:0:0:0:
464,336,42296,2,0,L|336:336,1,100,8|0,0:0|0:0,0:0:0:0:
288,336,42521,1,0,0:0:0:0:
208,336,42596,2,0,L|80:336,1,100,8|0,0:0|0:0,0:0:0:0:
48,208,42896,1,8,0:0:0:0:
48,150,42971,1,0,0:0:0:0:
84,88,43046,1,8,0:0:0:0:
152,45,43121,1,0,0:0:0:0:
223,37,43196,1,2,0:0:0:0:
464,272,43345,6,0,L|336:272,1,100,0|8,0:0|0:0,0:0:0:0:
364,272,43645,1,8,0:0:0:0:
364,272,43720,1,0,0:0:0:0:
364,272,43795,1,8,0:0:0:0:
364,272,43870,1,0,0:0:0:0:
364,272,43945,1,8,0:0:0:0:
364,272,44095,2,0,L|240:272,1,100,8|0,0:0|0:0,0:0:0:0:
480,32,44394,1,2,0:0:0:0:
416,64,44469,1,0,0:0:0:0:
352,96,44544,1,8,0:0:0:0:
288,128,44619,1,0,0:0:0:0:
224,160,44694,2,0,L|112:224,1,100,8|0,0:0|0:0,0:0:0:0:
64,240,44919,1,0,0:0:0:0:
128,272,44994,2,0,L|240:304,1,100,8|0,0:0|0:0,0:0:0:0:
512,192,45293,5,8,0:0:0:0:
512,192,45443,1,0,0:0:0:0:
256,192,45593,1,2,0:0:0:0:
256,192,45743,1,0,0:0:0:0:
16,192,45893,1,8,0:0:0:0:
16,192,46043,1,0,0:0:0:0:
272,320,46193,2,0,P|357:326|379:354,1,100,8|0,0:0|0:0,0:0:0:0:
128,128,46492,1,8,0:0:0:0:
176,80,46567,1,0,0:0:0:0:
256,64,46642,1,0,0:0:0:0:
400,304,46792,6,0,P|336:336|272:320,1,100,2|0,0:0|0:0,0:0:0:0:
112,80,47092,2,0,P|176:48|240:64,1,100,8|0,0:0|0:0,0:0:0:0:
271,64,47316,1,0,0:0:0:0:
336,112,47391,2,0,P|368:159|352:207,1,100,8|0,0:0|0:0,0:0:0:0:
304,192,47691,1,8,0:0:0:0:
224,192,47766,1,0,0:0:0:0:
144,176,47841,1,8,0:0:0:0:
80,144,47916,1,0,0:0:0:0:
32,80,47991,1,2,0:0:0:0:
240,32,48141,5,0,0:0:0:0:
240,32,48290,1,8,0:0:0:0:
384,32,48440,1,8,0:0:0:0:
416,96,48515,1,0,0:0:0:0:
448,160,48590,1,8,0:0:0:0:
448,240,48665,1,0,0:0:0:0:
416,304,48740,1,8,0:0:0:0:
240,176,48890,2,0,P|153:133|153:98,1,100,8|0,0:0|0:0,0:0:0:0:
320,352,49190,1,2,0:0:0:0:
240,352,49264,1,0,0:0:0:0:
160,352,49339,1,8,0:0:0:0:
80,352,49414,1,0,0:0:0:0:
0,352,49489,1,8,0:0:0:0:
336,240,49639,5,0,0:0:0:0:
336,240,49714,1,0,0:0:0:0:
336,240,49789,2,0,L|336:128,1,100,8|0,0:0|0:0,0:0:0:0:
208,80,50089,2,0,L|224:48,1,25,8|0,0:0|0:0,0:0:0:0:
176,80,50164,2,0,L|160:48,1,25
144,80,50239,2,0,L|112:64,1,25
0,144,50388,2,0,P|16:208|48:224,1,100,10|0,0:0|0:0,0:0:0:0:
336,256,50688,2,0,P|320:320|288:336,1,100,8|0,0:0|0:0,0:0:0:0:
16,256,50988,1,8,0:0:0:0:
16,256,51138,1,0,0:0:0:0:
128,160,51287,1,8,0:0:0:0:
192,112,51362,1,0,0:0:0:0:
256,64,51437,1,0,0:0:0:0:
96,16,51587,6,0,L|96:128,1,100,2|0,0:0|0:0,0:0:0:0:
416,368,51887,6,0,L|416:256,1,100,8|0,0:0|0:0,0:0:0:0:
416,192,52112,1,0,0:0:0:0:
336,192,52187,2,0,L|208:192,1,100,8|0,0:0|0:0,0:0:0:0:
32,32,52486,1,8,0:0:0:0:
32,112,52561,1,0,0:0:0:0:
32,192,52636,1,8,0:0:0:0:
32,272,52711,1,0,0:0:0:0:
32,352,52786,1,2,0:0:0:0:
256,352,52936,1,0,0:0:0:0:
256,352,53086,1,8,0:0:0:0:
448,352,53236,5,8,0:0:0:0:
448,272,53310,1,0,0:0:0:0:
448,192,53385,1,8,0:0:0:0:
448,112,53460,1,0,0:0:0:0:
448,32,53535,1,8,0:0:0:0:
336,32,53685,2,0,L|224:32,1,100,8|0,0:0|0:0,0:0:0:0:
96,64,53985,1,2,0:0:0:0:
96,64,54060,1,0,0:0:0:0:
96,64,54135,1,8,0:0:0:0:
96,64,54210,1,0,0:0:0:0:
96,64,54284,1,8,0:0:0:0:
272,208,54434,1,0,0:0:0:0:
272,208,54509,1,0,0:0:0:0:
272,208,54584,1,8,0:0:0:0:
432,336,54734,1,0,0:0:0:0:
432,336,54884,1,8,0:0:0:0:
80,336,55034,6,0,L|208:272,1,100,0|2,0:0|0:0,0:0:0:0:
448,128,55333,2,0,P|432:64|384:32,1,100,0|8,0:0|0:0,0:0:0:0:
224,64,55633,1,0,0:0:0:0:
224,64,55783,1,8,0:0:0:0:
48,144,55933,2,0,P|16:224|32:256,1,100,0|8,0:0|0:0,0:0:0:0:
80,272,56158,1,0,0:0:0:0:
160,272,56233,1,0,0:0:0:0:
448,272,56382,1,2,0:0:0:0:
448,272,56532,1,0,0:0:0:0:
448,272,56682,1,8,0:0:0:0:
256,32,56832,1,0,0:0:0:0:
251,111,56907,1,0,0:0:0:0:
247,191,56982,1,8,0:0:0:0:
32,368,57132,6,0,P|81:378|147:360,1,100,0|8,0:0|0:0,0:0:0:0:
198,335,57356,1,0,0:0:0:0:
252,273,57431,1,8,0:0:0:0:
278,196,57506,1,0,0:0:0:0:
269,117,57581,1,2,0:0:0:0:
416,144,57731,2,0,P|352:112|288:112,1,100,0|8,0:0|0:0,0:0:0:0:
16,64,58031,1,8,0:0:0:0:
16,64,58106,1,0,0:0:0:0:
16,64,58181,1,8,0:0:0:0:
16,64,58255,1,0,0:0:0:0:
16,64,58330,1,8,0:0:0:0:
304,320,58480,2,0,L|192:320,1,100,8|0,0:0|0:0,0:0:0:0:
480,16,58780,5,2,0:0:0:0:
449,52,59080,1,8,0:0:0:0:
418,89,59380,1,8,0:0:0:0:
384,128,59679,1,8,0:0:0:0:
16,48,59979,6,0,P|0:112|16:160,1,100,2|0,0:0|0:0,0:0:0:0:
496,336,60278,2,0,P|512:272|496:224,1,100,8|0,0:0|0:0,0:0:0:0:
304,64,60578,2,0,P|239:48|192:64,1,100,8|0,0:3|0:3,0:3:0:0:
256,320,60878,1,8,0:0:0:0:
256,320,60953,1,0,0:0:0:0:
256,320,61028,1,0,0:0:0:0:
32,336,61178,2,0,L|32:208,1,100,2|0,0:0|0:0,0:0:0:0:
464,192,61477,2,0,L|336:192,1,100,8|0,0:0|0:0,0:0:0:0:
304,144,61702,1,0,0:0:0:0:
272,80,61777,2,0,P|192:96|160:144,1,100,8|0,0:0|0:0,0:0:0:0:
16,336,62077,5,8,0:0:0:0:
96,336,62152,1,0,0:0:0:0:
176,336,62227,1,8,0:0:0:0:
256,336,62301,1,0,0:0:0:0:
336,336,62376,1,2,0:0:0:0:
336,64,62526,2,0,L|224:64,1,100,0|8,0:0|0:0,0:0:0:0:
512,304,62826,1,8,0:0:0:0:
512,232,62901,1,0,0:0:0:0:
477,160,62976,1,8,0:0:0:0:
406,124,63051,1,0,0:0:0:0:
334,123,63126,2,0,L|234:72,1,100,8|8,0:0|0:0,0:0:0:0:
256,368,63425,2,0,L|128:368,1,100,0|2,0:0|0:0,0:0:0:0:
80,368,63650,1,0,0:0:0:0:
16,320,63725,1,8,0:0:0:0:
0,240,63800,1,0,0:0:0:0:
48,176,63875,1,8,0:0:0:0:
464,96,64025,5,0,0:0:0:0:
464,96,64100,1,0,0:0:0:0:
464,96,64175,1,8,0:0:0:0:
464,144,64324,1,0,0:0:0:0:
320,144,64474,1,8,0:0:0:0:
320,288,64624,1,0,0:0:0:0:
464,288,64774,1,10,0:0:0:0:
320,144,64924,1,0,0:0:0:0:
259,13,65074,1,8,0:0:0:0:
128,74,65224,1,0,0:0:0:0:
189,204,65374,1,8,0:0:0:0:
336,256,65523,1,0,0:0:0:0:
368,112,65673,1,8,0:0:0:0:
368,112,65748,1,0,0:0:0:0:
368,112,65823,1,0,0:0:0:0:
192,112,65973,5,2,0:0:0:0:
256,240,66123,1,0,0:0:0:0:
320,112,66272,1,8,0:0:0:0:
464,112,66422,1,0,0:0:0:0:
464,112,66497,1,0,0:0:0:0:
464,112,66572,1,8,0:0:0:0:
464,256,66722,1,0,0:0:0:0:
464,384,66872,1,8,0:0:0:0:
384,384,66947,1,0,0:0:0:0:
320,384,67022,1,8,0:0:0:0:
240,384,67097,1,0,0:0:0:0:
160,384,67172,1,2,0:0:0:0:
160,240,67321,1,0,0:0:0:0:
208,96,67471,2,0,L|352:96,1,100,8|0,0:0|0:0,0:0:0:0:
384,96,67696,5,0,0:0:0:0:
384,176,67771,1,8,0:0:0:0:
384,256,67846,1,0,0:0:0:0:
384,336,67921,1,0,0:0:0:0:
240,336,68071,1,8,0:0:0:0:
240,336,68221,1,0,0:0:0:0:
32,288,68370,1,2,0:0:0:0:
32,224,68445,1,0,0:0:0:0:
64,160,68520,1,8,0:0:0:0:
112,128,68595,1,0,0:0:0:0:
176,144,68670,2,0,L|176:256,1,100,8|0,0:0|0:0,0:0:0:0:
176,244,68895,1,0,0:0:0:0:
176,244,68970,2,0,L|64:256,1,100,8|0,0:0|0:0,0:0:0:0:
352,160,69269,2,8,L|375:172,1,25
395,149,69344,2,0,L|407:172,1,25
450,149,69419,2,0,L|439:172,1,25
16,336,69569,6,0,P|69:376|119:380,1,100,2|0,0:0|0:0,0:0:0:0:
496,48,69869,2,0,P|443:8|393:4,1,100,8|0,0:0|0:0,0:0:0:0:
156,97,70169,2,0,P|116:151|113:200,1,100,8|0,0:3|0:3,0:3:0:0:
320,288,70468,1,8,0:0:0:0:
320,288,70543,1,0,0:0:0:0:
320,288,70618,1,0,0:0:0:0:
304,32,70768,1,2,0:0:0:0:
304,32,70918,1,0,0:0:0:0:
480,288,71067,2,0,L|352:275,1,100,8|0,0:0|0:0,0:0:0:0:
325,225,71292,1,0,0:0:0:0:
299,158,71367,2,0,P|218:166|181:211,1,100,8|0,0:0|0:0,0:0:0:0:
0,352,71667,5,8,0:0:0:0:
31,278,71742,1,0,0:0:0:0:
62,204,71817,1,8,0:0:0:0:
93,131,71891,1,0,0:0:0:0:
125,57,71966,1,2,0:0:0:0:
416,64,72116,2,0,L|372:167,1,100,0|8,0:0|0:0,0:0:0:0:
272,368,72416,1,0,0:0:0:0:
343,363,72491,1,0,0:0:0:0:
412,323,72566,1,8,0:0:0:0:
443,249,72641,1,0,0:0:0:0:
439,178,72716,2,0,L|482:75,1,100,0|8,0:0|0:0,0:0:0:0:
272,32,73015,2,0,L|221:149,1,100,0|2,0:0|0:0,0:0:0:0:
203,194,73240,1,0,0:0:0:0:
134,234,73315,1,8,0:0:0:0:
64,240,73390,1,0,0:0:0:0:
23,170,73465,1,8,0:0:0:0:
192,112,73615,5,0,0:0:0:0:
192,112,73690,1,0,0:0:0:0:
192,112,73765,1,8,0:0:0:0:
336,80,73914,1,0,0:0:0:0:
448,176,74064,1,8,0:0:0:0:
304,224,74214,1,0,0:0:0:0:
192,128,74364,1,2,0:0:0:0:
83,227,74514,1,0,0:0:0:0:
52,78,74664,1,8,0:0:0:0:
192,32,74814,1,0,0:0:0:0:
263,160,74964,1,8,0:0:0:0:
111,157,75114,1,0,0:0:0:0:
192,176,75263,1,8,0:0:0:0:
192,176,75338,1,0,0:0:0:0:
192,176,75413,1,0,0:0:0:0:
336,128,75563,5,2,0:0:0:0:
256,240,75713,1,0,0:0:0:0:
192,112,75862,1,8,0:0:0:0:
48,112,76012,1,0,0:0:0:0:
48,112,76087,1,0,0:0:0:0:
48,112,76162,1,8,0:0:0:0:
32,320,76312,1,0,0:0:0:0:
208,320,76462,1,8,0:0:0:0:
288,320,76537,1,0,0:0:0:0:
352,320,76612,1,8,0:0:0:0:
432,320,76687,1,0,0:0:0:0:
512,320,76762,1,2,0:0:0:0:
400,128,76911,1,0,0:0:0:0:
256,80,77061,2,0,L|112:80,1,100,8|8,0:0|0:0,0:0:0:0:
80,80,77286,5,0,0:0:0:0:
80,160,77361,1,8,0:0:0:0:
80,240,77436,1,0,0:0:0:0:
80,320,77511,1,8,0:0:0:0:
400,320,77661,1,8,0:0:0:0:
400,320,77811,1,0,0:0:0:0:
256,176,77961,5,2,0:0:0:0:
256,176,78560,1,8,0:0:0:0:
256,176,78860,1,8,0:0:0:0:
256,176,78935,1,0,0:0:0:0:
256,176,79010,1,8,0:0:0:0:
256,176,79085,1,0,0:0:0:0:
256,176,79160,1,2,0:0:0:0:
256,176,91148,5,2,0:0:0:0:
256,176,91597,1,2,0:0:0:0:
256,176,93545,5,2,0:0:0:0:
256,176,93995,1,2,0:0:0:0:
256,176,94819,5,2,0:0:0:0:
256,176,95268,1,2,0:0:0:0:
256,176,96018,5,2,0:0:0:0:
256,176,96467,1,8,0:0:0:0:
256,176,96617,1,2,0:0:0:0:
64,80,97067,5,8,0:0:0:0:
64,80,97216,1,2,0:0:0:0:
208,240,97516,1,10,0:0:0:0:
352,80,97816,5,0,0:0:0:0:
352,80,97966,1,2,0:0:0:0:
352,80,98116,1,2,0:0:0:0:
352,80,98191,1,8,0:0:0:0:
352,80,98265,1,2,0:0:0:0:
480,16,98413,5,2,0:0:0:0:
449,52,98715,5,8,0:0:0:0:
418,89,99012,1,8,0:0:0:0:
368,64,99314,6,0,L|400:64,1,25,8|0,0:0|0:0,0:0:0:0:
400,112,99389,2,0,L|432:128,1,25
416,160,99464,2,0,L|448:192,1,25
400,208,99539,2,0,L|432:240,1,25
368,240,99611,2,0,P|320:272|256:256,1,100,2|0,0:0|0:0,0:0:0:0:
96,32,99910,2,0,P|16:48|-16:96,1,100,8|0,0:0|0:0,0:0:0:0:
320,384,100213,2,0,P|288:348|281:298,1,100,8|0,0:0|0:0,0:0:0:0:
336,32,100513,5,8,0:0:0:0:
416,32,100588,1,0,0:0:0:0:
496,32,100663,1,0,0:0:0:0:
400,160,100813,2,0,P|384:256|368:256,1,100,2|0,0:0|0:0,0:0:0:0:
16,160,101113,2,0,P|32:256|48:256,1,100,8|0,0:0|0:0,0:0:0:0:
80,256,101337,1,0,0:0:0:0:
160,240,101412,2,0,P|144:144|128:145,1,100,8|0,0:0|0:0,0:0:0:0:
352,384,101712,5,8,0:0:0:0:
384,320,101787,1,0,0:0:0:0:
416,256,101862,1,8,0:0:0:0:
448,192,101937,1,0,0:0:0:0:
480,128,102007,1,2,0:0:0:0:
128,32,102156,2,0,P|64:48|64:80,1,100,0|8,0:0|0:0,0:0:0:0:
128,384,102461,1,8,0:0:0:0:
200,376,102536,1,0,0:0:0:0:
268,331,102611,1,8,0:0:0:0:
290,263,102686,1,0,0:0:0:0:
268,195,102761,1,8,0:0:0:0:
368,320,102911,2,0,P|432:304|448:256,1,100,8|0,0:0|0:0,0:0:0:0:
0,32,103205,5,2,0:0:0:0:
0,112,103285,1,0,0:0:0:0:
0,192,103360,1,8,0:0:0:0:
0,272,103429,1,0,0:0:0:0:
0,352,103504,1,8,0:0:0:0:
480,112,103654,1,0,0:0:0:0:
432,160,103729,1,0,0:0:0:0:
384,208,103803,1,8,0:0:0:0:
32,80,103953,2,0,P|15:174|28:193,1,100,0|8,0:0|0:0,0:0:0:0:
208,368,104253,2,0,P|303:368|320:353,1,100,0|2,0:0|0:0,0:0:0:0:
512,208,104552,2,0,P|501:111|484:97,1,100,0|8,0:0|0:0,0:0:0:0:
272,0,104852,6,0,P|179:24|167:44,1,100,0|8,0:0|0:0,0:0:0:0:
0,224,105152,2,0,L|112:223,1,100,0|8,0:0|0:0,0:0:0:0:
176,224,105377,1,0,0:0:0:0:
256,224,105452,1,0,0:0:0:0:
256,16,105602,2,0,P|336:16|352:32,1,100,2|0,0:0|0:0,0:0:0:0:
256,384,105900,2,0,P|176:384|160:368,1,100,8|0,0:0|0:0,0:0:0:0:
144,304,106126,1,0,0:0:0:0:
160,224,106201,1,8,0:0:0:0:
464,32,106349,2,0,P|384:32|368:48,1,100,0|8,0:0|0:0,0:0:0:0:
336,112,106574,1,0,0:0:0:0:
352,192,106649,1,8,0:0:0:0:
416,224,106724,1,0,0:0:0:0:
496,224,106798,1,2,0:0:0:0:
160,272,106948,5,0,0:0:0:0:
160,272,107098,1,8,0:0:0:0:
464,80,107248,1,8,0:0:0:0:
384,80,107323,1,0,0:0:0:0:
304,80,107398,1,8,0:0:0:0:
224,80,107473,1,0,0:0:0:0:
144,80,107548,1,8,0:0:0:0:
32,304,107697,2,0,L|160:368,1,100,8|0,0:0|0:0,0:0:0:0:
512,256,107996,1,2,0:0:0:0:
448,288,108071,1,0,0:0:0:0:
368,288,108146,1,8,0:0:0:0:
304,256,108220,1,0,0:0:0:0:
272,192,108295,1,8,0:0:0:0:
0,352,108446,1,0,0:0:0:0:
32,288,108521,1,0,0:0:0:0:
48,224,108596,2,0,P|128:192|144:208,1,100,8|0,0:0|0:0,0:0:0:0:
320,128,108895,6,0,L|336:160,1,25,8|0,0:0|0:0,0:0:0:0:
368,160,108965,2,0,L|384:192,1,25
416,192,109040,2,0,L|432:224,1,25
272,336,109195,2,0,L|192:240,1,100,8|0,0:0|0:0,0:0:0:0:
400,80,109494,1,8,0:0:0:0:
400,80,109644,1,0,0:0:0:0:
80,96,109794,2,0,L|0:0,1,100,8|0,0:0|0:0,0:0:0:0:
16,368,110093,1,8,0:0:0:0:
16,300,110168,1,0,0:0:0:0:
16,232,110242,1,0,0:0:0:0:
416,304,110393,2,0,L|464:176,1,100,2|0,0:0|0:0,0:0:0:0:
256,176,110692,2,0,L|208:288,1,100,8|0,0:0|0:0,0:0:0:0:
144,288,110917,1,0,0:0:0:0:
64,304,110992,2,0,L|112:208,1,100,8|0,0:0|0:0,0:0:0:0:
64,0,111291,5,8,0:0:0:0:
144,0,111366,1,0,0:0:0:0:
224,0,111441,1,8,0:0:0:0:
304,0,111516,1,0,0:0:0:0:
384,0,111591,2,0,P|416:48|384:80,1,100,2|0,0:0|0:0,0:0:0:0:
80,336,111890,2,0,P|32:368|0:336,1,100,8|0,0:0|0:0,0:0:0:0:
16,272,112115,1,0,0:0:0:0:
80,224,112190,1,8,0:0:0:0:
160,224,112264,1,0,0:0:0:0:
224,256,112339,2,0,P|224:320|192:320,1,100,0|8,0:0|0:0,0:0:0:0:
80,32,112639,6,0,L|80:160,1,100,0|2,0:0|0:0,0:0:0:0:
80,208,112863,1,0,0:0:0:0:
112,272,112938,1,8,0:0:0:0:
176,304,113013,1,0,0:0:0:0:
240,272,113088,1,8,0:0:0:0:
416,176,113238,1,0,0:0:0:0:
368,128,113313,1,0,0:0:0:0:
304,80,113388,1,8,0:0:0:0:
96,224,113537,5,0,0:0:0:0:
96,80,113687,1,8,0:0:0:0:
240,80,113835,1,0,0:0:0:0:
384,80,113987,1,2,0:0:0:0:
384,224,114135,1,0,0:0:0:0:
240,224,114284,1,8,0:0:0:0:
240,80,114434,1,0,0:0:0:0:
384,80,114586,1,8,0:0:0:0:
384,224,114735,1,0,0:0:0:0:
288,320,114885,1,8,0:0:0:0:
288,320,114960,1,0,0:0:0:0:
288,320,115035,1,0,0:0:0:0:
352,64,115185,6,0,P|400:112|384:160,1,100,2|0,0:0|0:0,0:0:0:0:
32,240,115484,2,0,P|64:288|112:304,1,100,8|0,0:0|0:0,0:0:0:0:
176,304,115709,1,0,0:0:0:0:
240,272,115783,1,8,0:0:0:0:
64,48,115933,2,0,L|86:174,1,100,0|8,0:0|0:0,0:0:0:0:
117,211,116158,1,0,0:0:0:0:
183,240,116233,1,8,0:0:0:0:
263,235,116308,1,0,0:0:0:0:
324,184,116383,2,0,P|309:91|276:77,1,100,2|0,0:0|0:0,0:0:0:0:
464,304,116682,2,0,P|498:217|478:188,1,100,8|0,0:0|0:0,0:0:0:0:
473,156,116907,1,0,0:0:0:0:
404,135,116982,1,8,0:0:0:0:
325,147,117057,1,0,0:0:0:0:
267,189,117132,1,8,0:0:0:0:
112,320,117281,2,0,L|112:208,1,100,8|0,0:0|0:0,0:0:0:0:
