osu file format v9

[General]
AudioFilename: New 10 - Coward Killing Time.mp3
AudioLeadIn: 0
PreviewTime: 9258
Countdown: 0
SampleSet: Normal
StackLeniency: 0.5
Mode: 0
LetterboxInBreaks: 1

[Editor]
Bookmarks: 11657,23651,38044,47639,56035,57234,66829,74026,76424,86020,94415,98014,105210,106409,107609
DistanceSpacing: 1
BeatDivisor: 4
GridSize: 4

[Metadata]
Title:Coward Killing Time
Artist:The Quick Brown Fox
Creator:theowest
Version:Scout
Source:
Tags:Speedkore 4 kidz Renard Team Fortress 2 OzzyOzrock Medi-chan TQBF

[Difficulty]
HPDrainRate:5
CircleSize:4
OverallDifficulty:8
ApproachRate:9
SliderMultiplier:2.5
SliderTickRate:2

[Events]
//Background and Video events
0,0,"BG.jpg"
//Break Periods
//Storyboard Layer 0 (Background)
//Storyboard Layer 1 (Fail)
//Storyboard Layer 2 (Pass)
//Storyboard Layer 3 (Foreground)
//Storyboard Sound Samples
//Background Colour Transformations
3,100,0,0,0

[TimingPoints]
2062,299.850074962519,4,1,0,80,1,0
6559,-100,4,1,0,70,0,0
6709,-100,4,1,0,85,0,0
6859,-100,4,1,0,100,0,0
8958,-100,4,1,0,50,0,0
9033,-100,4,1,0,70,0,0
9108,-100,4,1,0,85,0,0
9183,-100,4,1,0,95,0,0
9258,-100,4,1,0,100,0,0
25150,-50,4,1,0,100,0,0
25900,-100,4,1,0,100,0,0
27249,-50,4,1,0,100,0,0
28448,-100,4,1,0,100,0,0
29948,-50,4,1,0,100,0,0
30697,-66.6666666666667,4,1,0,100,0,0
36844,-50,4,1,0,100,0,0
47639,-100,4,1,0,100,0,0
52436,-100,4,1,0,100,0,1
54835,-100,4,1,0,80,0,1
56035,-100,4,1,0,100,0,0
56334,-100,4,1,0,80,0,0
57234,-200,4,1,0,100,0,0
66829,-100,4,1,0,100,0,0
76424,-200,4,1,0,100,0,0
80622,-100,4,1,0,100,0,0
81072,-200,4,1,0,100,0,0
86020,-100,4,1,0,100,0,0
90817,-100,4,1,0,100,0,1
93216,-100,4,1,0,80,0,1
94415,-100,4,1,0,80,0,0
94715,-100,4,1,0,80,0,0
95465,-100,4,1,0,100,0,0
99513,-50,4,1,0,100,0,0
100262,-100,4,1,0,100,0,0
101612,-50,4,1,0,100,0,0
102511,-66.6666666666667,4,1,0,100,0,0
102811,-100,4,1,0,100,0,0
105210,-100,4,1,0,100,0,1
106409,-100,4,1,0,100,0,0
106709,-100,4,1,0,80,0,0
107609,-100,4,1,0,100,0,1
107759,-100,4,1,0,100,0,0

[Colours]
Combo1 : 255,0,255
Combo2 : 255,0,0
Combo3 : 0,0,255

[HitObjects]
432,56,2061,1,4
384,172,2361,1,4
80,328,4460,5,4
128,212,4760,1,4
96,120,6559,5,0
104,152,6634,1,0
112,184,6709,1,0
120,216,6784,1,0
128,248,6859,1,4
416,264,8958,5,0
408,232,9033,1,0
400,200,9108,1,0
392,168,9183,1,0
384,136,9258,1,4
328,320,11357,6,0,L|368:336,7,31.25,0|0|0|0|0|0|0|0
368,336,11657,5,8
416,296,11807,1,0
360,272,11957,1,8
408,232,12106,1,0
352,208,12256,1,8
400,168,12406,1,0
344,144,12556,1,8
392,104,12706,1,0
364,92,12781,1,0
336,80,12856,1,8
384,40,13006,1,0
324,16,13156,1,8
256,136,13306,5,0
256,264,13456,1,2
256,136,13606,1,0
256,264,13756,1,2
256,136,13906,1,0
188,16,14056,5,12
128,40,14205,1,0
176,80,14355,1,8
120,104,14505,1,0
168,144,14655,1,8
112,168,14805,1,0
160,208,14955,1,8
104,232,15105,1,0
152,272,15255,1,8
96,296,15405,1,0
144,336,15555,1,8
256,264,15705,5,2
256,120,15855,1,0
256,264,16005,1,2
360,192,16154,2,0,L|416:192,7,31.25
408,192,16454,5,12
432,264,16604,1,0
384,320,16754,1,8
312,312,16904,1,0
256,264,17054,1,8
200,312,17204,1,0
128,320,17354,1,8
80,264,17504,1,0
92,228,17579,1,0
104,192,17654,1,8
80,120,17804,1,0
128,64,17954,1,8
256,80,18103,5,0
360,128,18253,1,2
256,192,18403,1,0
152,256,18553,1,2
256,304,18703,1,0
384,320,18853,5,12
432,264,19003,1,0
408,192,19153,1,8
432,120,19303,1,0
384,64,19453,1,8
312,72,19603,1,0
256,120,19753,1,8
200,72,19903,1,0
128,64,20053,1,8
80,120,20202,1,0
84,244,20352,5,8
188,312,20502,1,2
256,208,20652,1,0
364,272,20802,1,2
388,148,20952,2,0,L|420:124,8,31.25,0|0|0|0|0|0|0|0|4
288,360,21552,6,0,B|440:376|480:220,1,250,4|0
232,36,22451,6,0,B|80:20|40:176,1,250,4|4
256,164,23351,6,0,L|256:124,7,31.25
268,112,23651,6,0,B|328:144|412:108,1,125,12|0
436,232,23951,2,0,B|364:208|268:276|268:272,1,125,8|0
196,204,24250,2,0,B|152:152|180:72,1,125,8|0
300,68,24550,2,0,B|316:156|416:168,1,125,8|0
404,168,24775,1,0
436,176,24850,2,0,B|493:238|457:327,1,125,8|0
256,340,25150,6,10,B|132:308|48:184,1,250,10|0
300,264,25450,2,0,B|220:164|80:100,1,250,10|0
372,208,25750,2,2,B|255:144|220:12,1,250,10|0
148,64,26050,6,0,B|80:72|28:128,1,125,12|0
124,208,26349,2,0,B|88:264|116:348,1,125,8|0
216,260,26649,2,0,B|240:327|340:351,1,125,8|0
296,216,26949,2,0,B|372:224|424:180,1,125,8|0
412,64,27249,6,2,B|356:212|504:324|504:320,1,250,10|0
272,136,27549,2,2,B|412:204|536:108,1,250,10|0
372,336,27849,2,0,B|376:208|252:97|252:97|253:101,1,250,10|0
144,124,28148,6,0,L|68:80,7,62.5
84,124,28448,6,4,B|104:188|60:268,1,125,12|4
132,356,28748,2,0,B|200:328|208:256,1,125,8|0
216,140,29048,2,0,B|280:164|340:116,1,125,8|0
396,232,29348,2,0,B|408:296|496:304|500:304,1,125,8|0
432,328,29573,1,0
376,352,29648,2,0,B|320:312|248:320,1,125,8|0
56,256,29948,6,2,B|260:252|376:144,1,250,10|0
460,144,30247,2,2,B|256:140|140:32,1,250,10|0
104,152,30547,2,2,B|276:260|320:412,1,250,10|0
140,336,30847,5,12
56,256,30997,1,0
144,160,31147,1,8
152,24,31297,1,0
252,108,31447,1,8
336,12,31597,1,0
380,136,31747,1,8
452,28,31897,1,0
496,152,32047,1,8
392,72,32196,1,0
300,164,32346,1,8
192,88,32496,1,2
92,176,32646,1,8
72,320,32796,5,2
79,323,32871,1,0
86,326,32946,1,0
94,329,33021,1,0
101,332,33096,1,0
112,336,33171,1,0
120,339,33246,1,12
80,48,33546,1,4
44,351,34445,5,12
468,32,34745,1,4
256,192,35345,6,0,C|240:128,8,46.8749986030162,0|0|0|0|0|0|0|0|4
504,352,38044,6,0,B|184:352,1,250,4|0
192,352,38268,1,0
128,352,38343,1,0
32,272,38493,6,0,B|296:224,1,250,0|0
384,296,38793,2,0,B|280:32,1,250
464,160,39093,1,0
472,336,39243,6,0,B|200:280,1,250
184,168,39543,1,0
288,96,39693,1,0
408,136,39843,2,0,B|264:376,1,250
160,312,40142,1,0
160,312,40217,1,0
160,312,40292,1,0
160,312,40367,1,0
160,312,40442,1,0
88,208,40592,6,0,B|368:248,1,250
440,312,40892,2,0,B|400:48,1,250
280,32,41192,1,0
160,72,41342,2,0,B|192:344,1,250
312,288,41642,1,0
312,288,41717,1,0
312,288,41792,1,0
312,288,41867,1,0
336,232,41942,6,0,B|96:112,1,250
256,68,42241,2,0,B|488:168,2,250
108,60,42691,5,0
108,60,42766,1,0
108,60,42841,1,4
120,208,42991,6,0,B|416:104,1,250
476,84,43291,1,0
468,208,43441,2,0,B|236:352,1,250
148,276,43741,2,0,B|68:244|76:168|128:108|212:148,1,250
320,136,44041,5,0
320,136,44115,1,0
320,136,44190,1,0
392,32,44340,2,0,B|424:284,2,250
268,36,44790,1,0
168,112,44940,5,0
168,112,45015,1,0
168,112,45090,1,0
168,112,45165,1,0
168,112,45240,1,0
192,236,45390,6,0,B|440:364,2,250
40,152,45840,5,0
40,152,45915,1,0
40,152,45990,1,0
40,152,46064,1,0
40,152,46139,2,0,B|340:72,1,250
404,64,46439,1,0
480,164,46589,2,0,B|288:324,1,250
140,292,46889,5,0
108,144,47039,1,2
256,112,47189,1,0
292,256,47339,1,2
400,336,47639,5,4
436,272,47789,1,0
420,200,47939,1,0
356,160,48088,1,0
284,172,48238,1,0
228,220,48388,1,0
176,276,48538,1,0
104,292,48688,1,0
68,280,48763,1,0
44,252,48838,1,0
20,180,48988,5,0
40,108,49138,1,0
100,64,49288,1,0
172,48,49438,1,0
244,68,49588,1,0
308,108,49738,1,0
336,136,49813,1,0
348,172,49888,1,0
344,208,49963,1,0
328,240,50038,1,0
264,280,50187,5,0
188,292,50337,1,0
116,272,50487,1,0
92,200,50637,1,0
104,164,50712,1,0
128,136,50787,1,0
164,124,50862,2,0,B|224:112|256:148,1,62.5
260,140,51012,1,0
292,156,51087,1,0
348,204,51237,5,0
420,208,51387,1,0
456,200,51462,1,0
484,176,51537,1,0
492,100,51687,1,0
440,48,51837,1,0
368,68,51987,1,0
300,40,52136,6,0,C|260:24,7,31.25,0|0|0|0|0|0|0|4
204,48,52436,6,0,B|132:72,15,62.5
84,104,53636,6,0,B|-4:96,15,62.5
36,168,54835,6,0,C|72:212,32,31.25,0|0|0|0|0|0|0|0|0|0|0|0|0|0|0|0|0|0|0|0|0|0|0|0|0|0|0|0|0|0|0|0|4
368,100,56334,5,0
376,214,56484,1,0
284,281,56634,1,0
175,250,56784,1,0
152,139,56934,1,0
248,56,57234,5,4
432,40,57534,1,0
472,224,57834,2,0,B|452:288|392:340,1,125
272,192,58433,1,0
128,312,58733,1,0
96,128,59033,2,0,B|98:196|164:242,1,125
240,280,59483,1,0
336,264,59633,5,0
472,136,59933,1,0
288,152,60232,2,0,B|216:160|154:108,1,125
32,248,60832,2,0,B|48:312|96:360,1,125,0|0
384,200,61432,5,0
264,240,61732,1,0
176,216,61882,1,0
136,128,62032,2,0,B|108:68|136:4,1,125
224,152,62631,6,0,B|288:160|344:112,1,125
488,232,63231,2,0,B|476:300|420:340,1,125
240,344,63831,1,0
112,208,64130,1,0
152,120,64280,1,0
232,64,64430,2,0,B|282:111|372:108,1,125
488,232,65030,2,0,B|421:268|344:251,1,125
184,288,65630,5,0
72,136,65930,1,0
232,40,66229,2,0,B|292:40|361:68,1,125
400,152,66679,1,0
332,256,66829,5,12
212,224,66979,1,8
212,224,67054,1,0
212,224,67129,1,8
168,124,67279,1,8
272,56,67429,2,0,B|500:48|324:-28|324:208,1,250
416,240,67879,5,8
180,320,68178,1,8
92,232,68328,1,8
168,124,68628,2,0,B|168:300|-8:352,1,250
425,345,69378,5,8
332,260,69528,1,8
224,320,69678,1,8
152,216,69828,2,0,B|71:208|9:114|75:21,1,250
310,61,70277,5,8
432,28,70427,1,8
416,152,70577,1,8
320,232,70727,1,8
320,232,70802,1,8
320,232,70877,1,8
320,232,70952,1,0
320,232,71027,2,0,B|248:368|64:272,1,250
176,40,71627,5,8
304,96,71777,1,8
304,96,71852,1,0
304,96,71927,1,8
284,220,72076,1,8
180,288,72226,2,0,B|-4:216|336:204|60:116,1,250
256,36,72676,1,8
356,344,72976,5,8
404,228,73126,1,8
144,280,73426,6,0,B|220:288|310:237|323:156|322:105,1,250
80,64,74026,1,4
380,336,76424,5,4
280,332,76574,2,0,B|248:360,2,31.25
304,244,76874,1,0
208,212,77024,1,0
176,308,77174,1,0
80,340,77323,2,0,B|104:372,2,31.25
28,252,77623,5,0
116,204,77773,1,0
56,124,77923,1,0
100,32,78072,1,0
168,104,78222,1,0
232,28,78372,1,0
328,60,78522,2,0,B|344:28,4,31.25
280,148,78972,5,0
372,112,79122,1,0
416,204,79272,1,0
320,236,79423,2,0,B|280:252,4,31.25
412,276,79873,1,0
384,368,80023,5,0
288,340,80172,2,0,B|312:368,2,31.25
188,352,80472,1,0
92,324,80622,2,0,B|148:276|148:276|132:200,1,125
228,184,80922,2,0,B|176:132|176:132|212:56,1,125
300,104,81222,5,4
364,28,81372,1,0
448,84,81522,1,0
388,164,81672,1,0
460,232,81822,2,0,B|500:236,2,31.25
392,308,82121,5,0
316,248,82271,1,0
248,320,82421,2,0,B|268:356,2,31.25
160,360,82721,1,0
116,272,82871,2,0,B|76:260,1,31.25
208,232,83096,6,0,B|220:196,1,31.25
124,184,83321,1,0
72,100,83471,1,0
156,48,83621,1,0
216,128,83771,5,0
276,48,83921,1,0
336,128,84070,1,0
396,48,84220,2,0,B|416:12,3,31.25
440,116,84595,2,0,B|472:148,1,31.25
400,204,84820,1,0
300,208,84970,2,0,B|260:184,2,31.25
260,300,85270,5,0
144,348,85420,1,2
84,236,85570,1,0
196,184,85720,1,2
188,56,86020,5,4
308,40,86169,1,0
328,136,86319,1,0
428,120,86469,1,0
392,212,86619,1,0
476,268,86769,1,0
420,348,86919,1,0
332,296,87069,1,0
288,320,87144,1,0
244,344,87219,1,0
204,252,87369,5,0
112,288,87519,1,0
76,196,87669,1,0
168,160,87819,1,0
144,64,87969,1,0
244,52,88118,1,0
264,100,88193,1,0
280,148,88268,1,0
328,136,88343,1,0
376,120,88418,1,0
432,204,88568,5,0
336,236,88718,1,0
372,328,88868,1,0
276,356,89018,1,0
256,308,89093,1,0
236,260,89168,1,0
188,272,89243,1,0
92,248,89393,1,0
108,200,89468,1,0
56,116,89618,1,0
136,52,89768,1,0
184,56,89842,1,0
232,60,89917,1,0
332,52,90066,1,0
376,140,90216,5,0
300,208,90366,1,0
348,292,90517,6,0,B|328:324,7,31.25
308,328,90816,5,4
276,332,90891,1,0
244,328,90966,1,0
216,312,91041,1,0
196,288,91116,1,0
188,256,91191,1,0
196,224,91266,1,0
212,196,91341,1,0
236,176,91416,1,0
268,168,91491,1,0
300,172,91566,1,0
328,188,91641,1,0
356,200,91716,1,0
388,200,91791,1,0
416,192,91866,1,0
436,168,91941,1,0
448,140,92016,5,0
436,112,92090,1,0
416,88,92165,1,0
388,72,92240,1,0
356,64,92315,1,0
324,64,92390,1,0
296,76,92465,1,0
272,100,92540,1,0
248,120,92615,1,0
220,132,92690,1,0
188,140,92765,1,0
156,140,92840,1,0
124,132,92915,1,0
100,112,92990,1,0
96,80,93065,1,0
108,52,93140,1,0
136,36,93216,6,0,B|152:24|192:28,32,31.25,0|0|0|0|0|0|0|0|0|0|0|0|0|0|0|0|0|0|0|0|0|0|0|0|0|0|0|0|0|0|0|0|4
436,160,94714,5,0
404,308,94864,1,0
276,228,95014,1,0
196,356,95164,1,0
68,280,95314,1,0
136,40,95614,5,4
256,44,97714,6,0,B|280:80,7,31.25
248,100,98014,6,0,B|168:96|92:136,1,125,8|0
184,232,98313,2,0,B|228:316|184:388,1,125,8|0
332,224,98613,2,0,B|296:156|316:80,1,125,8|0
436,176,98913,2,0,B|472:272|428:340,1,125,8|0
384,300,99138,1,0
340,344,99213,2,0,B|264:352|212:280,1,125,8|0
88,244,99513,6,2,B|13:97|144:32,1,250,10|0
440,80,99813,2,2,B|378:232|241:176,1,250,10|0
264,304,100111,2,2,B|109:247|160:108,1,250,10|0
224,116,100411,6,0,B|288:84|288:84|372:116,1,125,12|0
468,180,100711,2,0,B|404:204|404:204|304:180,1,125,8|0
36,92,101011,2,0,B|100:52|100:52|184:92,1,125,8|0
476,292,101311,2,0,B|412:332|412:332|328:292,1,125,8|0
36,156,101612,6,2,B|340:212,1,250,10|0
484,52,101911,2,2,B|160:164,1,250,10|0
28,332,102210,2,2,B|352:220,1,250,10|0
256,192,102511,2,0,B|336:192,7,46.8749986030162
316,220,102811,6,0,B|376:184|376:104,1,125,12|0
348,72,103035,1,0
300,88,103110,2,0,B|216:142|134:67,1,125,8|0
132,112,103335,1,0
128,160,103410,2,0,B|116:256|12:288,1,125,8|0
96,304,103635,1,0
140,328,103710,2,0,B|219:311|244:222,1,125,8|0
280,272,103935,5,0
320,300,104010,2,0,B|320:220|400:172,1,125,8|0
420,204,104234,1,0
468,208,104309,2,0,B|524:168|488:80,1,125,8|0
448,80,104534,1,0
412,44,104609,2,0,B|335:5|248:56,1,125,8|0
240,48,104834,1,0
212,88,104909,2,0,B|220:168|304:184,1,125,8|0
336,192,105134,1,0
368,248,105209,6,0,B|428:320,3,62.5,8|0|0|0
360,344,105509,2,0,B|284:360,3,62.5,8|0|0|0
240,328,105809,2,0,B|168:280,3,62.5,8|0|0|0
128,304,106108,6,0,B|44:332,1,62.5,8|0
40,264,106258,2,0,B|48:180,1,62.5,0|0
64,144,106408,1,4
472,152,106708,5,0
264,199,106858,1,0
404,39,107008,1,0
385,251,107158,1,0
275,68,107308,1,0
360,142,107608,5,4
