osu file format v11

[General]
AudioFilename: Renard - Cloudsmasher.mp3
AudioLeadIn: 1500
PreviewTime: 22702
Countdown: 0
SampleSet: Normal
StackLeniency: 0.7
Mode: 1
LetterboxInBreaks: 0

[Editor]
DistanceSpacing: 0.9
BeatDivisor: 4
GridSize: 8

[Metadata]
Title:Cloudsmasher
TitleUnicode:Cloudsmasher
Artist:The Quick Brown Fox
ArtistUnicode:The Quick Brown Fox
Creator:Aqo
Version:Phoenyx Taiko
Source:Renard
Tags:
BeatmapID:208479
BeatmapSetID:72121

[Difficulty]
HPDrainRate:6
CircleSize:4
OverallDifficulty:6
ApproachRate:9
SliderMultiplier:0.7
SliderTickRate:1

[Events]
//Background and Video events
0,0,"BG.jpg"
//Break Periods
//Storyboard Layer 0 (Background)
//Storyboard Layer 1 (Fail)
//Storyboard Layer 2 (Pass)
//Storyboard Layer 3 (Foreground)
//Storyboard Sound Samples
//Background Colour Transformations
3,100,0,0,0

[TimingPoints]
1348,164.898587368768,4,1,0,100,1,0
32843,-100,4,1,0,100,0,1
33008,-86.9565217391304,4,1,0,100,0,1
43562,-76.9230769230769,4,1,0,100,0,1
54115,-100,4,1,0,100,0,0
85776,-86.9565217391304,4,1,0,100,0,1
96329,-125,4,1,0,100,0,0
117436,-100,4,1,0,100,0,0
127990,-86.9565217391304,4,1,0,100,0,1
138543,-76.9230769230769,4,1,0,100,0,1
147777,-86.9565217391304,4,1,0,100,0,0

[Colours]
Combo1 : 0,0,255
Combo2 : 255,0,0

[HitObjects]
256,192,1348,1,4,0:0:0
256,192,1513,1,0,0:0:0
256,192,1678,1,8,0:0:0
256,192,1843,1,8,0:0:0
256,192,2008,1,0,0:0:0
256,192,2090,1,0,0:0:0
256,192,2173,1,8,0:0:0
256,192,2337,1,0,0:0:0
256,192,2502,1,0,0:0:0
256,192,2667,1,0,0:0:0
256,192,2832,1,8,0:0:0
256,192,2915,1,8,0:0:0
256,192,2997,1,8,0:0:0
256,192,3162,1,0,0:0:0
256,192,3327,1,0,0:0:0
256,192,3409,1,0,0:0:0
256,192,3492,1,8,0:0:0
256,192,3657,1,0,0:0:0
256,192,3739,1,0,0:0:0
256,192,3822,1,8,0:0:0
256,192,3904,1,8,0:0:0
256,192,3986,1,0,0:0:0
256,192,4151,1,0,0:0:0
256,192,4234,1,0,0:0:0
256,192,4316,1,8,0:0:0
256,192,4481,1,8,0:0:0
256,192,4646,1,0,0:0:0
256,192,4728,1,8,0:0:0
256,192,4811,1,0,0:0:0
256,192,4976,1,8,0:0:0
256,192,5141,1,8,0:0:0
256,192,5223,1,8,0:0:0
256,192,5306,1,0,0:0:0
256,192,5471,1,0,0:0:0
256,192,5635,1,0,0:0:0
256,192,5800,1,8,0:0:0
256,192,5883,1,8,0:0:0
256,192,5965,1,0,0:0:0
256,192,6130,1,0,0:0:0
256,192,6213,1,0,0:0:0
256,192,6295,1,0,0:0:0
256,192,6377,1,0,0:0:0
256,192,6460,1,8,0:0:0
256,192,6513,1,8,0:0:0
256,192,6568,1,8,0:0:0
256,192,6625,1,0,0:0:0
256,192,6790,1,0,0:0:0
256,192,6872,1,0,0:0:0
256,192,6955,1,8,0:0:0
256,192,7037,1,0,0:0:0
256,192,7120,1,8,0:0:0
256,192,7284,1,0,0:0:0
256,192,7449,1,8,0:0:0
256,192,7532,1,0,0:0:0
256,192,7614,1,8,0:0:0
256,192,7779,1,8,0:0:0
256,192,7862,1,8,0:0:0
256,192,7944,1,0,0:0:0
256,192,8026,1,0,0:0:0
256,192,8109,1,8,0:0:0
256,192,8274,1,0,0:0:0
256,192,8356,1,0,0:0:0
256,192,8439,1,8,0:0:0
256,192,8604,1,0,0:0:0
256,192,8769,1,8,0:0:0
256,192,8851,1,0,0:0:0
256,192,8933,1,8,0:0:0
256,192,9016,1,0,0:0:0
256,192,9098,1,8,0:0:0
256,192,9263,1,0,0:0:0
256,192,9346,1,8,0:0:0
256,192,9428,1,8,0:0:0
256,192,9511,1,0,0:0:0
256,192,9593,1,8,0:0:0
256,192,9758,1,0,0:0:0
256,192,9923,1,0,0:0:0
256,192,10005,1,0,0:0:0
256,192,10088,1,8,0:0:0
256,192,10253,1,0,0:0:0
256,192,10417,1,0,0:0:0
256,192,10582,1,6,0:0:0
256,192,10830,1,6,0:0:0
256,192,11077,1,4,0:0:0
256,192,11242,1,4,0:0:0
256,192,11407,1,0,0:0:0
256,192,11489,1,0,0:0:0
256,192,11572,1,8,0:0:0
256,192,11654,1,8,0:0:0
256,192,11737,1,8,0:0:0
256,192,11792,1,8,0:0:0
256,192,11847,1,8,0:0:0
256,192,11902,1,0,0:0:0
256,192,12066,1,0,0:0:0
256,192,12231,1,8,0:0:0
256,192,12396,1,8,0:0:0
256,192,12479,1,8,0:0:0
256,192,12561,1,0,0:0:0
256,192,12726,1,8,0:0:0
256,192,12891,1,0,0:0:0
256,192,13056,1,8,0:0:0
256,192,13138,1,8,0:0:0
256,192,13221,1,0,0:0:0
256,192,13386,1,8,0:0:0
256,192,13468,1,0,0:0:0
256,192,13551,1,0,0:0:0
256,192,13633,1,8,0:0:0
256,192,13715,1,0,0:0:0
256,192,13880,1,8,0:0:0
256,192,13963,1,8,0:0:0
256,192,14045,1,0,0:0:0
256,192,14210,1,8,0:0:0
256,192,14293,1,8,0:0:0
256,192,14375,1,0,0:0:0
256,192,14540,1,0,0:0:0
256,192,14705,1,8,0:0:0
256,192,14870,1,8,0:0:0
256,192,15035,1,0,0:0:0
256,192,15117,1,0,0:0:0
256,192,15200,1,8,0:0:0
256,192,15282,1,0,0:0:0
256,192,15364,1,8,0:0:0
256,192,15447,1,8,0:0:0
256,192,15529,1,0,0:0:0
256,192,15694,1,0,0:0:0
256,192,15859,1,0,0:0:0
256,192,15942,1,8,0:0:0
256,192,16024,1,8,0:0:0
256,192,16189,1,0,0:0:0
256,192,16271,1,0,0:0:0
256,192,16354,1,8,0:0:0
256,192,16436,1,0,0:0:0
256,192,16519,1,8,0:0:0
256,192,16684,1,0,0:0:0
256,192,16849,1,0,0:0:0
256,192,16904,1,0,0:0:0
256,192,16958,1,8,0:0:0
256,192,17013,1,0,0:0:0
256,192,17068,1,8,0:0:0
256,192,17123,1,8,0:0:0
256,192,17178,1,0,0:0:0
256,192,17343,1,0,0:0:0
256,192,17426,1,0,0:0:0
256,192,17508,1,0,0:0:0
256,192,17673,1,0,0:0:0
256,192,17838,1,8,0:0:0
256,192,17893,1,8,0:0:0
256,192,17948,1,8,0:0:0
256,192,18003,1,0,0:0:0
256,192,18168,1,0,0:0:0
256,192,18223,1,8,0:0:0
256,192,18278,1,8,0:0:0
256,192,18333,1,0,0:0:0
256,192,18498,1,0,0:0:0
256,192,18580,1,0,0:0:0
256,192,18662,1,8,0:0:0
256,192,18745,1,0,0:0:0
256,192,18827,1,8,0:0:0
256,192,18910,1,0,0:0:0
256,192,18992,1,8,0:0:0
256,192,19157,1,8,0:0:0
256,192,19322,1,0,0:0:0
256,192,19487,1,0,0:0:0
256,192,19569,1,0,0:0:0
256,192,19652,1,8,0:0:0
256,192,19817,1,0,0:0:0
256,192,19899,1,0,0:0:0
256,192,19982,1,8,0:0:0
256,192,20147,1,8,0:0:0
256,192,20311,1,0,0:0:0
256,192,20394,1,0,0:0:0
256,192,20476,1,0,0:0:0
256,192,20559,1,8,0:0:0
256,192,20641,1,0,0:0:0
256,192,20806,1,8,0:0:0
256,192,20971,1,0,0:0:0
256,192,21136,1,6,0:0:0
256,192,21383,1,6,0:0:0
256,192,21631,1,4,0:0:0
256,192,21796,1,4,0:0:0
256,192,21960,1,8,0:0:0
256,192,22043,1,8,0:0:0
256,192,22125,1,0,0:0:0
256,192,22208,1,0,0:0:0
256,192,22290,1,0,0:0:0
256,192,22373,1,8,0:0:0
256,192,22455,1,0,0:0:0
256,192,22620,1,8,0:0:0
256,192,22702,1,0,0:0:0
256,192,22867,1,8,0:0:0
256,192,22950,1,0,0:0:0
256,192,23115,1,0,0:0:0
256,192,23197,1,8,0:0:0
256,192,23280,1,0,0:0:0
256,192,23362,1,8,0:0:0
256,192,23527,1,0,0:0:0
256,192,23609,1,8,0:0:0
256,192,23774,1,8,0:0:0
256,192,23939,1,8,0:0:0
256,192,24104,1,8,0:0:0
256,192,24187,1,8,0:0:0
256,192,24269,1,0,0:0:0
256,192,24351,1,0,0:0:0
256,192,24434,1,8,0:0:0
256,192,24599,1,0,0:0:0
256,192,24681,1,8,0:0:0
256,192,24846,1,0,0:0:0
256,192,24929,1,8,0:0:0
256,192,25011,1,8,0:0:0
256,192,25093,1,0,0:0:0
256,192,25258,1,0,0:0:0
256,192,25341,1,8,0:0:0
256,192,25423,1,0,0:0:0
256,192,25588,1,0,0:0:0
256,192,25753,1,8,0:0:0
256,192,25836,1,8,0:0:0
256,192,25918,1,0,0:0:0
256,192,26000,1,8,0:0:0
256,192,26165,1,0,0:0:0
256,192,26248,1,8,0:0:0
256,192,26330,1,8,0:0:0
256,192,26413,1,0,0:0:0
256,192,26578,1,8,0:0:0
256,192,26660,1,0,0:0:0
256,192,26825,1,8,0:0:0
256,192,26907,1,0,0:0:0
256,192,27072,1,0,0:0:0
256,192,27155,1,8,0:0:0
256,192,27237,1,8,0:0:0
256,192,27320,1,0,0:0:0
256,192,27402,1,0,0:0:0
256,192,27485,1,8,0:0:0
256,192,27567,1,8,0:0:0
256,192,27622,1,8,0:0:0
256,192,27677,1,8,0:0:0
256,192,27732,1,0,0:0:0
256,192,27897,1,8,0:0:0
256,192,27979,1,8,0:0:0
256,192,28062,1,0,0:0:0
256,192,28227,1,0,0:0:0
256,192,28391,1,8,0:0:0
256,192,28474,1,8,0:0:0
256,192,28639,1,0,0:0:0
256,192,28721,1,8,0:0:0
256,192,28886,1,0,0:0:0
256,192,28969,1,8,0:0:0
256,192,29051,1,0,0:0:0
256,192,29216,1,8,0:0:0
256,192,29298,1,8,0:0:0
256,192,29381,1,0,0:0:0
256,192,29546,1,0,0:0:0
256,192,29711,1,0,0:0:0
256,192,29793,1,8,0:0:0
256,192,29958,1,0,0:0:0
256,192,30040,1,8,0:0:0
256,192,30123,1,0,0:0:0
256,192,30205,1,8,0:0:0
256,192,30370,1,0,0:0:0
256,192,30453,1,8,0:0:0
256,192,30535,1,0,0:0:0
256,192,30618,1,8,0:0:0
256,192,30700,1,8,0:0:0
256,192,30782,1,8,0:0:0
256,192,30865,1,0,0:0:0
256,192,30947,1,0,0:0:0
256,192,31030,1,8,0:0:0
256,192,31112,1,0,0:0:0
256,192,31195,1,8,0:0:0
256,192,31277,1,8,0:0:0
256,192,31360,1,0,0:0:0
256,192,31442,1,8,0:0:0
256,192,31525,1,8,0:0:0
256,192,31607,1,0,0:0:0
256,192,31689,1,0,0:0:0
256,192,31772,1,8,0:0:0
256,192,31854,1,0,0:0:0
256,192,31937,1,0,0:0:0
256,192,32019,1,8,0:0:0
256,192,32102,1,0,0:0:0
256,192,32184,1,0,0:0:0
256,192,32267,1,0,0:0:0
256,192,32349,1,8,0:0:0
256,192,32431,1,0,0:0:0
256,192,32514,1,0,0:0:0
256,192,32596,1,8,0:0:0
256,192,32679,1,0,0:0:0
256,192,32761,1,0,0:0:0
256,192,32844,1,8,0:0:0
256,192,32899,1,8,0:0:0
256,192,32954,1,8,0:0:0
256,192,33009,1,0,0:0:0
256,192,33174,1,8,0:0:0
256,192,33256,1,0,0:0:0
256,192,33338,1,8,0:0:0
256,192,33421,1,0,0:0:0
256,192,33503,1,8,0:0:0
256,192,33586,1,8,0:0:0
256,192,33668,1,0,0:0:0
256,192,33751,1,0,0:0:0
256,192,33833,1,8,0:0:0
256,192,33916,1,8,0:0:0
256,192,33998,1,8,0:0:0
256,192,34080,1,0,0:0:0
256,192,34163,1,0,0:0:0
256,192,34245,1,8,0:0:0
256,192,34328,1,0,0:0:0
256,192,34410,1,0,0:0:0
256,192,34493,1,8,0:0:0
256,192,34575,1,0,0:0:0
256,192,34658,1,8,0:0:0
256,192,34740,1,0,0:0:0
256,192,34822,1,8,0:0:0
256,192,34905,1,8,0:0:0
256,192,34987,1,0,0:0:0
256,192,35070,1,0,0:0:0
256,192,35152,1,0,0:0:0
256,192,35235,1,8,0:0:0
256,192,35317,1,0,0:0:0
256,192,35400,1,8,0:0:0
256,192,35482,1,0,0:0:0
256,192,35565,1,8,0:0:0
256,192,35647,1,0,0:0:0
256,192,35812,1,8,0:0:0
256,192,35894,1,8,0:0:0
256,192,35977,1,8,0:0:0
256,192,36059,1,0,0:0:0
256,192,36142,1,8,0:0:0
256,192,36224,1,8,0:0:0
256,192,36307,1,0,0:0:0
256,192,36389,1,0,0:0:0
256,192,36471,1,8,0:0:0
256,192,36554,1,0,0:0:0
256,192,36636,1,8,0:0:0
256,192,36719,1,8,0:0:0
256,192,36801,1,0,0:0:0
256,192,36884,1,8,0:0:0
256,192,36966,1,0,0:0:0
256,192,37049,1,0,0:0:0
256,192,37131,1,8,0:0:0
256,192,37214,1,8,0:0:0
256,192,37296,1,8,0:0:0
256,192,37378,1,0,0:0:0
256,192,37461,1,8,0:0:0
256,192,37543,1,0,0:0:0
256,192,37626,1,0,0:0:0
256,192,37708,1,0,0:0:0
256,192,37791,1,8,0:0:0
256,192,37873,1,0,0:0:0
256,192,37956,1,0,0:0:0
256,192,38011,1,8,0:0:0
256,192,38065,1,8,0:0:0
256,192,38120,1,0,0:0:0
256,192,38175,1,0,0:0:0
256,192,38230,1,8,0:0:0
256,192,38285,1,0,0:0:0
256,192,38450,1,0,0:0:0
256,192,38533,1,0,0:0:0
256,192,38615,1,8,0:0:0
256,192,38698,1,0,0:0:0
256,192,38780,1,8,0:0:0
256,192,38863,1,0,0:0:0
256,192,38945,1,0,0:0:0
256,192,39027,1,8,0:0:0
256,192,39110,1,8,0:0:0
256,192,39192,1,0,0:0:0
256,192,39275,1,0,0:0:0
256,192,39357,1,0,0:0:0
256,192,39440,1,8,0:0:0
256,192,39522,1,8,0:0:0
256,192,39605,1,0,0:0:0
256,192,39687,1,0,0:0:0
256,192,39769,1,8,0:0:0
256,192,39852,1,0,0:0:0
256,192,39934,1,8,0:0:0
256,192,40017,1,0,0:0:0
256,192,40099,1,0,0:0:0
256,192,40182,1,0,0:0:0
256,192,40264,1,8,0:0:0
256,192,40347,1,0,0:0:0
256,192,40429,1,8,0:0:0
256,192,40511,1,0,0:0:0
256,192,40594,1,0,0:0:0
256,192,40676,1,8,0:0:0
256,192,40759,1,0,0:0:0
256,192,40841,1,8,0:0:0
256,192,40924,1,0,0:0:0
256,192,41089,1,8,0:0:0
256,192,41171,1,8,0:0:0
256,192,41254,1,8,0:0:0
256,192,41336,1,0,0:0:0
256,192,41418,1,8,0:0:0
256,192,41501,1,8,0:0:0
256,192,41583,1,0,0:0:0
256,192,41666,1,0,0:0:0
256,192,41748,1,8,0:0:0
256,192,41831,1,0,0:0:0
256,192,41913,1,8,0:0:0
256,192,41996,1,0,0:0:0
256,192,42078,1,0,0:0:0
256,192,42243,1,6,0:0:0
256,192,42490,1,6,0:0:0
256,192,42738,1,4,0:0:0
256,192,42903,1,0,0:0:0
256,192,42957,1,0,0:0:0
256,192,43012,1,0,0:0:0
256,192,43067,1,8,0:0:0
256,192,43122,1,0,0:0:0
256,192,43177,1,8,0:0:0
256,192,43232,1,8,0:0:0
256,192,43287,1,0,0:0:0
256,192,43342,1,8,0:0:0
256,192,43397,1,0,0:0:0
256,192,43562,1,8,0:0:0
256,192,43645,1,0,0:0:0
256,192,43727,1,0,0:0:0
256,192,43809,1,8,0:0:0
256,192,43892,1,0,0:0:0
256,192,43974,1,0,0:0:0
256,192,44057,1,8,0:0:0
256,192,44139,1,0,0:0:0
256,192,44222,1,0,0:0:0
256,192,44304,1,0,0:0:0
256,192,44387,1,8,0:0:0
256,192,44469,1,0,0:0:0
256,192,44552,1,0,0:0:0
256,192,44634,1,8,0:0:0
256,192,44716,1,0,0:0:0
256,192,44799,1,0,0:0:0
256,192,44881,1,8,0:0:0
256,192,44964,1,0,0:0:0
256,192,45046,1,0,0:0:0
256,192,45129,1,8,0:0:0
256,192,45211,1,0,0:0:0
256,192,45294,1,0,0:0:0
256,192,45376,1,8,0:0:0
256,192,45458,1,0,0:0:0
256,192,45541,1,0,0:0:0
256,192,45623,1,0,0:0:0
256,192,45706,1,8,0:0:0
256,192,45788,1,0,0:0:0
256,192,45871,1,8,0:0:0
256,192,45953,1,0,0:0:0
256,192,46034,1,8,0:0:0
256,192,46118,1,8,0:0:0
256,192,46200,1,0,0:0:0
256,192,46283,1,0,0:0:0
256,192,46365,1,8,0:0:0
256,192,46448,1,8,0:0:0
256,192,46530,1,0,0:0:0
256,192,46613,1,0,0:0:0
256,192,46695,1,8,0:0:0
256,192,46776,1,0,0:0:0
256,192,46860,1,8,0:0:0
256,192,46943,1,8,0:0:0
256,192,47025,1,0,0:0:0
256,192,47107,1,0,0:0:0
256,192,47190,1,8,0:0:0
256,192,47272,1,8,0:0:0
256,192,47355,1,0,0:0:0
256,192,47437,1,0,0:0:0
256,192,47520,1,8,0:0:0
256,192,47602,1,0,0:0:0
256,192,47685,1,0,0:0:0
256,192,47767,1,8,0:0:0
256,192,47849,1,0,0:0:0
256,192,47932,1,0,0:0:0
256,192,48014,1,8,0:0:0
256,192,48097,1,0,0:0:0
256,192,48179,1,8,0:0:0
256,192,48262,1,8,0:0:0
256,192,48344,1,8,0:0:0
256,192,48427,1,8,0:0:0
256,192,48509,1,0,0:0:0
256,192,48592,1,0,0:0:0
256,192,48674,1,8,0:0:0
256,192,48756,1,8,0:0:0
256,192,48839,1,0,0:0:0
256,192,49004,1,8,0:0:0
256,192,49086,1,0,0:0:0
256,192,49169,1,8,0:0:0
256,192,49251,1,0,0:0:0
256,192,49334,1,8,0:0:0
256,192,49416,1,8,0:0:0
256,192,49498,1,0,0:0:0
256,192,49663,1,0,0:0:0
256,192,49746,1,0,0:0:0
256,192,49828,1,8,0:0:0
256,192,49911,1,0,0:0:0
256,192,49993,1,8,0:0:0
256,192,50076,1,8,0:0:0
256,192,50158,1,0,0:0:0
256,192,50323,1,8,0:0:0
256,192,50405,1,8,0:0:0
256,192,50488,1,8,0:0:0
256,192,50570,1,0,0:0:0
256,192,50653,1,0,0:0:0
256,192,50735,1,8,0:0:0
256,192,50818,1,0,0:0:0
256,192,50983,1,0,0:0:0
256,192,51065,1,8,0:0:0
256,192,51147,1,0,0:0:0
256,192,51230,1,8,0:0:0
256,192,51312,1,8,0:0:0
256,192,51395,1,8,0:0:0
256,192,51477,1,0,0:0:0
256,192,51642,1,8,0:0:0
256,192,51725,1,8,0:0:0
256,192,51807,1,8,0:0:0
256,192,51889,1,0,0:0:0
256,192,51972,1,8,0:0:0
256,192,52054,1,8,0:0:0
256,192,52137,1,0,0:0:0
256,192,52219,1,8,0:0:0
256,192,52302,1,8,0:0:0
256,192,52384,1,0,0:0:0
256,192,52467,1,8,0:0:0
256,192,52549,1,0,0:0:0
256,192,52632,1,8,0:0:0
256,192,52796,1,6,0:0:0
256,192,53044,1,6,0:0:0
256,192,53291,1,4,0:0:0
256,192,53456,1,4,0:0:0
256,192,53786,1,6,0:0:0
256,192,54116,1,4,0:0:0
256,192,54281,1,8,0:0:0
256,192,54445,1,4,0:0:0
256,192,54610,1,8,0:0:0
256,192,54775,1,0,0:0:0
256,192,54940,1,0,0:0:0
256,192,55023,1,0,0:0:0
256,192,55105,1,8,0:0:0
256,192,55187,1,0,0:0:0
256,192,55270,1,8,0:0:0
256,192,55435,1,4,0:0:0
256,192,55600,1,8,0:0:0
256,192,55765,1,4,0:0:0
256,192,55930,1,8,0:0:0
256,192,56012,1,8,0:0:0
256,192,56094,1,8,0:0:0
256,192,56259,1,0,0:0:0
256,192,56424,1,8,0:0:0
256,192,56507,1,8,0:0:0
256,192,56589,1,8,0:0:0
256,192,56754,1,4,0:0:0
256,192,56919,1,8,0:0:0
256,192,57084,1,4,0:0:0
256,192,57249,1,0,0:0:0
256,192,57414,1,0,0:0:0
256,192,57496,1,8,0:0:0
256,192,57578,1,0,0:0:0
256,192,57743,1,0,0:0:0
256,192,57826,1,0,0:0:0
256,192,57908,1,8,0:0:0
256,192,58073,1,4,0:0:0
256,192,58238,1,8,0:0:0
256,192,58403,1,4,0:0:0
256,192,58568,1,8,0:0:0
256,192,58733,1,8,0:0:0
256,192,58815,1,8,0:0:0
256,192,58898,1,0,0:0:0
256,192,59063,1,0,0:0:0
256,192,59145,1,0,0:0:0
256,192,59227,1,8,0:0:0
256,192,59392,1,4,0:0:0
256,192,59557,1,8,0:0:0
256,192,59722,1,4,0:0:0
256,192,59887,1,8,0:0:0
256,192,60052,1,8,0:0:0
256,192,60134,1,8,0:0:0
256,192,60217,1,8,0:0:0
256,192,60382,1,0,0:0:0
256,192,60547,1,0,0:0:0
256,192,60712,1,4,0:0:0
256,192,60876,1,8,0:0:0
256,192,61041,1,4,0:0:0
256,192,61206,1,8,0:0:0
256,192,61371,1,8,0:0:0
256,192,61454,1,0,0:0:0
256,192,61536,1,0,0:0:0
256,192,61619,1,8,0:0:0
256,192,61701,1,8,0:0:0
256,192,61783,1,0,0:0:0
256,192,61866,1,8,0:0:0
256,192,62031,1,4,0:0:0
256,192,62196,1,8,0:0:0
256,192,62361,1,4,0:0:0
256,192,62525,1,0,0:0:0
256,192,62608,1,0,0:0:0
256,192,62690,1,8,0:0:0
256,192,62855,1,8,0:0:0
256,192,62938,1,0,0:0:0
256,192,63020,1,8,0:0:0
256,192,63103,1,8,0:0:0
256,192,63185,1,0,0:0:0
256,192,63350,1,4,0:0:0
256,192,63515,1,6,0:0:0
256,192,63680,1,4,0:0:0
256,192,63845,1,6,0:0:0
256,192,64010,1,0,0:0:0
256,192,64092,1,8,0:0:0
256,192,64174,1,0,0:0:0
256,192,64339,1,0,0:0:0
256,192,64422,1,0,0:0:0
256,192,64504,1,8,0:0:0
256,192,64669,1,0,0:0:0
256,192,64834,1,0,0:0:0
256,192,64916,1,0,0:0:0
256,192,64999,1,8,0:0:0
256,192,65164,1,0,0:0:0
256,192,65246,1,8,0:0:0
256,192,65329,1,0,0:0:0
256,192,65494,1,0,0:0:0
256,192,65576,1,0,0:0:0
256,192,65659,1,8,0:0:0
256,192,65741,1,0,0:0:0
256,192,65823,1,0,0:0:0
256,192,65906,1,0,0:0:0
256,192,65988,1,8,0:0:0
256,192,66153,1,0,0:0:0
256,192,66236,1,0,0:0:0
256,192,66318,1,0,0:0:0
256,192,66483,1,8,0:0:0
256,192,66648,1,0,0:0:0
256,192,66730,1,0,0:0:0
256,192,66813,1,8,0:0:0
256,192,66978,1,0,0:0:0
256,192,67060,1,0,0:0:0
256,192,67143,1,8,0:0:0
256,192,67308,1,0,0:0:0
256,192,67472,1,0,0:0:0
256,192,67555,1,0,0:0:0
256,192,67637,1,8,0:0:0
256,192,67802,1,0,0:0:0
256,192,67885,1,8,0:0:0
256,192,67967,1,0,0:0:0
256,192,68132,1,8,0:0:0
256,192,68214,1,8,0:0:0
256,192,68297,1,8,0:0:0
256,192,68379,1,0,0:0:0
256,192,68462,1,0,0:0:0
256,192,68544,1,8,0:0:0
256,192,68627,1,8,0:0:0
256,192,68792,1,0,0:0:0
256,192,68956,1,0,0:0:0
256,192,69121,1,0,0:0:0
256,192,69204,1,8,0:0:0
256,192,69369,1,0,0:0:0
256,192,69451,1,8,0:0:0
256,192,69534,1,8,0:0:0
256,192,69616,1,0,0:0:0
256,192,69781,1,8,0:0:0
256,192,69946,1,0,0:0:0
256,192,70111,1,8,0:0:0
256,192,70193,1,0,0:0:0
256,192,70276,1,8,0:0:0
256,192,70441,1,0,0:0:0
256,192,70523,1,0,0:0:0
256,192,70605,1,8,0:0:0
256,192,70688,1,0,0:0:0
256,192,70853,1,8,0:0:0
256,192,70935,1,0,0:0:0
256,192,71100,1,8,0:0:0
256,192,71183,1,8,0:0:0
256,192,71265,1,0,0:0:0
256,192,71430,1,8,0:0:0
256,192,71512,1,8,0:0:0
256,192,71595,1,8,0:0:0
256,192,71677,1,8,0:0:0
256,192,71760,1,0,0:0:0
256,192,71925,1,0,0:0:0
256,192,72007,1,8,0:0:0
256,192,72090,1,8,0:0:0
256,192,72254,1,8,0:0:0
256,192,72419,1,0,0:0:0
256,192,72584,1,0,0:0:0
256,192,72749,1,8,0:0:0
256,192,72914,1,8,0:0:0
256,192,72997,1,0,0:0:0
256,192,73161,1,0,0:0:0
256,192,73244,1,8,0:0:0
256,192,73409,1,0,0:0:0
256,192,73491,1,0,0:0:0
256,192,73574,1,8,0:0:0
256,192,73739,1,8,0:0:0
256,192,73903,1,0,0:0:0
256,192,74068,1,8,0:0:0
256,192,74151,1,8,0:0:0
256,192,74233,1,8,0:0:0
256,192,74316,1,0,0:0:0
256,192,74398,1,8,0:0:0
256,192,74563,1,8,0:0:0
256,192,74645,1,8,0:0:0
256,192,74728,1,0,0:0:0
256,192,74893,1,8,0:0:0
256,192,74975,1,0,0:0:0
256,192,75058,1,8,0:0:0
256,192,75223,1,4,0:0:0
256,192,75388,1,0,0:0:0
256,192,75470,1,8,0:0:0
256,192,75552,1,8,0:0:0
256,192,75717,1,0,0:0:0
256,192,75800,1,0,0:0:0
256,192,75965,1,0,0:0:0
256,192,76047,1,8,0:0:0
256,192,76212,1,8,0:0:0
256,192,76294,1,0,0:0:0
256,192,76377,1,0,0:0:0
256,192,76459,1,8,0:0:0
256,192,76542,1,0,0:0:0
256,192,76707,1,8,0:0:0
256,192,76789,1,8,0:0:0
256,192,76872,1,8,0:0:0
256,192,77037,1,0,0:0:0
256,192,77119,1,0,0:0:0
256,192,77201,1,8,0:0:0
256,192,77284,1,0,0:0:0
256,192,77449,1,8,0:0:0
256,192,77531,1,8,0:0:0
256,192,77614,1,0,0:0:0
256,192,77696,1,0,0:0:0
256,192,77779,1,8,0:0:0
256,192,77861,1,0,0:0:0
256,192,78026,1,8,0:0:0
256,192,78108,1,0,0:0:0
256,192,78191,1,8,0:0:0
256,192,78273,1,8,0:0:0
256,192,78438,1,0,0:0:0
256,192,78521,1,8,0:0:0
256,192,78686,1,0,0:0:0
256,192,78768,1,8,0:0:0
256,192,78850,1,0,0:0:0
256,192,78933,1,8,0:0:0
256,192,79015,1,8,0:0:0
256,192,79180,1,8,0:0:0
256,192,79345,1,8,0:0:0
256,192,79428,1,8,0:0:0
256,192,79510,1,0,0:0:0
256,192,79675,1,8,0:0:0
256,192,79757,1,0,0:0:0
256,192,79922,1,8,0:0:0
256,192,80005,1,0,0:0:0
256,192,80170,1,0,0:0:0
256,192,80225,1,0,0:0:0
256,192,80280,1,0,0:0:0
256,192,80335,1,8,0:0:0
256,192,80499,1,4,0:0:0
256,192,80664,1,8,0:0:0
256,192,80747,1,8,0:0:0
256,192,80829,1,0,0:0:0
256,192,80994,1,8,0:0:0
256,192,81077,1,8,0:0:0
256,192,81159,1,0,0:0:0
256,192,81241,1,8,0:0:0
256,192,81406,1,0,0:0:0
256,192,81489,1,8,0:0:0
256,192,81654,1,8,0:0:0
256,192,81736,1,8,0:0:0
256,192,81819,1,0,0:0:0
256,192,81983,1,8,0:0:0
256,192,82066,1,8,0:0:0
256,192,82148,1,0,0:0:0
256,192,82313,1,0,0:0:0
256,192,82396,1,8,0:0:0
256,192,82478,1,0,0:0:0
256,192,82561,1,8,0:0:0
256,192,82643,1,8,0:0:0
256,192,82808,1,0,0:0:0
256,192,82890,1,0,0:0:0
256,192,82973,1,8,0:0:0
256,192,83138,1,0,0:0:0
256,192,83220,1,0,0:0:0
256,192,83303,1,8,0:0:0
256,192,83385,1,0,0:0:0
256,192,83468,1,8,0:0:0
256,192,83550,1,8,0:0:0
256,192,83632,1,0,0:0:0
256,192,83715,1,0,0:0:0
256,192,83797,1,8,0:0:0
256,192,83880,1,8,0:0:0
256,192,83962,1,0,0:0:0
256,192,84045,1,8,0:0:0
256,192,84127,1,8,0:0:0
256,192,84210,1,0,0:0:0
256,192,84292,1,8,0:0:0
256,192,84375,1,8,0:0:0
256,192,84457,1,0,0:0:0
256,192,84539,1,8,0:0:0
256,192,84622,1,0,0:0:0
256,192,84704,1,0,0:0:0
256,192,84787,1,8,0:0:0
256,192,84869,1,0,0:0:0
256,192,84952,1,0,0:0:0
256,192,85034,1,8,0:0:0
256,192,85117,1,8,0:0:0
256,192,85281,1,0,0:0:0
256,192,85336,1,0,0:0:0
256,192,85391,1,0,0:0:0
256,192,85446,1,8,0:0:0
256,192,85501,1,8,0:0:0
256,192,85556,1,8,0:0:0
256,192,85611,1,8,0:0:0
256,192,85776,1,4,0:0:0
256,192,85941,1,8,0:0:0
256,192,86024,1,8,0:0:0
256,192,86106,1,0,0:0:0
256,192,86271,1,8,0:0:0
256,192,86436,1,0,0:0:0
256,192,86518,1,8,0:0:0
256,192,86601,1,0,0:0:0
256,192,86766,1,8,0:0:0
256,192,86930,1,8,0:0:0
256,192,87013,1,8,0:0:0
256,192,87095,1,8,0:0:0
256,192,87260,1,0,0:0:0
256,192,87425,1,0,0:0:0
256,192,87508,1,0,0:0:0
256,192,87590,1,8,0:0:0
256,192,87672,1,8,0:0:0
256,192,87755,1,0,0:0:0
256,192,87920,1,0,0:0:0
256,192,88002,1,0,0:0:0
256,192,88085,1,8,0:0:0
256,192,88167,1,0,0:0:0
256,192,88250,1,8,0:0:0
256,192,88332,1,8,0:0:0
256,192,88415,1,0,0:0:0
256,192,88579,1,8,0:0:0
256,192,88662,1,8,0:0:0
256,192,88744,1,0,0:0:0
256,192,88909,1,8,0:0:0
256,192,89074,1,8,0:0:0
256,192,89157,1,0,0:0:0
256,192,89239,1,8,0:0:0
256,192,89404,1,8,0:0:0
256,192,89486,1,8,0:0:0
256,192,89569,1,0,0:0:0
256,192,89651,1,0,0:0:0
256,192,89734,1,8,0:0:0
256,192,89899,1,8,0:0:0
256,192,89981,1,8,0:0:0
256,192,90064,1,0,0:0:0
256,192,90146,1,0,0:0:0
256,192,90228,1,8,0:0:0
256,192,90311,1,0,0:0:0
256,192,90393,1,8,0:0:0
256,192,90558,1,8,0:0:0
256,192,90723,1,0,0:0:0
256,192,90778,1,0,0:0:0
256,192,90833,1,0,0:0:0
256,192,90888,1,8,0:0:0
256,192,90943,1,0,0:0:0
256,192,90998,1,8,0:0:0
256,192,91053,1,0,0:0:0
256,192,91218,1,0,0:0:0
256,192,91300,1,0,0:0:0
256,192,91383,1,0,0:0:0
256,192,91548,1,0,0:0:0
256,192,91713,1,8,0:0:0
256,192,91767,1,8,0:0:0
256,192,91822,1,8,0:0:0
256,192,91877,1,0,0:0:0
256,192,92042,1,0,0:0:0
256,192,92097,1,8,0:0:0
256,192,92152,1,8,0:0:0
256,192,92207,1,0,0:0:0
256,192,92372,1,0,0:0:0
256,192,92537,1,0,0:0:0
256,192,92619,1,8,0:0:0
256,192,92702,1,8,0:0:0
256,192,92784,1,0,0:0:0
256,192,92867,1,8,0:0:0
256,192,93032,1,8,0:0:0
256,192,93197,1,0,0:0:0
256,192,93279,1,0,0:0:0
256,192,93361,1,8,0:0:0
256,192,93526,1,8,0:0:0
256,192,93691,1,0,0:0:0
256,192,93774,1,0,0:0:0
256,192,93856,1,8,0:0:0
256,192,93939,1,0,0:0:0
256,192,94021,1,8,0:0:0
256,192,94186,1,0,0:0:0
256,192,94351,1,0,0:0:0
256,192,94433,1,8,0:0:0
256,192,94516,1,0,0:0:0
256,192,94681,1,8,0:0:0
256,192,94846,1,0,0:0:0
256,192,95010,1,6,0:0:0
256,192,95258,1,6,0:0:0
256,192,95505,1,4,0:0:0
256,192,95670,1,4,0:0:0
256,192,96330,1,0,0:0:0
256,192,96495,1,0,0:0:0
256,192,96659,1,8,0:0:0
256,192,96824,1,0,0:0:0
256,192,96989,1,0,0:0:0
256,192,97154,1,0,0:0:0
256,192,97319,1,8,0:0:0
256,192,97484,1,0,0:0:0
256,192,97649,1,8,0:0:0
256,192,97814,1,0,0:0:0
256,192,97979,1,8,0:0:0
256,192,98144,1,8,0:0:0
256,192,98308,1,0,0:0:0
256,192,98473,1,8,0:0:0
256,192,98638,1,8,0:0:0
256,192,98803,1,8,0:0:0
256,192,98968,1,0,0:0:0
256,192,99133,1,0,0:0:0
256,192,99298,1,8,0:0:0
256,192,99463,1,0,0:0:0
256,192,99628,1,0,0:0:0
256,192,99793,1,8,0:0:0
256,192,99957,1,8,0:0:0
256,192,100122,1,0,0:0:0
256,192,100287,1,8,0:0:0
256,192,100452,1,0,0:0:0
256,192,100617,1,8,0:0:0
256,192,100782,1,8,0:0:0
256,192,100947,1,0,0:0:0
256,192,101112,1,8,0:0:0
256,192,101277,1,0,0:0:0
256,192,101442,1,8,0:0:0
256,192,101606,1,0,0:0:0
256,192,101771,1,8,0:0:0
256,192,101936,1,8,0:0:0
256,192,102101,1,0,0:0:0
256,192,102266,1,8,0:0:0
256,192,102431,1,8,0:0:0
256,192,102596,1,8,0:0:0
256,192,102761,1,0,0:0:0
256,192,102926,1,0,0:0:0
256,192,103091,1,8,0:0:0
256,192,103255,1,8,0:0:0
256,192,103420,1,0,0:0:0
256,192,103585,1,8,0:0:0
256,192,103750,1,0,0:0:0
256,192,103915,1,8,0:0:0
256,192,104080,1,0,0:0:0
256,192,104245,1,0,0:0:0
256,192,104410,1,0,0:0:0
256,192,104575,1,8,0:0:0
256,192,104739,1,0,0:0:0
256,192,104904,1,8,0:0:0
256,192,105069,1,0,0:0:0
256,192,105234,1,8,0:0:0
256,192,105399,1,8,0:0:0
256,192,105564,1,0,0:0:0
256,192,105729,1,8,0:0:0
256,192,105894,1,8,0:0:0
256,192,106059,1,0,0:0:0
256,192,106224,1,8,0:0:0
256,192,106388,1,0,0:0:0
256,192,106553,1,0,0:0:0
256,192,106608,1,0,0:0:0
256,192,106663,1,0,0:0:0
256,192,106718,1,8,0:0:0
256,192,106773,1,8,0:0:0
256,192,106828,1,8,0:0:0
256,192,106883,1,0,0:0:0
256,192,107048,1,0,0:0:0
256,192,107131,1,0,0:0:0
256,192,107213,1,8,0:0:0
256,192,107378,1,0,0:0:0
256,192,107543,1,0,0:0:0
256,192,107708,1,0,0:0:0
256,192,107873,1,8,0:0:0
256,192,108037,1,0,0:0:0
256,192,108202,1,8,0:0:0
256,192,108367,1,0,0:0:0
256,192,108532,1,8,0:0:0
256,192,108697,1,8,0:0:0
256,192,108862,1,0,0:0:0
256,192,109027,1,8,0:0:0
256,192,109192,1,8,0:0:0
256,192,109274,1,8,0:0:0
256,192,109357,1,8,0:0:0
256,192,109522,1,0,0:0:0
256,192,109686,1,0,0:0:0
256,192,109769,1,0,0:0:0
256,192,109851,1,8,0:0:0
256,192,110016,1,0,0:0:0
256,192,110181,1,0,0:0:0
256,192,110346,1,8,0:0:0
256,192,110428,1,0,0:0:0
256,192,110511,1,8,0:0:0
256,192,110676,1,8,0:0:0
256,192,110841,1,8,0:0:0
256,192,111006,1,0,0:0:0
256,192,111171,1,8,0:0:0
256,192,111335,1,8,0:0:0
256,192,111500,1,0,0:0:0
256,192,111583,1,0,0:0:0
256,192,111665,1,8,0:0:0
256,192,111830,1,0,0:0:0
256,192,111913,1,0,0:0:0
256,192,111995,1,8,0:0:0
256,192,112077,1,8,0:0:0
256,192,112160,1,0,0:0:0
256,192,112325,1,8,0:0:0
256,192,112407,1,8,0:0:0
256,192,112490,1,8,0:0:0
256,192,112655,1,0,0:0:0
256,192,112820,1,8,0:0:0
256,192,112902,1,8,0:0:0
256,192,112984,1,0,0:0:0
256,192,113149,1,8,0:0:0
256,192,113314,1,0,0:0:0
256,192,113479,1,0,0:0:0
256,192,113562,1,0,0:0:0
256,192,113644,1,0,0:0:0
256,192,113809,1,8,0:0:0
256,192,113974,1,0,0:0:0
256,192,114139,1,8,0:0:0
256,192,114304,1,0,0:0:0
256,192,114469,1,8,0:0:0
256,192,114551,1,8,0:0:0
256,192,114633,1,0,0:0:0
256,192,114716,1,8,0:0:0
256,192,114798,1,0,0:0:0
256,192,114963,1,0,0:0:0
256,192,115128,1,8,0:0:0
256,192,115293,1,0,0:0:0
256,192,115375,1,0,0:0:0
256,192,115458,1,8,0:0:0
256,192,115623,1,0,0:0:0
256,192,115788,1,8,0:0:0
256,192,115953,1,8,0:0:0
256,192,116117,1,0,0:0:0
256,192,116282,1,8,0:0:0
256,192,116365,1,0,0:0:0
256,192,116447,1,8,0:0:0
256,192,116530,1,0,0:0:0
256,192,116612,1,8,0:0:0
256,192,116695,1,8,0:0:0
256,192,116777,1,0,0:0:0
256,192,116942,1,8,0:0:0
256,192,117024,1,0,0:0:0
256,192,117107,1,8,0:0:0
256,192,117272,1,0,0:0:0
256,192,117437,1,4,0:0:0
256,192,117602,1,8,0:0:0
256,192,117684,1,0,0:0:0
256,192,117766,1,8,0:0:0
256,192,117849,1,8,0:0:0
256,192,117931,1,0,0:0:0
256,192,118014,1,8,0:0:0
256,192,118096,1,0,0:0:0
256,192,118261,1,0,0:0:0
256,192,118344,1,8,0:0:0
256,192,118426,1,8,0:0:0
256,192,118591,1,0,0:0:0
256,192,118673,1,8,0:0:0
256,192,118756,1,8,0:0:0
256,192,118838,1,0,0:0:0
256,192,118921,1,8,0:0:0
256,192,119003,1,0,0:0:0
256,192,119086,1,8,0:0:0
256,192,119168,1,8,0:0:0
256,192,119251,1,0,0:0:0
256,192,119415,1,8,0:0:0
256,192,119580,1,0,0:0:0
256,192,119663,1,0,0:0:0
256,192,119745,1,8,0:0:0
256,192,119910,1,0,0:0:0
256,192,120075,1,8,0:0:0
256,192,120240,1,8,0:0:0
256,192,120405,1,0,0:0:0
256,192,120487,1,0,0:0:0
256,192,120570,1,0,0:0:0
256,192,120652,1,0,0:0:0
256,192,120735,1,8,0:0:0
256,192,120982,1,8,0:0:0
256,192,121229,1,8,0:0:0
256,192,121394,1,0,0:0:0
256,192,121477,1,0,0:0:0
256,192,121559,1,8,0:0:0
256,192,121642,1,0,0:0:0
256,192,121724,1,8,0:0:0
256,192,121806,1,8,0:0:0
256,192,121889,1,0,0:0:0
256,192,122054,1,0,0:0:0
256,192,122219,1,0,0:0:0
256,192,122384,1,0,0:0:0
256,192,122439,1,0,0:0:0
256,192,122494,1,0,0:0:0
256,192,122549,1,8,0:0:0
256,192,122604,1,8,0:0:0
256,192,122658,1,8,0:0:0
256,192,122713,1,0,0:0:0
256,192,122878,1,0,0:0:0
256,192,122961,1,8,0:0:0
256,192,123043,1,8,0:0:0
256,192,123126,1,0,0:0:0
256,192,123208,1,8,0:0:0
256,192,123291,1,0,0:0:0
256,192,123373,1,8,0:0:0
256,192,123538,1,0,0:0:0
256,192,123703,1,0,0:0:0
256,192,123785,1,0,0:0:0
256,192,123868,1,8,0:0:0
256,192,124033,1,4,0:0:0
256,192,124198,1,8,0:0:0
256,192,124280,1,8,0:0:0
256,192,124362,1,8,0:0:0
256,192,124445,1,0,0:0:0
256,192,124527,1,8,0:0:0
256,192,124692,1,0,0:0:0
256,192,124857,1,0,0:0:0
256,192,124940,1,0,0:0:0
256,192,125022,1,0,0:0:0
256,192,125104,1,0,0:0:0
256,192,125187,1,8,0:0:0
256,192,125352,1,4,0:0:0
256,192,125517,1,8,0:0:0
256,192,125599,1,0,0:0:0
256,192,125682,1,8,0:0:0
256,192,125764,1,8,0:0:0
256,192,125847,1,0,0:0:0
256,192,126011,1,0,0:0:0
256,192,126094,1,0,0:0:0
256,192,126176,1,0,0:0:0
256,192,126259,1,0,0:0:0
256,192,126341,1,8,0:0:0
256,192,126424,1,8,0:0:0
256,192,126506,1,0,0:0:0
256,192,126671,1,8,0:0:0
256,192,126753,1,8,0:0:0
256,192,126836,1,0,0:0:0
256,192,126918,1,0,0:0:0
256,192,127001,1,8,0:0:0
256,192,127083,1,0,0:0:0
256,192,127166,1,8,0:0:0
256,192,127248,1,8,0:0:0
256,192,127331,1,0,0:0:0
256,192,127413,1,8,0:0:0
256,192,127495,1,8,0:0:0
256,192,127578,1,8,0:0:0
256,192,127660,1,0,0:0:0
256,192,127715,1,0,0:0:0
256,192,127770,1,0,0:0:0
256,192,127825,1,0,0:0:0
256,192,127990,1,8,0:0:0
256,192,128073,1,0,0:0:0
256,192,128155,1,0,0:0:0
256,192,128238,1,8,0:0:0
256,192,128320,1,0,0:0:0
256,192,128402,1,0,0:0:0
256,192,128485,1,8,0:0:0
256,192,128567,1,0,0:0:0
256,192,128650,1,0,0:0:0
256,192,128732,1,0,0:0:0
256,192,128815,1,8,0:0:0
256,192,128897,1,0,0:0:0
256,192,128980,1,0,0:0:0
256,192,129062,1,8,0:0:0
256,192,129144,1,0,0:0:0
256,192,129227,1,0,0:0:0
256,192,129309,1,8,0:0:0
256,192,129392,1,0,0:0:0
256,192,129474,1,0,0:0:0
256,192,129557,1,8,0:0:0
256,192,129639,1,0,0:0:0
256,192,129722,1,0,0:0:0
256,192,129804,1,8,0:0:0
256,192,129887,1,0,0:0:0
256,192,129969,1,0,0:0:0
256,192,130051,1,0,0:0:0
256,192,130134,1,8,0:0:0
256,192,130216,1,0,0:0:0
256,192,130299,1,8,0:0:0
256,192,130381,1,0,0:0:0
256,192,130464,1,8,0:0:0
256,192,130546,1,8,0:0:0
256,192,130629,1,0,0:0:0
256,192,130711,1,0,0:0:0
256,192,130793,1,8,0:0:0
256,192,130876,1,8,0:0:0
256,192,130958,1,0,0:0:0
256,192,131041,1,0,0:0:0
256,192,131123,1,8,0:0:0
256,192,131206,1,0,0:0:0
256,192,131288,1,8,0:0:0
256,192,131371,1,8,0:0:0
256,192,131453,1,0,0:0:0
256,192,131536,1,0,0:0:0
256,192,131618,1,8,0:0:0
256,192,131700,1,8,0:0:0
256,192,131783,1,0,0:0:0
256,192,131865,1,0,0:0:0
256,192,131948,1,8,0:0:0
256,192,132030,1,0,0:0:0
256,192,132113,1,0,0:0:0
256,192,132195,1,8,0:0:0
256,192,132278,1,0,0:0:0
256,192,132360,1,0,0:0:0
256,192,132442,1,8,0:0:0
256,192,132525,1,0,0:0:0
256,192,132607,1,8,0:0:0
256,192,132690,1,8,0:0:0
256,192,132772,1,8,0:0:0
256,192,132855,1,8,0:0:0
256,192,132937,1,0,0:0:0
256,192,133020,1,0,0:0:0
256,192,133102,1,8,0:0:0
256,192,133184,1,8,0:0:0
256,192,133267,1,0,0:0:0
256,192,133432,1,8,0:0:0
256,192,133514,1,0,0:0:0
256,192,133597,1,8,0:0:0
256,192,133679,1,0,0:0:0
256,192,133762,1,8,0:0:0
256,192,133844,1,8,0:0:0
256,192,133927,1,0,0:0:0
256,192,134091,1,0,0:0:0
256,192,134174,1,0,0:0:0
256,192,134256,1,8,0:0:0
256,192,134339,1,0,0:0:0
256,192,134421,1,8,0:0:0
256,192,134504,1,8,0:0:0
256,192,134586,1,0,0:0:0
256,192,134751,1,8,0:0:0
256,192,134833,1,8,0:0:0
256,192,134916,1,8,0:0:0
256,192,134998,1,0,0:0:0
256,192,135081,1,0,0:0:0
256,192,135163,1,8,0:0:0
256,192,135246,1,0,0:0:0
256,192,135411,1,0,0:0:0
256,192,135493,1,8,0:0:0
256,192,135576,1,0,0:0:0
256,192,135658,1,8,0:0:0
256,192,135740,1,8,0:0:0
256,192,135823,1,8,0:0:0
256,192,135905,1,0,0:0:0
256,192,136070,1,8,0:0:0
256,192,136153,1,8,0:0:0
256,192,136235,1,8,0:0:0
256,192,136318,1,0,0:0:0
256,192,136400,1,8,0:0:0
256,192,136482,1,8,0:0:0
256,192,136565,1,0,0:0:0
256,192,136647,1,8,0:0:0
256,192,136730,1,8,0:0:0
256,192,136812,1,0,0:0:0
256,192,136895,1,8,0:0:0
256,192,136977,1,0,0:0:0
256,192,137060,1,8,0:0:0
256,192,137225,1,6,0:0:0
256,192,137472,1,6,0:0:0
256,192,137719,1,4,0:0:0
256,192,137884,1,4,0:0:0
256,192,138049,1,0,0:0:0
256,192,138104,1,0,0:0:0
256,192,138159,1,0,0:0:0
256,192,138214,1,8,0:0:0
256,192,138269,1,8,0:0:0
256,192,138324,1,8,0:0:0
256,192,138379,1,8,0:0:0
256,192,138544,1,8,0:0:0
256,192,138628,1,0,0:0:0
256,192,138709,1,0,0:0:0
256,192,138793,1,8,0:0:0
256,192,138875,1,0,0:0:0
256,192,138956,1,0,0:0:0
256,192,139040,1,8,0:0:0
256,192,139123,1,0,0:0:0
256,192,139205,1,0,0:0:0
256,192,139286,1,0,0:0:0
256,192,139370,1,8,0:0:0
256,192,139451,1,0,0:0:0
256,192,139535,1,0,0:0:0
256,192,139616,1,8,0:0:0
256,192,139698,1,0,0:0:0
256,192,139782,1,0,0:0:0
256,192,139863,1,8,0:0:0
256,192,139947,1,0,0:0:0
256,192,140028,1,0,0:0:0
256,192,140112,1,8,0:0:0
256,192,140193,1,0,0:0:0
256,192,140277,1,0,0:0:0
256,192,140358,1,8,0:0:0
256,192,140440,1,0,0:0:0
256,192,140524,1,0,0:0:0
256,192,140605,1,0,0:0:0
256,192,140689,1,8,0:0:0
256,192,140770,1,0,0:0:0
256,192,140854,1,8,0:0:0
256,192,140935,1,0,0:0:0
256,192,141017,1,8,0:0:0
256,192,141100,1,8,0:0:0
256,192,141182,1,0,0:0:0
256,192,141265,1,0,0:0:0
256,192,141347,1,8,0:0:0
256,192,141431,1,8,0:0:0
256,192,141512,1,0,0:0:0
256,192,141596,1,0,0:0:0
256,192,141677,1,8,0:0:0
256,192,141759,1,0,0:0:0
256,192,141842,1,8,0:0:0
256,192,141926,1,8,0:0:0
256,192,142007,1,0,0:0:0
256,192,142089,1,0,0:0:0
256,192,142173,1,8,0:0:0
256,192,142254,1,8,0:0:0
256,192,142338,1,0,0:0:0
256,192,142419,1,0,0:0:0
256,192,142501,1,8,0:0:0
256,192,142585,1,0,0:0:0
256,192,142666,1,0,0:0:0
256,192,142750,1,8,0:0:0
256,192,142831,1,0,0:0:0
256,192,142915,1,0,0:0:0
256,192,142996,1,8,0:0:0
256,192,143078,1,0,0:0:0
256,192,143161,1,8,0:0:0
256,192,143243,1,8,0:0:0
256,192,143327,1,8,0:0:0
256,192,143408,1,8,0:0:0
256,192,143492,1,0,0:0:0
256,192,143573,1,0,0:0:0
256,192,143657,1,8,0:0:0
256,192,143738,1,8,0:0:0
256,192,143820,1,0,0:0:0
256,192,143985,1,0,0:0:0
256,192,144068,1,0,0:0:0
256,192,144150,1,8,0:0:0
256,192,144315,1,0,0:0:0
256,192,144480,1,0,0:0:0
256,192,144645,1,8,0:0:0
256,192,144727,1,8,0:0:0
256,192,144810,1,8,0:0:0
256,192,144975,1,0,0:0:0
256,192,145140,1,0,0:0:0
256,192,145305,1,8,0:0:0
256,192,145387,1,0,0:0:0
256,192,145469,1,8,0:0:0
256,192,145552,1,0,0:0:0
256,192,145634,1,0,0:0:0
256,192,145717,1,8,0:0:0
256,192,145799,1,0,0:0:0
256,192,145964,1,0,0:0:0
256,192,146047,1,0,0:0:0
256,192,146129,1,8,0:0:0
256,192,146211,1,8,0:0:0
256,192,146294,1,0,0:0:0
256,192,146376,1,8,0:0:0
256,192,146459,1,0,0:0:0
256,192,146624,1,8,0:0:0
256,192,146706,1,8,0:0:0
256,192,146789,1,8,0:0:0
256,192,146954,1,0,0:0:0
256,192,147118,1,0,0:0:0
256,192,147201,1,0,0:0:0
256,192,147283,1,8,0:0:0
256,192,147366,1,8,0:0:0
256,192,147448,1,0,0:0:0
256,192,147613,1,8,0:0:0
256,192,147778,1,6,0:0:0
256,192,148025,1,6,0:0:0
256,192,148273,1,2,0:0:0
256,192,148438,1,0,0:0:0
256,192,148520,1,0,0:0:0
256,192,148603,1,8,0:0:0
256,192,148767,1,8,0:0:0
256,192,148850,1,8,0:0:0
256,192,148932,1,8,0:0:0
256,192,149015,1,8,0:0:0
256,192,149097,1,0,0:0:0
