osu file format v11

[General]
AudioFilename: Renard - Cloudsmasher.mp3
AudioLeadIn: 1500
PreviewTime: 22702
Countdown: 0
SampleSet: Normal
StackLeniency: 0.7
Mode: 0
LetterboxInBreaks: 0

[Editor]
DistanceSpacing: 0.8
BeatDivisor: 4
GridSize: 8

[Metadata]
Title:Cloudsmasher
TitleUnicode:Cloudsmasher
Artist:The Quick Brown Fox
ArtistUnicode:The Quick Brown Fox
Creator:Aqo
Version:Extra
Source:Renard
Tags:
BeatmapID:207232
BeatmapSetID:72121

[Difficulty]
HPDrainRate:5
CircleSize:5
OverallDifficulty:9
ApproachRate:9
SliderMultiplier:1.1
SliderTickRate:2

[Events]
//Background and Video events
0,0,"BG.jpg"
//Break Periods
//Storyboard Layer 0 (Background)
//Storyboard Layer 1 (Fail)
//Storyboard Layer 2 (Pass)
//Storyboard Layer 3 (Foreground)
//Storyboard Sound Samples
//Background Colour Transformations
3,100,0,0,0

[TimingPoints]
28,164.898587368768,4,1,0,100,1,0
1348,164.898587368768,4,1,0,80,1,0
1348,-100,4,1,0,80,0,0
11901,-100,4,1,0,85,0,0
22455,-156.25,4,1,0,60,0,0
27731,-100,4,1,0,70,0,0
30370,-200,4,1,0,80,0,0
33008,-100,4,1,0,90,0,0
43562,-89.2857142857143,4,1,0,100,0,0
54115,-156.25,4,1,0,70,0,0
64669,-125,4,1,0,80,0,0
75222,-200,4,1,0,60,0,0
80499,-125,4,1,0,70,0,0
85776,-100,4,1,0,80,0,0
96329,-156.25,4,1,0,50,0,0
98967,-125,4,1,0,65,0,0
101606,-100,4,1,0,80,0,0
106883,-100,4,1,0,80,0,0
117436,-100,4,1,0,90,0,0
127990,-89.2857142857143,4,1,0,100,0,0
138543,-83.3333333333333,4,1,0,100,0,0
147777,-89.2857142857143,4,1,0,90,0,0
148437,-74.0740740740741,4,1,0,90,0,0
149097,-100,4,1,0,80,0,0

[Colours]
Combo1 : 204,213,221
Combo2 : 245,45,10
Combo3 : 237,193,61
Combo4 : 224,224,220
Combo5 : 219,112,100
Combo6 : 250,210,154

[HitObjects]
176,109,28,2,0,P|122:93|61:105,2,110
144,208,522,5,0,0:0:0
200,304,687,5,0,0:0:0
216,336,770,1,0,0:0:0
256,232,934,1,0,0:0:0
288,248,1017,1,0,0:0:0
256,144,1182,1,0,0:0:0
288,128,1264,1,0,0:0:0
320,112,1347,5,0,0:0:0
320,112,1512,1,0,0:0:0
392,192,1677,1,8,0:0:0
392,192,1842,5,0,0:0:0
384,224,1925,1,0,0:0:0
376,256,2007,5,10,0:0:0
344,360,2172,1,0,0:0:0
234,370,2337,1,0,0:0:0
336,328,2502,1,0,0:0:0
240,280,2667,1,0,0:0:0
136,240,2832,5,0,0:0:0
122,222,2914,1,0,0:0:0
128,201,2996,1,0,0:0:0
114,183,3079,1,0,0:0:0
122,163,3161,1,0,0:0:0
168,88,3326,1,2,0:0:0
186,76,3409,1,0,0:0:0
207,78,3491,1,0,0:0:0
226,68,3574,1,0,0:0:0
267,81,3656,5,8,0:0:0
302,107,3739,1,8,0:0:0
326,142,3821,1,8,0:0:0
330,185,3903,1,8,0:0:0
354,221,3986,5,0,0:0:0
465,232,4151,1,0,0:0:0
399,322,4316,2,0,P|384:360,1,27.5,2|0,0:0|0:0,0:0:0
432,217,4481,5,8,0:0:0
423,203,4563,1,0,0:0:0
407,196,4645,5,8,0:0:0
420,72,4810,1,0,0:0:0
504,136,4975,5,8,0:0:0
488,141,5058,1,0,0:0:0
471,138,5140,5,8,0:0:0
360,134,5305,1,0,0:0:0
252,103,5470,1,0,0:0:0
166,32,5635,1,0,0:0:0
238,115,5800,1,0,0:0:0
236,129,5882,1,0,0:0:0
223,164,5965,5,8,0:0:0
190,193,6047,1,8,0:0:0
148,207,6130,1,8,0:0:0
104,203,6212,1,8,0:0:0
66,179,6294,6,2,P|34:201,7,27.5,4|0|0|0|0|0|0|0,0:0|0:0|0:0|0:0|0:0|0:0|0:0|0:0,0:0:0
38,171,6624,5,0,0:0:0
38,171,6789,1,0,0:0:0
65,64,6954,2,0,P|48:32,1,27.5,2|0,0:0|0:0,0:0:0
146,138,7119,5,0,0:0:0
156,134,7201,1,0,0:0:0
166,130,7284,5,0,0:0:0
257,191,7449,1,0,0:0:0
260,201,7531,1,0,0:0:0
262,211,7614,1,0,0:0:0
268,320,7779,1,2,0:0:0
200,352,7943,1,2,0:0:0
268,320,8108,5,10,0:0:0
309,335,8191,1,8,0:0:0
350,321,8273,5,0,0:0:0
350,321,8438,1,0,0:0:0
460,323,8603,1,0,0:0:0
384,264,8768,1,2,0:0:0
384,264,8933,5,10,0:0:0
342,249,9015,1,8,0:0:0
297,253,9098,1,8,0:0:0
263,281,9180,1,8,0:0:0
244,292,9263,5,2,0:0:0
222,289,9345,1,0,0:0:0
201,296,9428,1,0,0:0:0
180,287,9510,1,0,0:0:0
160,296,9592,5,2,0:0:0
56,250,9757,2,0,P|0:261,1,55,2|0,0:0|0:0,0:0:0
82,191,9922,1,2,0:0:0
144,184,10087,5,8,0:0:0
153,178,10170,1,8,0:0:0
160,169,10252,5,0,0:0:0
78,102,10417,2,0,P|29:79,1,55,2|0,0:0|0:0,0:0:0
160,56,10582,6,0,P|200:48|200:48|264:14,1,110,4|0,0:0|0:0,0:0:0
309,89,10829,2,0,P|328:129|328:129|388:168,1,110,4|0,0:0|0:0,0:0:0
456,216,11077,2,0,P|411:254,1,55,4|0,0:0|0:0,0:0:0
381,287,11241,5,0,0:0:0
341,316,11324,1,0,0:0:0
291,312,11406,1,0,0:0:0
267,268,11489,1,0,0:0:0
283,221,11571,6,2,P|302:192,7,27.5,4|0|0|0|0|0|0|0,0:0|0:0|0:0|0:0|0:0|0:0|0:0|0:0,0:0:0
272,200,11901,5,0,0:0:0
272,200,12066,1,0,0:0:0
221,101,12231,1,2,0:0:0
125,157,12396,1,0,0:0:0
221,101,12561,1,0,0:0:0
221,101,12726,1,0,0:0:0
180,231,12890,5,2,0:0:0
164,246,12973,1,0,0:0:0
160,267,13055,1,8,0:0:0
143,282,13138,1,8,0:0:0
134,302,13220,5,2,0:0:0
240,336,13385,1,0,0:0:0
128,323,13550,1,8,0:0:0
128,344,13632,1,0,0:0:0
135,364,13715,1,8,0:0:0
240,336,13880,5,0,0:0:0
260,342,13962,1,0,0:0:0
275,326,14045,1,0,0:0:0
296,329,14127,1,0,0:0:0
340,325,14210,5,8,0:0:0
376,300,14292,1,8,0:0:0
384,257,14374,1,8,0:0:0
359,220,14457,1,8,0:0:0
342,206,14539,5,8,0:0:0
318,168,14622,1,0,0:0:0
321,146,14704,1,8,0:0:0
313,102,14787,1,0,0:0:0
326,84,14869,1,8,0:0:0
359,55,14952,1,0,0:0:0
400,56,15034,5,10,0:0:0
463,73,15199,1,2,0:0:0
472,138,15364,1,2,0:0:0
419,177,15529,1,2,0:0:0
399,186,15611,5,0,0:0:0
376,187,15694,1,0,0:0:0
356,196,15776,1,0,0:0:0
333,196,15859,1,0,0:0:0
313,206,15941,1,0,0:0:0
292,208,16023,1,0,0:0:0
271,217,16106,1,0,0:0:0
248,217,16188,5,8,0:0:0
233,152,16353,1,8,0:0:0
254,89,16518,5,8,0:0:0
214,82,16601,1,0,0:0:0
173,76,16683,1,0,0:0:0
133,69,16766,1,8,0:0:0
93,62,16848,6,2,P|51:80,7,27.5,4|0|0|0|0|0|0|0,0:0|0:0|0:0|0:0|0:0|0:0|0:0|0:0,0:0:0
92,87,17178,5,0,0:0:0
66,194,17343,1,0,0:0:0
173,172,17508,2,0,P|200:180,1,27.5,8|0,0:0|0:0,0:0:0
75,222,17672,6,0,P|41:235,3,27.5
70,250,17837,5,0,0:0:0
177,273,18002,1,0,0:0:0
203,282,18085,1,0,0:0:0
223,299,18167,6,0,P|239:329,3,27.5
242,275,18332,5,0,0:0:0
327,206,18497,2,0,P|350:187,1,27.5,8|0,0:0|0:0,0:0:0
232,159,18662,5,8,0:0:0
234,175,18744,1,8,0:0:0
240,190,18827,5,0,0:0:0
310,274,18992,1,0,0:0:0
411,231,19157,5,0,0:0:0
414,246,19239,1,0,0:0:0
411,262,19321,5,0,0:0:0
330,349,19486,5,8,0:0:0
292,372,19569,1,8,0:0:0
248,369,19651,1,8,0:0:0
211,343,19734,1,8,0:0:0
190,334,19816,5,0,0:0:0
167,334,19899,1,0,0:0:0
150,319,19981,1,0,0:0:0
128,317,20063,1,0,0:0:0
114,301,20146,5,0,0:0:0
87,240,20311,1,0,0:0:0
68,176,20476,1,0,0:0:0
46,113,20641,5,8,0:0:0
80,130,20723,1,8,0:0:0
118,135,20806,1,0,0:0:0
215,184,20970,1,0,0:0:0
253,191,21053,1,0,0:0:0
291,188,21135,6,0,P|344:153|344:153|371:106,1,110,4|0,0:0|0:0,0:0:0
425,182,21383,2,0,P|460:235|460:235|467:288,1,110,4|0,0:0|0:0,0:0:0
378,271,21630,2,0,P|322:300,1,55,4|0,0:0|0:0,0:0:0
264,356,21795,5,0,0:0:0
222,368,21877,1,0,0:0:0
182,352,21960,1,0,0:0:0
170,311,22042,1,0,0:0:0
179,265,22125,6,2,P|147:233,7,27.5,4|0|0|0|0|0|0|0,0:0|0:0|0:0|0:0|0:0|0:0|0:0|0:0,0:0:0
178,241,22455,5,0,0:0:0
224,120,22784,5,2,0:0:0
208,88,22867,1,2,0:0:0
152,144,23032,1,2,0:0:0
120,160,23114,1,2,0:0:0
128,72,23279,1,2,0:0:0
96,56,23361,1,2,0:0:0
56,120,23526,5,2,0:0:0
35,148,23609,1,2,0:0:0
29,182,23691,1,2,0:0:0
35,216,23774,1,0,0:0:0
56,243,23856,1,0,0:0:0
88,256,23939,1,8,0:0:0
141,321,24104,5,2,0:0:0
169,352,24186,1,0,0:0:0
222,286,24351,1,2,0:0:0
265,298,24433,1,0,0:0:0
278,207,24598,1,2,0:0:0
326,195,24681,1,0,0:0:0
274,110,24846,1,2,0:0:0
298,67,24928,1,2,0:0:0
342,46,25010,1,2,0:0:0
381,47,25093,5,0,0:0:0
412,61,25175,1,0,0:0:0
432,89,25258,1,8,0:0:0
426,187,25423,5,2,0:0:0
418,224,25505,1,0,0:0:0
207,221,25752,1,2,0:0:0
126,195,25917,1,2,0:0:0
91,169,26000,1,0,0:0:0
163,125,26165,1,2,0:0:0
187,90,26247,1,2,0:0:0
212,55,26330,1,2,0:0:0
242,25,26412,6,0,P|287:4,1,35.2,8|0,0:0|0:0,0:0:0
336,157,26659,2,0,P|348:195,1,35.2,8|0,0:0|0:0,0:0:0
453,331,26907,2,0,P|491:355,1,35.2,8|0,0:0|0:0,0:0:0
259,326,27154,2,0,P|217:353,1,35.2,8|0,0:0|0:0,0:0:0
96,304,27401,5,10,0:0:0
80,264,27484,1,10,0:0:0
64,224,27566,6,2,P|40:208,3,17.6,6|2|2|2,0:0|0:0|0:0|0:0,0:0:0
56,184,27731,6,0,P|37:127,1,55,2|0,0:0|0:0,0:0:0
136,104,27896,2,0,P|167:52,1,55,2|0,0:0|0:0,0:0:0
216,184,28061,1,2,0:0:0
213,219,28144,2,0,P|207:283,1,55,2|0,0:0|0:0,0:0:0
352,104,28391,2,0,P|339:42,1,55,2|0,0:0|0:0,0:0:0
432,184,28556,1,2,0:0:0
439,215,28638,2,0,P|452:269,1,55,2|0,0:0|0:0,0:0:0
400,304,28803,5,2,0:0:0
358,288,28886,1,2,0:0:0
314,287,28968,1,2,0:0:0
271,295,29050,1,2,0:0:0
236,322,29133,1,8,0:0:0
194,337,29215,5,2,0:0:0
84,328,29380,1,2,0:0:0
72,309,29463,1,2,0:0:0
129,120,29710,5,2,0:0:0
156,241,29875,5,2,0:0:0
177,235,29957,1,0,0:0:0
221,230,30040,5,2,0:0:0
264,233,30122,1,2,0:0:0
304,215,30205,1,2,0:0:0
314,172,30287,1,2,0:0:0
299,148,30370,5,8,0:0:0
273,86,30535,1,8,0:0:0
338,92,30699,1,8,0:0:0
364,98,30782,1,8,0:0:0
379,162,30947,1,2,0:0:0
401,178,31029,1,8,0:0:0
365,233,31194,1,2,0:0:0
378,257,31277,1,8,0:0:0
318,284,31441,5,2,0:0:0
306,315,31524,1,8,0:0:0
277,331,31606,1,0,0:0:0
203,309,31771,1,2,0:0:0
170,317,31854,1,8,0:0:0
168,250,32019,5,10,0:0:0
137,236,32101,1,10,0:0:0
180,186,32266,1,10,0:0:0
168,155,32348,1,10,0:0:0
232,138,32513,1,10,0:0:0
230,104,32596,1,10,0:0:0
228,71,32678,6,2,P|247:67,7,13.75,6|2|2|2|2|2|2|2,0:0|0:0|0:0|0:0|0:0|0:0|0:0|0:0,0:0:0
208,74,33008,5,0,0:0:0
77,53,33173,1,2,0:0:0
47,92,33255,1,2,0:0:0
39,141,33338,1,0,0:0:0
153,207,33503,1,0,0:0:0
181,246,33585,1,0,0:0:0
199,292,33668,1,0,0:0:0
201,308,33750,5,0,0:0:0
250,301,33833,1,2,0:0:0
297,313,33915,1,2,0:0:0
332,347,33997,1,0,0:0:0
432,261,34162,2,0,P|459:274,1,27.5,2|0,0:0|0:0,0:0:0
311,206,34327,2,0,P|282:191,1,27.5,2|0,0:0|0:0,0:0:0
411,120,34492,5,2,0:0:0
365,99,34575,1,2,0:0:0
335,59,34657,1,0,0:0:0
202,57,34822,1,2,0:0:0
178,71,34904,1,0,0:0:0
150,73,34987,1,0,0:0:0
129,67,35069,1,10,0:0:0
107,69,35152,5,0,0:0:0
90,82,35234,1,0,0:0:0
75,117,35317,1,10,0:0:0
80,160,35399,1,10,0:0:0
119,190,35482,1,0,0:0:0
167,182,35564,1,0,0:0:0
202,147,35646,5,2,0:0:0
272,258,35811,1,2,0:0:0
246,294,35894,1,2,0:0:0
242,337,35976,1,0,0:0:0
371,310,36141,1,2,0:0:0
386,325,36224,2,0,P|410:348,1,27.5,2|0,0:0|0:0,0:0:0
426,233,36388,5,2,0:0:0
443,204,36471,1,2,0:0:0
448,166,36553,1,0,0:0:0
435,123,36636,1,0,0:0:0
396,92,36718,1,2,0:0:0
346,89,36801,1,8,0:0:0
224,141,36966,5,0,0:0:0
349,101,37130,1,2,0:0:0
341,144,37213,1,2,0:0:0
317,180,37295,1,0,0:0:0
201,115,37460,5,2,0:0:0
159,99,37543,1,0,0:0:0
115,106,37625,1,0,0:0:0
83,144,37708,1,2,0:0:0
77,192,37790,1,2,0:0:0
99,236,37873,1,2,0:0:0
135,269,37955,6,2,P|156:287,7,27.5
167,261,38285,5,0,0:0:0
278,307,38450,1,2,0:0:0
317,325,38532,1,2,0:0:0
361,319,38615,1,0,0:0:0
462,211,38779,2,0,P|484:182,1,27.5,2|0,0:0|0:0,0:0:0
362,55,38944,2,0,P|376:85,1,27.5,2|0,0:0|0:0,0:0:0
373,97,39109,5,2,0:0:0
361,139,39192,1,2,0:0:0
331,171,39274,1,0,0:0:0
181,206,39439,6,0,P|167:237,1,27.5,2|0,0:0|0:0,0:0:0
36,101,39604,2,0,P|62:110,1,27.5,2|0,0:0|0:0,0:0:0
76,106,39769,5,2,0:0:0
108,76,39851,1,2,0:0:0
152,71,39934,1,0,0:0:0
161,76,40099,1,2,0:0:0
150,101,40181,1,0,0:0:0
148,128,40264,1,0,0:0:0
157,159,40346,1,0,0:0:0
184,179,40428,5,2,0:0:0
222,179,40511,1,2,0:0:0
252,156,40593,1,0,0:0:0
288,141,40676,1,0,0:0:0
326,142,40758,1,0,0:0:0
361,156,40841,1,0,0:0:0
388,190,40923,5,0,0:0:0
395,239,41006,1,0,0:0:0
375,284,41088,1,2,0:0:0
334,313,41171,1,2,0:0:0
279,319,41253,5,2,0:0:0
126,340,41418,1,2,0:0:0
99,346,41500,1,8,0:0:0
74,358,41583,1,2,0:0:0
84,327,41665,5,2,0:0:0
93,289,41748,1,0,0:0:0
97,245,41830,1,0,0:0:0
90,201,41913,1,2,0:0:0
65,158,41995,1,2,0:0:0
23,132,42077,1,2,0:0:0
160,56,42242,6,0,P|214:41|272:16,1,110,4|0,0:0|0:0,0:0:0
312,80,42490,2,0,P|272:120|240:176,1,110,4|0,0:0|0:0,0:0:0
231,241,42737,2,0,P|258:260|279:281,1,55,4|0,0:0|0:0,0:0:0
312,342,42902,5,2,0:0:0
341,302,42984,1,8,0:0:0
387,283,43067,1,2,0:0:0
436,283,43149,1,8,0:0:0
482,300,43232,6,2,P|506:284,7,27.5,6|2|2|2|2|2|2|2,0:0|0:0|0:0|0:0|0:0|0:0|0:0|0:0,0:0:0
507,316,43562,5,0,0:0:0
476,197,43726,1,2,0:0:0
457,150,43809,1,2,0:0:0
437,104,43891,1,0,0:0:0
352,151,44056,1,2,0:0:0
303,160,44139,1,0,0:0:0
307,61,44304,5,2,0:0:0
265,48,44386,1,0,0:0:0
222,45,44468,1,0,0:0:0
179,53,44551,1,2,0:0:0
145,79,44633,1,2,0:0:0
120,122,44716,5,0,0:0:0
119,171,44798,1,0,0:0:0
135,217,44881,1,0,0:0:0
219,268,45046,1,2,0:0:0
252,304,45128,1,2,0:0:0
270,350,45211,1,0,0:0:0
351,295,45375,1,2,0:0:0
399,283,45458,1,0,0:0:0
447,288,45540,1,0,0:0:0
452,284,45623,5,2,0:0:0
456,279,45705,1,2,0:0:0
456,272,45788,1,0,0:0:0
454,253,45870,1,0,0:0:0
439,225,45953,1,2,0:0:0
408,195,46035,1,2,0:0:0
366,169,46117,1,2,0:0:0
311,156,46200,5,0,0:0:0
165,183,46365,1,2,0:0:0
135,190,46447,1,2,0:0:0
104,188,46530,1,0,0:0:0
73,167,46612,5,0,0:0:0
63,124,46695,1,2,0:0:0
78,83,46777,1,0,0:0:0
115,61,46860,1,0,0:0:0
163,54,46942,5,2,0:0:0
209,69,47024,1,2,0:0:0
239,108,47107,1,0,0:0:0
242,156,47189,1,0,0:0:0
229,204,47272,1,2,0:0:0
190,242,47354,5,2,0:0:0
148,279,47437,1,2,0:0:0
128,333,47519,6,0,P|119:363,1,30.8000003759766,2|0,0:0|0:0,0:0:0
264,344,47684,1,2,0:0:0
264,344,47766,1,2,0:0:0
264,344,47849,1,0,0:0:0
384,304,48014,5,2,0:0:0
384,304,48096,1,2,0:0:0
376,280,48179,5,0,0:0:0
366,244,48261,1,0,0:0:0
367,206,48344,1,2,0:0:0
381,172,48426,1,2,0:0:0
407,147,48508,6,2,P|425:115,7,30.8000003759766,4|0|0|0|0|0|0|0,0:0|0:0|0:0|0:0|0:0|0:0|0:0|0:0,0:0:0
391,124,48838,5,0,0:0:0
280,72,49003,1,2,0:0:0
280,72,49086,1,2,0:0:0
263,84,49168,2,0,P|202:116,1,61.6000007519531,2|0,0:0|0:0,0:0:0
160,72,49333,6,0,P|128:40,3,30.8000003759766
136,81,49498,5,0,0:0:0
121,121,49580,1,0,0:0:0
124,164,49663,5,2,0:0:0
148,199,49745,1,2,0:0:0
188,214,49828,6,0,P|219:194,3,30.8000003759766
219,228,49993,5,0,0:0:0
252,263,50075,1,0,0:0:0
252,312,50157,1,0,0:0:0
350,318,50322,5,2,0:0:0
384,282,50405,1,2,0:0:0
432,273,50487,1,0,0:0:0
386,185,50652,1,2,0:0:0
375,162,50735,1,0,0:0:0
333,45,50900,5,2,0:0:0
328,69,50982,1,2,0:0:0
317,90,51064,1,0,0:0:0
299,107,51147,1,0,0:0:0
272,115,51229,1,2,0:0:0
232,124,51312,5,2,0:0:0
184,136,51394,1,2,0:0:0
143,174,51477,1,0,0:0:0
88,288,51642,1,2,0:0:0
88,288,51724,1,2,0:0:0
89,319,51806,2,0,P|75:352,1,30.8000003759766,2|0,0:0|0:0,0:0:0
112,304,51971,5,2,0:0:0
142,309,52054,1,0,0:0:0
177,298,52136,5,2,0:0:0
206,275,52219,1,2,0:0:0
239,260,52301,1,0,0:0:0
276,256,52384,1,0,0:0:0
316,269,52466,5,2,0:0:0
352,292,52549,1,2,0:0:0
393,301,52631,1,2,0:0:0
432,283,52713,1,2,0:0:0
452,244,52796,6,0,P|424:192|411:121,1,123.200001503906,4|0,0:0|0:0,0:0:0
328,155,53043,2,0,P|350:100|359:24,1,123.200001503906,4|0,0:0|0:0,0:0:0
271,29,53291,2,0,P|204:49,1,61.6000007519531,4|0,0:0|0:0,0:0:0
130,74,53455,5,0,0:0:0
91,105,53538,1,0,0:0:0
74,151,53620,1,0,0:0:0
81,200,53703,1,0,0:0:0
111,238,53785,6,2,P|135:262,7,30.8000003759766,6|2|2|2|2|2|2|2,0:0|0:0|0:0|0:0|0:0|0:0|0:0|0:0,0:0:0
136,242,54115,6,0,P|206:202,1,70.4
264,296,54445,1,0,0:0:0
368,344,54610,2,0,P|432:376,1,70.4
448,264,54940,5,8,0:0:0
392,168,55104,1,8,0:0:0
280,184,55269,1,8,0:0:0
224,88,55434,2,0,P|192:24,1,70.4,8|0,0:0|0:0,0:0:0
208,160,55764,1,0,0:0:0
296,112,55929,2,0,P|360:80,1,70.4
280,184,56259,5,0,0:0:0
328,240,56424,5,2,0:0:0
320,272,56506,2,0,P|288:288,1,35.2
248,304,56671,1,0,0:0:0
208,296,56753,6,0,P|144:264,1,70.4
40,216,57083,1,0,0:0:0
136,160,57248,2,0,P|200:128,1,70.4
312,176,57578,5,8,0:0:0
312,64,57743,1,8,0:0:0
408,128,57908,1,8,0:0:0
408,240,58073,2,0,P|472:272,1,70.4,8|0,0:0|0:0,0:0:0
408,352,58402,1,2,0:0:0
304,304,58567,2,0,P|240:272,1,70.4,0|2,0:0|0:0,0:0:0
216,288,58815,5,2,0:0:0
192,280,58897,1,2,0:0:0
128,256,59062,5,2,0:0:0
120,232,59144,1,2,0:0:0
112,208,59227,1,2,0:0:0
136,144,59392,6,0,P|192:88,1,70.4,8|0,0:0|0:0,0:0:0
272,168,59722,1,8,0:0:0
352,88,59886,2,0,P|408:32,1,70.4,8|0,0:0|0:0,0:0:0
456,136,60216,5,8,0:0:0
384,224,60381,1,8,0:0:0
456,312,60546,1,8,0:0:0
344,280,60711,2,0,P|272:296,1,70.4,8|0,0:0|0:0,0:0:0
208,208,61041,1,8,0:0:0
96,232,61206,2,0,P|24:248,1,70.4,8|0,0:0|0:0,0:0:0
136,152,61535,5,0,0:0:0
136,152,61700,1,0,0:0:0
178,98,61865,1,0,0:0:0
240,120,62030,2,0,P|280:48,1,70.4,8|0,0:0|0:0,0:0:0
360,136,62360,1,8,0:0:0
304,232,62525,2,0,P|264:304,1,70.4,8|0,0:0|0:0,0:0:0
168,344,62855,5,8,0:0:0
96,256,63020,1,8,0:0:0
208,240,63184,1,8,0:0:0
168,344,63349,2,0,P|88:328,1,70.4,8|0,0:0|0:0,0:0:0
208,240,63679,1,8,0:0:0
320,208,63844,2,0,P|400:192,1,70.4,8|0,0:0|0:0,0:0:0
408,208,64091,5,2,0:0:0
428,223,64174,1,2,0:0:0
384,280,64339,5,2,0:0:0
367,302,64421,1,2,0:0:0
336,312,64504,1,2,0:0:0
316,335,64586,1,2,0:0:0
288,344,64669,6,0,P|200:312,1,88,2|0,0:0|0:0,0:0:0
72,264,64998,2,0,P|160:232,1,88,2|0,0:0|0:0,0:0:0
264,144,65328,2,0,P|274:98|272:40,1,88,2|0,0:0|0:0,0:0:0
384,152,65658,2,0,P|373:197|376:256,1,88,2|0,0:0|0:0,0:0:0
232,224,65988,2,0,P|208:184|176:152,1,88,2|0,0:0|0:0,0:0:0
303,207,66318,1,2,0:0:0
208,312,66482,2,0,P|164:303|104:304,1,88,2|0,0:0|0:0,0:0:0
67,190,66812,1,2,0:0:0
56,67,66977,5,2,0:0:0
99,59,67060,2,0,P|154:52,1,44,2|0,0:0|0:0,0:0:0
181,75,67224,1,0,0:0:0
221,56,67307,6,0,P|262:62|325:56,1,88,2|0,0:0|0:0,0:0:0
430,131,67637,2,0,P|387:139|346:159,1,88,2|0,0:0|0:0,0:0:0
221,223,67967,2,0,P|258:256|286:293,1,88,2|0,0:0|0:0,0:0:0
142,308,68296,2,0,P|92:316|46:341,1,88,2|0,0:0|0:0,0:0:0
54,234,68626,2,0,P|85:194|101:154,1,88,2|0,0:0|0:0,0:0:0
122,34,68956,1,2,0:0:0
242,106,69121,2,0,P|275:121|269:149|302:172,1,88,2|0,0:0|0:0,0:0:0
328,181,69368,5,2,0:0:0
358,177,69451,1,2,0:0:0
365,172,69616,5,2,0:0:0
387,151,69698,1,2,0:0:0
390,116,69780,1,2,0:0:0
369,87,69863,1,2,0:0:0
336,64,69945,6,0,P|293:52|252:29,1,88,2|0,0:0|0:0,0:0:0
158,135,70275,2,0,P|125:169|86:191,1,88,2|0,0:0|0:0,0:0:0
110,329,70605,2,0,P|152:335|202:353,1,88,2|0,0:0|0:0,0:0:0
262,224,70935,1,2,0:0:0
390,280,71100,2,0,P|402:238|426:195,1,88,2|0,0:0|0:0,0:0:0
299,132,71429,1,2,0:0:0
158,134,71594,2,0,P|112:127|72:106,1,88,2|0,0:0|0:0,0:0:0
78,250,71924,5,8,0:0:0
199,320,72089,1,8,0:0:0
277,202,72254,1,10,0:0:0
406,257,72419,1,10,0:0:0
448,120,72584,6,0,P|416:88|416:88|400:48,1,88,2|0,0:0|0:0,0:0:0
264,24,72913,2,0,P|280:64|280:64|272:112,1,88,2|0,0:0|0:0,0:0:0
128,112,73243,2,0,P|80:120|80:120|40:112,1,88,2|0,0:0|0:0,0:0:0
136,216,73573,1,2,0:0:0
224,320,73738,2,0,P|272:312|272:312|320:320,1,88,2|0,0:0|0:0,0:0:0
448,352,74068,1,2,0:0:0
408,216,74233,1,8,0:0:0
272,240,74398,1,2,0:0:0
400,184,74562,5,2,0:0:0
392,152,74645,1,0,0:0:0
384,120,74727,1,2,0:0:0
248,80,74892,1,2,0:0:0
237,123,74975,1,0,0:0:0
207,155,75057,1,2,0:0:0
165,170,75140,1,0,0:0:0
121,167,75222,6,0,P|101:179,1,13.75
162,318,75552,5,2,0:0:0
183,321,75634,1,2,0:0:0
234,279,75799,1,2,0:0:0
255,274,75882,1,2,0:0:0
278,212,76047,1,2,0:0:0
295,199,76129,1,0,0:0:0
302,133,76294,5,2,0:0:0
307,123,76376,1,2,0:0:0
315,115,76459,1,2,0:0:0
327,109,76541,1,0,0:0:0
348,103,76624,5,0,0:0:0
371,109,76706,1,0,0:0:0
420,152,76871,1,2,0:0:0
436,174,76954,1,0,0:0:0
412,286,77201,1,0,0:0:0
341,317,77366,1,2,0:0:0
313,317,77448,1,0,0:0:0
240,290,77613,5,2,0:0:0
224,274,77696,1,2,0:0:0
211,246,77778,1,2,0:0:0
207,224,77860,1,0,0:0:0
185,164,78025,5,0,0:0:0
124,147,78190,1,2,0:0:0
96,128,78273,2,0,P|75:98,1,27.5,8|0,0:0|0:0,0:0:0
179,44,78520,2,0,P|194:67,1,27.5,8|0,0:0|0:0,0:0:0
268,87,78685,1,2,0:0:0
304,99,78767,1,0,0:0:0
319,104,78932,5,2,0:0:0
348,129,79015,1,2,0:0:0
370,159,79097,1,2,0:0:0
387,193,79180,6,0,P|401:223,1,27.5,8|0,0:0|0:0,0:0:0
226,306,79427,2,0,P|202:330,1,27.5,8|0,0:0|0:0,0:0:0
85,213,79674,2,0,P|50:196,1,27.5,8|0,0:0|0:0,0:0:0
202,69,79922,2,0,P|192:35,1,27.5,8|0,0:0|0:0,0:0:0
335,121,80169,5,8,0:0:0
372,129,80251,1,8,0:0:0
403,151,80334,6,2,P|418:145,3,13.75,4|0|0|0,0:0|0:0|0:0|0:0,0:0:0
424,176,80499,5,0,0:0:0
362,282,80664,1,0,0:0:0
243,249,80829,1,2,0:0:0
200,258,80911,1,0,0:0:0
109,104,81158,6,0,P|114:78,1,22,2|2,0:0|0:0,0:0:0
44,177,81323,1,2,0:0:0
29,218,81406,1,0,0:0:0
29,231,81488,1,0,0:0:0
33,248,81571,5,2,0:0:0
43,267,81653,1,2,0:0:0
64,283,81736,1,2,0:0:0
93,292,81818,1,8,0:0:0
127,293,81900,1,0,0:0:0
164,279,81983,5,2,0:0:0
264,208,82148,1,2,0:0:0
300,184,82230,1,2,0:0:0
439,305,82478,5,0,0:0:0
319,333,82643,1,2,0:0:0
277,318,82725,1,0,0:0:0
253,304,82807,5,0,0:0:0
229,281,82890,1,2,0:0:0
213,251,82972,1,10,0:0:0
204,211,83055,1,2,0:0:0
204,169,83137,5,2,0:0:0
265,62,83302,1,2,0:0:0
142,71,83467,1,2,0:0:0
99,62,83549,1,2,0:0:0
86,184,83714,1,2,0:0:0
48,207,83797,1,0,0:0:0
102,317,83962,5,2,0:0:0
88,358,84044,1,0,0:0:0
211,350,84209,1,2,0:0:0
253,361,84291,1,2,0:0:0
296,354,84374,1,0,0:0:0
419,357,84539,1,2,0:0:0
403,315,84621,1,0,0:0:0
410,191,84786,5,2,0:0:0
425,149,84869,1,0,0:0:0
313,97,85034,1,2,0:0:0
298,55,85116,1,0,0:0:0
181,95,85281,5,10,0:0:0
143,71,85363,1,10,0:0:0
104,49,85446,6,2,P|73:27,7,22,6|2|2|2|2|2|2|2,0:0|0:0|0:0|0:0|0:0|0:0|0:0|0:0,0:0:0
80,63,85776,5,0,0:0:0
49,235,85940,1,0,0:0:0
114,133,86105,1,0,0:0:0
150,305,86270,1,0,0:0:0
176,174,86435,1,0,0:0:0
275,319,86600,1,0,0:0:0
247,192,86765,1,0,0:0:0
257,193,86847,1,8,0:0:0
267,191,86930,5,0,0:0:0
277,187,87012,1,8,0:0:0
284,179,87095,1,0,0:0:0
363,255,87260,1,0,0:0:0
451,189,87425,1,0,0:0:0
444,180,87507,1,8,0:0:0
441,169,87589,1,0,0:0:0
361,93,87754,5,0,0:0:0
352,85,87837,1,8,0:0:0
343,78,87919,1,0,0:0:0
327,72,88002,1,8,0:0:0
295,63,88084,5,8,0:0:0
256,60,88167,1,8,0:0:0
213,69,88249,1,8,0:0:0
170,94,88332,1,10,0:0:0
148,97,88414,5,2,0:0:0
107,113,88496,1,0,0:0:0
103,134,88579,1,2,0:0:0
70,163,88661,1,0,0:0:0
79,183,88744,1,2,0:0:0
62,223,88826,1,0,0:0:0
78,237,88909,1,2,0:0:0
72,280,88991,1,0,0:0:0
89,293,89074,5,2,0:0:0
191,253,89238,1,2,0:0:0
195,249,89321,1,0,0:0:0
199,246,89403,1,8,0:0:0
204,244,89486,1,0,0:0:0
209,242,89568,1,8,0:0:0
216,240,89651,1,0,0:0:0
230,233,89733,5,2,0:0:0
253,217,89816,1,0,0:0:0
276,186,89898,1,2,0:0:0
293,146,89980,1,0,0:0:0
288,96,90063,1,2,0:0:0
395,118,90228,1,2,0:0:0
413,163,90310,1,0,0:0:0
413,212,90393,5,10,0:0:0
396,258,90475,1,8,0:0:0
359,291,90558,1,8,0:0:0
314,311,90640,1,8,0:0:0
264,309,90723,6,2,P|238:353,7,27.5,6|2|2|2|2|2|2|2,0:0|0:0|0:0|0:0|0:0|0:0|0:0|0:0,0:0:0
236,309,91052,5,0,0:0:0
85,275,91217,1,0,0:0:0
129,127,91382,1,0,0:0:0
279,160,91547,6,2,P|295:128,3,27.5
301,173,91712,5,0,0:0:0
237,83,91877,1,0,0:0:0
193,84,91959,1,0,0:0:0
155,107,92042,6,2,P|118:87,3,27.5
132,116,92207,5,0,0:0:0
85,262,92372,1,0,0:0:0
192,296,92536,1,0,0:0:0
192,296,92619,1,0,0:0:0
192,296,92701,1,0,0:0:0
296,320,92866,1,0,0:0:0
400,344,93031,1,0,0:0:0
400,344,93114,1,0,0:0:0
400,344,93196,1,0,0:0:0
424,240,93361,5,8,0:0:0
452,199,93443,1,8,0:0:0
457,149,93526,1,8,0:0:0
447,100,93608,1,8,0:0:0
427,90,93691,5,0,0:0:0
409,49,93773,1,0,0:0:0
387,54,93856,1,0,0:0:0
353,25,93938,1,0,0:0:0
333,36,94021,5,0,0:0:0
276,126,94185,1,0,0:0:0
288,141,94268,1,0,0:0:0
304,177,94350,1,0,0:0:0
304,197,94433,1,0,0:0:0
277,228,94515,1,0,0:0:0
261,239,94598,1,0,0:0:0
212,230,94680,5,0,0:0:0
168,129,94845,1,0,0:0:0
121,113,94927,1,0,0:0:0
83,145,95010,6,0,P|79:202|58:268,1,110,4|0,0:0|0:0,0:0:0
123,318,95257,2,0,P|177:305|242:312,1,110,4|0,0:0|0:0,0:0:0
305,358,95505,2,0,P|350:318,1,55,4|0,0:0|0:0,0:0:0
395,321,95669,5,2,0:0:0
440,300,95752,1,2,0:0:0
461,255,95834,1,2,0:0:0
457,205,95917,1,2,0:0:0
425,166,95999,6,2,P|442:135,7,27.5,6|2|2|2|2|2|2|2,0:0|0:0|0:0|0:0|0:0|0:0|0:0|0:0,0:0:0
415,150,96329,6,0,P|385:160|345:162,1,70.4,8|0,0:0|0:0,0:0:0
302,251,96659,2,0,P|264:249|230:257,1,70.4,8|0,0:0|0:0,0:0:0
148,203,96989,2,0,P|139:239|118:276,1,70.4,8|0,0:0|0:0,0:0:0
70,185,97318,2,0,P|81:149|87:107,1,70.4,2|0,0:0|0:0,0:0:0
179,81,97648,2,0,P|214:74|249:57,1,70.4,8|0,0:0|0:0,0:0:0
197,146,97978,1,8,0:0:0
303,108,98143,2,0,P|338:108|380:117,1,70.4,2|0,0:0|0:0,0:0:0
271,165,98473,5,8,0:0:0
354,240,98638,1,8,0:0:0
277,331,98803,1,8,0:0:0
124,290,98967,6,0,P|78:281|35:286,1,88,8|0,0:0|0:0,0:0:0
84,190,99297,2,0,P|122:167|157:132,1,88,8|0,0:0|0:0,0:0:0
206,228,99627,2,0,P|219:267|255:313,1,88,8|0,0:0|0:0,0:0:0
334,231,99957,2,0,P|381:220|412:193,1,88,2|0,0:0|0:0,0:0:0
307,125,100287,2,0,P|274:102|239:57,1,88,2|0,0:0|0:0,0:0:0
269,185,100616,1,8,0:0:0
377,126,100781,2,0,P|420:115|471:117,1,88,10|0,0:0|0:0,0:0:0
366,193,101111,5,2,0:0:0
404,310,101276,1,2,0:0:0
274,284,101441,1,2,0:0:0
170,155,101606,6,0,P|197:39,1,110,8|0,0:0|0:0,0:0:0
88,127,101936,2,0,P|57:245,1,110,8|0,0:0|0:0,0:0:0
97,360,102265,2,0,P|206:327,1,110,8|0,0:0|0:0,0:0:0
329,289,102595,1,2,0:0:0
367,162,102760,6,0,P|266:99,1,110,2|0,0:0|0:0,0:0:0
162,31,103090,1,8,0:0:0
196,158,103255,2,0,P|231:271,1,110,2|0,0:0|0:0,0:0:0
357,229,103585,1,8,0:0:0
342,97,103750,1,2,0:0:0
221,45,103914,2,0,P|115:94,1,110,8|0,0:0|0:0,0:0:0
58,208,104244,6,0,P|114:219|170:248,1,110,2|0,0:0|0:0,0:0:0
284,191,104574,2,0,P|250:232|224:284,1,110,8|0,0:0|0:0,0:0:0
353,251,104904,2,0,P|406:233|453:203,1,110,2|0,0:0|0:0,0:0:0
339,132,105234,1,2,0:0:0
206,131,105399,2,0,P|150:116|97:84,1,110,8|0,0:0|0:0,0:0:0
179,199,105728,1,8,0:0:0
231,320,105893,2,0,P|174:325|116:350,1,110,2|0,0:0|0:0,0:0:0
235,249,106223,2,0,P|287:260|347:256,1,110,8|0,0:0|0:0,0:0:0
471,220,106553,6,2,P|503:212,7,27.5
467,198,106883,6,0,P|432:157|432:157|405:101,1,110,2|0,0:0|0:0,0:0:0
293,210,107212,1,2,0:0:0
226,70,107377,1,2,0:0:0
126,188,107542,2,0,P|111:246|111:246|84:299,1,110,2|0,0:0|0:0,0:0:0
243,287,107872,2,0,P|294:303|294:303|355:311,1,110,2|0,0:0|0:0,0:0:0
361,155,108202,2,0,P|391:109|391:109|409:49,1,110,8|0,0:0|0:0,0:0:0
279,143,108532,1,2,0:0:0
131,102,108696,2,0,P|83:81|83:81|42:37,1,110,8|0,0:0|0:0,0:0:0
78,249,109026,5,8,0:0:0
214,176,109191,1,2,0:0:0
341,262,109356,1,8,0:0:0
266,127,109521,6,0,P|301:85|350:49,1,110,2|0,0:0|0:0,0:0:0
282,193,109851,2,0,P|335:172|398:170,1,110,8|0,0:0|0:0,0:0:0
260,257,110181,2,0,P|247:311|214:366,1,110,2|0,0:0|0:0,0:0:0
157,217,110510,2,0,P|109:179|55:161,1,110,8|0,0:0|0:0,0:0:0
192,76,110840,2,0,P|240:60|291:23,1,110
126,99,111170,1,0,0:0:0
278,121,111335,2,0,P|311:166|358:206,1,110
199,169,111665,5,0,0:0:0
101,288,111830,1,0,0:0:0
257,336,111994,1,0,0:0:0
407,267,112159,6,0,P|421:216|456:168,1,110
292,210,112489,1,0,0:0:0
240,159,112654,1,0,0:0:0
64,171,112819,2,0,P|119:199|158:242,1,110
305,145,113149,1,0,0:0:0
170,31,113314,2,0,P|112:54|63:59,1,110
173,154,113643,5,0,0:0:0
224,224,113808,1,0,0:0:0
389,141,113973,1,0,0:0:0
359,213,114138,1,0,0:0:0
437,203,114303,1,0,0:0:0
269,294,114468,6,0,P|217:315|217:315|157:316,1,110,10|0,0:0|0:0,0:0:0
288,171,114798,2,0,P|254:133|254:133|239:69,1,110,2|0,0:0|0:0,0:0:0
202,179,115128,2,0,P|192:139|192:139|128:115,1,110,2|0,0:0|0:0,0:0:0
84,166,115457,2,0,P|138:185|138:185|146:240,1,110,2|0,0:0|0:0,0:0:0
306,236,115787,1,2,0:0:0
424,120,115952,2,0,P|374:91|374:91|331:45,1,110,2|0,0:0|0:0,0:0:0
230,78,116282,5,0,0:0:0
313,149,116447,1,0,0:0:0
359,195,116612,1,8,0:0:0
220,304,116777,1,0,0:0:0
119,261,116941,1,0,0:0:0
248,141,117106,1,0,0:0:0
160,208,117271,1,0,0:0:0
357,305,117436,5,0,0:0:0
357,305,117601,1,2,0:0:0
320,294,117683,1,2,0:0:0
288,271,117766,1,2,0:0:0
346,220,117931,1,0,0:0:0
327,186,118013,1,0,0:0:0
324,164,118096,5,0,0:0:0
328,142,118178,1,0,0:0:0
342,125,118261,1,2,0:0:0
361,115,118343,1,2,0:0:0
397,90,118425,5,0,0:0:0
272,46,118590,1,0,0:0:0
148,91,118755,1,0,0:0:0
148,91,118920,5,2,0:0:0
134,133,119003,1,2,0:0:0
120,174,119085,1,2,0:0:0
180,238,119250,5,2,0:0:0
170,280,119332,1,0,0:0:0
256,296,119497,1,2,0:0:0
263,311,119580,1,2,0:0:0
275,321,119662,1,2,0:0:0
290,325,119745,1,0,0:0:0
353,307,119910,1,0,0:0:0
397,259,120074,5,0,0:0:0
402,220,120157,1,0,0:0:0
399,181,120239,1,2,0:0:0
377,148,120322,1,2,0:0:0
343,129,120404,1,0,0:0:0
304,124,120487,1,0,0:0:0
263,151,120569,5,2,0:0:0
214,160,120652,1,0,0:0:0
168,140,120734,1,0,0:0:0
224,72,120899,5,2,0:0:0
183,54,120981,1,2,0:0:0
139,59,121064,1,2,0:0:0
101,80,121146,1,2,0:0:0
84,121,121229,1,0,0:0:0
105,206,121394,5,0,0:0:0
49,137,121559,1,2,0:0:0
22,171,121641,1,2,0:0:0
18,214,121723,1,0,0:0:0
105,206,121888,1,2,0:0:0
109,238,121971,1,0,0:0:0
124,266,122053,1,0,0:0:0
143,285,122136,5,8,0:0:0
168,295,122218,1,8,0:0:0
195,296,122301,1,8,0:0:0
221,290,122383,6,2,P|245:260,7,27.5,6|2|2|2|2|2|2|2,0:0|0:0|0:0|0:0|0:0|0:0|0:0|0:0,0:0:0
251,292,122713,5,0,0:0:0
382,302,122878,1,2,0:0:0
411,269,122960,1,2,0:0:0
428,228,123043,1,0,0:0:0
341,209,123208,1,2,0:0:0
331,166,123290,1,0,0:0:0
321,123,123372,1,0,0:0:0
306,131,123455,5,2,0:0:0
290,137,123537,1,2,0:0:0
258,114,123620,1,2,0:0:0
222,100,123702,1,0,0:0:0
183,96,123785,1,0,0:0:0
146,107,123867,6,0,P|105:131,1,27.5,2|0,0:0|0:0,0:0:0
102,251,124032,2,0,P|112:284,1,27.5,2|0,0:0|0:0,0:0:0
192,269,124197,5,2,0:0:0
202,249,124279,1,2,0:0:0
219,235,124362,1,0,0:0:0
263,235,124527,1,2,0:0:0
272,254,124609,1,0,0:0:0
336,328,124774,5,2,0:0:0
374,324,124857,1,2,0:0:0
402,298,124939,1,2,0:0:0
410,255,125021,1,4,0:0:0
399,206,125104,1,0,0:0:0
363,171,125186,1,4,0:0:0
317,158,125269,1,0,0:0:0
304,110,125351,5,4,0:0:0
187,47,125516,1,2,0:0:0
171,76,125599,1,2,0:0:0
147,98,125681,1,0,0:0:0
115,107,125763,1,0,0:0:0
82,99,125846,1,2,0:0:0
57,76,125928,1,0,0:0:0
35,50,126011,6,0,P|20:17,1,27.5
27,77,126093,5,0,0:0:0
42,118,126176,1,0,0:0:0
46,161,126258,1,0,0:0:0
79,197,126341,5,4,0:0:0
101,240,126423,1,4,0:0:0
123,284,126506,1,4,0:0:0
143,328,126588,1,4,0:0:0
122,372,126670,1,0,0:0:0
242,364,126835,5,4,0:0:0
289,349,126918,1,2,0:0:0
337,339,127000,6,0,P|374:363,1,27.5
376,312,127124,2,0,P|409:309,1,27.5
399,265,127248,2,0,P|424:248,1,27.5
398,241,127330,5,0,0:0:0
387,221,127412,1,0,0:0:0
373,203,127495,1,0,0:0:0
360,185,127577,1,0,0:0:0
346,167,127660,6,2,P|317:181,7,27.5
324,147,127990,6,0,P|299:108|287:60,1,92.4000011279297,2|0,0:0|0:0,0:0:0
290,32,128155,1,0,0:0:0
224,64,128237,2,0,P|181:66|126:57,1,92.4000011279297,2|0,0:0|0:0,0:0:0
100,39,128402,1,0,0:0:0
97,112,128484,2,0,P|82:161|56:204,1,92.4000011279297,2|0,0:0|0:0,0:0:0
34,222,128649,1,0,0:0:0
100,255,128732,2,0,P|136:290|165:329,1,92.4000011279297,2|0,0:0|0:0,0:0:0
179,356,128897,5,2,0:0:0
211,373,128979,1,0,0:0:0
247,373,129061,1,0,0:0:0
280,356,129144,1,2,0:0:0
302,326,129226,1,2,0:0:0
311,289,129309,6,0,P|404:270,1,92.4000011279297,2|0,0:0|0:0,0:0:0
426,266,129474,1,2,0:0:0
467,203,129557,2,0,P|367:187,1,92.4000011279297,2|0,0:0|0:0,0:0:0
351,184,129721,1,2,0:0:0
311,120,129804,2,0,P|407:92,1,92.4000011279297,2|0,0:0|0:0,0:0:0
423,86,129968,1,2,0:0:0
369,30,130051,2,0,P|275:17,1,92.4000011279297,2|0,0:0|0:0,0:0:0
252,15,130216,5,2,0:0:0
216,23,130298,1,0,0:0:0
189,49,130381,1,2,0:0:0
180,84,130463,1,0,0:0:0
187,120,130546,1,2,0:0:0
205,151,130628,6,0,P|215:166|215:166|226:214,1,61.6000007519531,0|0,0:0|0:0,0:0:0
189,219,130793,1,2,0:0:0
214,244,130875,2,0,P|224:267|224:267|227:311,1,61.6000007519531,2|0,0:0|0:0,0:0:0
197,326,131040,1,2,0:0:0
159,326,131123,2,0,P|67:277,1,92.4000011279297,2|0,0:0|0:0,0:0:0
68,265,131288,1,2,0:0:0
91,237,131370,2,0,P|69:136,1,92.4000011279297,2|0,0:0|0:0,0:0:0
55,136,131535,5,2,0:0:0
57,93,131617,1,2,0:0:0
90,65,131700,1,2,0:0:0
132,65,131782,1,2,0:0:0
164,93,131865,1,2,0:0:0
202,111,131947,6,0,P|304:106,1,92.4000011279297,2|0,0:0|0:0,0:0:0
316,107,132112,1,2,0:0:0
332,147,132195,2,0,P|247:194,1,92.4000011279297,2|0,0:0|0:0,0:0:0
233,204,132359,1,0,0:0:0
270,226,132442,2,0,P|367:241,1,92.4000011279297,2|0,0:0|0:0,0:0:0
379,251,132607,1,0,0:0:0
388,266,132689,5,2,0:0:0
388,284,132772,1,2,0:0:0
378,299,132854,1,2,0:0:0
362,309,132937,6,2,P|376:339,7,30.8000003759766
347,323,133266,5,0,0:0:0
201,298,133431,1,2,0:0:0
186,250,133514,1,2,0:0:0
150,216,133596,1,0,0:0:0
102,200,133679,1,0,0:0:0
53,208,133761,6,2,P|36:233,3,30.8000003759766
25,210,133926,5,0,0:0:0
45,179,134008,2,0,P|81:126,1,61.6000007519531,2|0,0:0|0:0,0:0:0
102,98,134173,1,2,0:0:0
122,129,134256,1,0,0:0:0
153,148,134338,1,0,0:0:0
196,153,134421,1,2,0:0:0
241,135,134503,1,2,0:0:0
277,100,134586,6,0,P|346:32,1,92.4000011279297,2|0,0:0|0:0,0:0:0
360,18,134750,1,2,0:0:0
379,63,134833,1,2,0:0:0
379,112,134915,2,0,P|383:161|398:210,1,92.4000011279297,2|0,0:0|0:0,0:0:0
415,216,135080,5,2,0:0:0
386,256,135163,2,0,P|345:259|298:279,1,92.4000011279297,2|0,0:0|0:0,0:0:0
288,302,135328,1,2,0:0:0
244,279,135410,2,0,P|211:253|157:231,1,92.4000011279297,2|0,0:0|0:0,0:0:0
146,231,135575,5,8,0:0:0
127,233,135657,1,0,0:0:0
110,242,135740,1,8,0:0:0
100,257,135822,1,0,0:0:0
55,279,135905,5,0,0:0:0
73,324,135987,1,0,0:0:0
116,348,136070,1,2,0:0:0
164,349,136152,1,2,0:0:0
203,318,136235,1,0,0:0:0
294,352,136399,1,0,0:0:0
326,314,136482,1,0,0:0:0
335,284,136564,5,2,0:0:0
324,254,136647,1,2,0:0:0
338,227,136729,1,0,0:0:0
323,199,136812,1,0,0:0:0
297,181,136894,1,0,0:0:0
266,174,136977,1,0,0:0:0
229,180,137059,1,2,0:0:0
195,206,137141,1,2,0:0:0
177,245,137224,6,0,P|137:199|137:199|74:172,1,123.200001503906,6|0,0:0|0:0,0:0:0
101,84,137471,2,0,P|152:104|152:104|230:84,1,123.200001503906,4|0,0:0|0:0,0:0:0
301,45,137719,2,0,P|348:89,1,61.6000007519531,4|0,0:0|0:0,0:0:0
385,126,137884,5,0,0:0:0
419,169,137966,1,0,0:0:0
440,219,138048,1,0,0:0:0
442,274,138131,1,0,0:0:0
428,327,138213,6,2,P|436:298,7,30.8000003759766,6|2|2|2|2|2|2|2,0:0|0:0|0:0|0:0|0:0|0:0|0:0|0:0,0:0:0
402,295,138543,6,0,P|328:291,1,65.9999979858399,2|0,0:0|0:0,0:0:0
310,252,138708,5,2,0:0:0
268,231,138790,1,2,0:0:0
227,207,138873,2,0,P|160:169,1,65.9999979858399,2|0,0:0|0:0,0:0:0
156,136,139038,1,2,0:0:0
153,103,139120,1,0,0:0:0
162,78,139203,1,0,0:0:0
176,64,139285,5,2,0:0:0
188,58,139368,1,2,0:0:0
198,57,139450,1,2,0:0:0
204,58,139533,1,0,0:0:0
89,122,139697,5,2,0:0:0
74,173,139780,1,2,0:0:0
60,223,139862,2,0,P|39:290,1,65.9999979858399,2|0,0:0|0:0,0:0:0
29,324,140027,5,2,0:0:0
50,339,140110,1,2,0:0:0
73,327,140192,1,0,0:0:0
95,341,140275,1,0,0:0:0
134,335,140357,1,2,0:0:0
168,315,140439,1,0,0:0:0
241,344,140604,5,2,0:0:0
258,308,140687,1,0,0:0:0
254,268,140769,1,0,0:0:0
222,225,140852,5,8,0:0:0
258,187,140934,1,0,0:0:0
311,184,141017,1,8,0:0:0
355,211,141099,1,0,0:0:0
373,260,141182,1,0,0:0:0
467,214,141346,5,2,0:0:0
447,171,141429,1,2,0:0:0
418,135,141511,1,2,0:0:0
406,125,141594,1,2,0:0:0
365,103,141676,1,2,0:0:0
319,96,141759,1,0,0:0:0
250,33,141924,5,2,0:0:0
212,46,142006,1,2,0:0:0
207,58,142088,1,2,0:0:0
202,70,142171,1,0,0:0:0
197,82,142253,1,0,0:0:0
155,102,142336,5,2,0:0:0
112,119,142418,1,2,0:0:0
84,156,142501,1,0,0:0:0
74,200,142583,1,0,0:0:0
118,212,142666,5,2,0:0:0
144,249,142748,1,2,0:0:0
139,294,142830,1,0,0:0:0
228,269,142995,5,2,0:0:0
248,227,143078,2,0,P|298:184,1,65.9999979858399,2|0,0:0|0:0,0:0:0
316,141,143243,5,2,0:0:0
357,121,143325,1,2,0:0:0
403,125,143408,1,2,0:0:0
440,150,143490,6,2,P|466:174,3,32.99999899292,4|0|0|0,0:0|0:0|0:0|0:0,0:0:0
444,185,143655,6,2,P|458:221,3,32.99999899292,6|2|2|2,0:0|0:0|0:0|0:0,0:0:0
435,226,143820,6,0,P|401:287,1,65.9999979858399,2|0,0:0|0:0,0:0:0
381,249,143985,1,2,0:0:0
350,224,144067,1,2,0:0:0
310,216,144150,2,0,P|239:250,1,65.9999979858399,2|0,0:0|0:0,0:0:0
214,226,144315,6,2,P|182:195,3,32.99999899292
185,238,144479,5,0,0:0:0
153,249,144562,1,8,0:0:0
120,242,144644,1,0,0:0:0
98,216,144727,1,8,0:0:0
86,185,144809,6,2,P|115:169,3,32.99999899292
82,147,144974,5,2,0:0:0
68,109,145057,1,2,0:0:0
37,83,145139,1,0,0:0:0
128,30,145304,1,0,0:0:0
173,55,145386,1,0,0:0:0
225,65,145469,1,0,0:0:0
277,57,145551,1,0,0:0:0
324,80,145634,5,2,0:0:0
370,105,145716,2,0,P|436:135,1,65.9999979858399,2|0,0:0|0:0,0:0:0
386,162,145881,1,2,0:0:0
434,184,145964,2,0,P|504:212,1,65.9999979858399,2|0,0:0|0:0,0:0:0
450,236,146128,5,2,0:0:0
417,278,146211,1,0,0:0:0
367,294,146293,1,2,0:0:0
316,277,146376,1,0,0:0:0
285,234,146458,2,0,P|271:167,1,65.9999979858399,2|0,0:0|0:0,0:0:0
238,210,146623,5,2,0:0:0
195,242,146706,1,2,0:0:0
191,294,146788,2,0,P|220:366,1,65.9999979858399,2|0,0:0|0:0,0:0:0
165,337,146953,5,0,0:0:0
117,314,147035,1,0,0:0:0
97,287,147118,5,2,0:0:0
92,261,147200,1,2,0:0:0
99,235,147283,1,0,0:0:0
115,214,147365,1,0,0:0:0
140,193,147448,1,2,0:0:0
184,182,147530,1,2,0:0:0
236,187,147613,1,2,0:0:0
281,212,147695,1,2,0:0:0
317,245,147777,6,0,P|350:296|398:339,1,123.200001503906,4|0,0:0|0:0,0:0:0
415,239,148025,2,0,P|408:177|381:110,1,123.200001503906,4|0,0:0|0:0,0:0:0
288,105,148272,2,0,P|229:72,1,61.6000007519531,4|0,0:0|0:0,0:0:0
177,56,148437,5,6,0:0:0
118,64,148519,1,6,0:0:0
76,106,148602,1,6,0:0:0
71,164,148684,1,6,0:0:0
96,218,148767,5,0,0:0:0
150,240,148849,5,0,0:0:0
209,233,148932,6,0,P|206:274,2,37.1250001416206
215,189,149097,5,6,0:0:0
