osu file format v11

[General]
AudioFilename: Renard - Cloudsmasher.mp3
AudioLeadIn: 1500
PreviewTime: 22702
Countdown: 0
SampleSet: Normal
StackLeniency: 0.7
Mode: 0
LetterboxInBreaks: 0

[Editor]
DistanceSpacing: 0.9
BeatDivisor: 4
GridSize: 8

[Metadata]
Title:Cloudsmasher
TitleUnicode:Cloudsmasher
Artist:The Quick Brown Fox
ArtistUnicode:The Quick Brown Fox
Creator:Aqo
Version:490 style
Source:Renard
Tags:
BeatmapID:206275
BeatmapSetID:72121

[Difficulty]
HPDrainRate:5
CircleSize:4
OverallDifficulty:7
ApproachRate:10
SliderMultiplier:2.1
SliderTickRate:2

[Events]
//Background and Video events
0,0,"BG.jpg"
//Break Periods
//Storyboard Layer 0 (Background)
//Storyboard Layer 1 (Fail)
//Storyboard Layer 2 (Pass)
//Storyboard Layer 3 (Foreground)
//Storyboard Sound Samples
//Background Colour Transformations
3,100,0,0,0

[TimingPoints]
28,164.898587368768,4,1,0,100,1,0
1348,164.898587368768,4,1,0,80,1,0
1348,-100,4,1,0,80,0,0
11901,-100,4,1,0,85,0,0
22455,-156.25,4,1,0,60,0,0
27731,-100,4,1,0,70,0,0
30370,-200,4,1,0,80,0,0
33008,-100,4,1,0,90,0,0
43562,-89.2857142857143,4,1,0,100,0,0
54115,-156.25,4,1,0,70,0,0
64669,-125,4,1,0,80,0,0
75222,-200,4,1,0,60,0,0
80499,-125,4,1,0,70,0,0
85776,-100,4,1,0,80,0,0
96329,-156.25,4,1,0,50,0,0
98967,-125,4,1,0,65,0,0
101606,-100,4,1,0,80,0,0
106883,-100,4,1,0,80,0,0
117436,-100,4,1,0,90,0,0
127990,-89.2857142857143,4,1,0,100,0,0
138543,-83.3333333333333,4,1,0,100,0,0
147777,-89.2857142857143,4,1,0,90,0,0
148437,-74.0740740740741,4,1,0,90,0,0
149097,-100,4,1,0,80,0,0

[Colours]
Combo1 : 204,213,221
Combo2 : 245,45,10
Combo3 : 237,193,61
Combo4 : 224,224,220
Combo5 : 219,112,100
Combo6 : 250,210,154

[HitObjects]
216,80,28,2,0,P|184:112|112:120,1,105,0|0,0:0|0:0,2:0:0
59,192,193,6,0,P|60:208|60:208|68:205|68:205|65:219|65:219|73:216|73:216|70:230|70:230|77:227|77:227|75:241|75:241|81:238|81:238|80:253|80:253|87:249|87:249|86:263|86:263|93:260|93:260|93:273|93:273|99:269|99:269|99:284|99:284|106:279|106:279|108:292|108:292|114:287|114:287|122:301|122:301|139:302|139:302|163:320|229:306,1,315,2|0,0:0|0:0,0:0:0
296,368,522,6,0,P|308:312|333:270,1,105
408,224,687,6,0,P|472:190,2,52.5
328,176,934,2,0,P|315:126,2,52.5
271,45,1223,2,0,P|213:37,2,52.5
360,32,1348,6,0,P|408:56|408:56|432:104,1,105,8|0,0:0|0:0,0:0:0
280,280,1512,2,0,P|304:328|304:328|352:352,1,105
456,248,1677,2,0,P|432:200|432:200|384:176,1,105
273,166,1842,2,0,P|321:214,2,52.5,0|0|0,0:0|0:0|0:0,0:0:0
184,104,2007,6,0,P|136:88|136:88|80:104,1,105,8|0,0:0|0:0,0:0:0
200,208,2172,2,0,P|152:256,2,52.5,0|0|0,0:0|0:0|0:0,0:0:0
162,350,2337,2,0,P|208:328|208:328|232:280,1,105
125,177,2502,2,0,P|80:200|80:200|56:248,1,105
256,56,2667,6,0,P|256:0,2,52.5,8|8|0,0:0|0:0|0:0,0:0:0
184,104,2832,6,0,P|136:80,2,52.5
328,104,2996,2,0,P|376:80,2,52.5
256,232,3161,2,0,P|256:360,1,105
352,224,3326,2,0,P|376:272,2,52.5,8|0|0,0:0|0:0|0:0,0:0:0
160,224,3491,2,0,P|136:272,2,52.5
192,160,3656,5,8,0:0:0
220,92,3739,1,8,0:0:0
292,92,3821,1,8,0:0:0
320,160,3903,1,8,0:0:0
256,192,3986,6,0,P|256:296,1,105,8|0,0:0|0:0,0:0:0
96,336,4151,2,0,P|48:312,2,52.5
96,192,4316,2,0,P|104:144|96:88,1,105
416,336,4481,2,0,P|464:312,2,52.5
416,192,4645,2,0,P|408:144|416:88,1,105,8|0,0:0|0:0,0:0:0
336,216,4810,6,0,P|344:272|336:320,1,105
256,192,4975,2,0,P|256:136,2,52.5
176,320,5140,2,0,P|168:272|176:216,1,105,0|0,0:0|0:0,0:0:0
96,80,5305,2,0,P|136:120|136:120|184:144,1,105,8|0,0:0|0:0,0:0:0
416,80,5470,2,0,P|376:120|376:120|328:144,1,105
256,88,5635,6,0,P|256:24,1,52.5
400,192,5800,6,0,P|408:246|400:296,1,105
277,268,5965,5,8,0:0:0
215,238,6047,1,8,0:0:0
153,268,6130,1,8,0:0:0
92,238,6212,1,8,0:0:0
32,272,6294,2,2,P|32:336,7,52.5,4|0|0|0|0|0|0|0,0:0|0:0|0:0|0:0|0:0|0:0|0:0|0:0,0:0:0
32,248,6624,6,0,P|40:200|32:144,1,105
136,40,6789,2,0,P|168:88|216:120,1,105
304,232,6954,2,0,P|344:272,2,52.5
208,232,7119,2,0,P|160:280,2,52.5
306,115,7284,2,0,P|344:88|376:40,1,105,8|0,0:0|0:0,0:0:0
456,152,7449,6,0,P|472:216,2,52.5
56,152,7614,2,0,P|40:216,2,52.5
144,256,7779,2,0,P|160:288|160:288|184:312|184:312|200:344,1,105
312,344,7943,2,0,P|328:312|328:312|352:288|352:288|368:256,1,105,8|0,0:0|0:0,0:0:0
256,248,8108,5,8,0:0:0
296,168,8191,1,8,0:0:0
256,88,8273,6,0,P|304:64|304:64|352:88,1,105
216,168,8438,2,0,P|168:192|168:192|120:168,1,105
256,248,8603,2,0,P|280:296|280:296|256:344,1,105,8|0,0:0|0:0,0:0:0
112,304,8768,2,0,P|160:328,2,52.5,2|0|0,0:0|0:0|0:0,0:0:0
384,294,8933,1,8,0:0:0
422,234,9015,1,8,0:0:0
384,174,9098,1,8,0:0:0
430,122,9180,1,8,0:0:0
392,64,9263,6,0,P|352:104,2,52.5,8|0|0,0:0|0:0|0:0,0:0:0
120,64,9428,2,0,P|160:104,2,52.5
192,136,9592,2,0,P|200:192|192:240,1,105
320,240,9757,2,0,P|312:192|320:136,1,105
256,296,9922,2,0,P|256:352,2,52.5,8|0|0,0:0|0:0|0:0,0:0:0
115,184,10087,5,8,0:0:0
60,231,10170,1,8,0:0:0
120,272,10252,6,0,P|152:304|152:304|184:368,1,105
333,357,10417,2,0,P|360:304|360:304|392:272,1,105
456,136,10582,6,0,P|424:136|424:136|416:128|416:128|411:133|411:133|406:129|406:129|335:127|264:56,1,210,4|0,0:0|0:0,0:0:0
120,56,10829,2,0,P|146:73|146:73|149:84|149:84|156:83|156:83|158:89|158:89|216:129|237:227,1,210,4|0,0:0|0:0,0:0:0
104,224,11077,2,0,P|149:294|216:324,1,157.5,4|0,0:0|0:0,0:0:0
262,329,11241,6,0,P|281:384,1,52.5,8|0,0:0|0:0,0:0:0
300,321,11324,2,0,P|330:370,1,52.5,8|0,0:0|0:0,0:0:0
337,304,11406,2,0,P|378:345,1,52.5,8|0,0:0|0:0,0:0:0
368,280,11489,2,0,P|417:310,1,52.5,8|0,0:0|0:0,0:0:0
406,249,11571,6,2,P|454:229,7,52.5,4|0|0|0|0|0|0|0,0:0|0:0|0:0|0:0|0:0|0:0|0:0|0:0,0:0:0
416,224,11901,6,0,P|432:176|432:176|416:120,1,105
94,123,12066,2,0,P|80:176|80:176|96:224,1,105
192,312,12231,2,0,P|176:256,2,52.5
184,184,12396,2,0,P|176:136|184:80,1,105
328,80,12561,2,0,P|336:136|328:184,1,105
320,312,12726,2,0,P|336:256,2,52.5
256,256,12890,2,0,P|256:200,2,52.5
256,128,13055,2,0,P|248:80|256:24,1,105
424,112,13220,6,0,P|432:168|424:216,1,105
352,160,13385,2,0,P|304:200,2,52.5
160,160,13550,2,0,P|208:200,2,52.5
88,208,13715,2,0,P|80:160|88:104,1,105
256,64,13880,2,0,P|256:8,2,52.5
256,320,14045,2,0,P|256:376,2,52.5
344,235,14210,5,8,0:0:0
277,251,14292,1,8,0:0:0
209,235,14374,1,8,0:0:0
142,251,14457,1,8,0:0:0
88,208,14539,6,0,P|40:112,1,105
470,114,14704,2,0,P|424:208,1,105
152,160,14869,2,0,P|104:64,1,105
256,48,15034,2,0,P|256:104,2,52.5
406,66,15199,2,0,P|360:160,1,105
328,256,15364,2,0,P|312:208|312:144,1,105
201,153,15529,2,0,P|200:208|184:256,1,105
256,328,15694,2,0,P|256:384,2,52.5
328,256,15859,6,0,P|368:296|424:320,1,105
416,168,16023,2,0,P|424:224,2,52.5
184,256,16188,2,0,P|144:296|88:320,1,105
96,168,16353,2,0,P|97:119|115:65,1,105
259,53,16518,5,8,0:0:0
319,83,16601,1,8,0:0:0
327,150,16683,1,8,0:0:0
380,196,16766,1,8,0:0:0
416,256,16848,2,2,P|416:320,7,52.5,4|0|0|0|0|0|0|0,0:0|0:0|0:0|0:0|0:0|0:0|0:0|0:0,0:0:0
456,272,17178,6,0,P|464:240|464:240|456:160,1,105
312,328,17343,2,0,P|336:305|336:305|372:234,1,105,0|0,0:0|0:0,0:0:0
160,288,17508,2,0,P|192:282|192:282|262:242,1,105,0|0,0:0|0:0,0:0:0
416,112,17672,6,0,P|456:64,2,52.5
104,80,17837,6,0,P|160:88|160:88|208:80,1,105
408,80,18002,2,0,P|352:88|352:88|304:80,1,105
88,112,18167,6,0,P|40:64,2,52.5
296,200,18332,6,0,P|344:224|344:224|360:272,1,105
256,376,18497,2,0,P|208:352|208:352|192:304,1,105
224,224,18662,5,8,0:0:0
272,288,18744,1,8,0:0:0
328,344,18827,6,0,P|376:352|432:344,1,105
208,64,18992,2,0,P|160:75|112:104,1,105
364,320,19157,2,0,P|413:315|465:293,1,105
182,99,19321,2,0,P|138:122|99:163,1,105
409,242,19486,5,8,0:0:0
425,171,19569,1,8,0:0:0
366,127,19651,1,8,0:0:0
375,56,19734,1,8,0:0:0
312,24,19816,6,0,P|256:40,2,52.5,2|0|0,0:0|0:0|0:0,0:0:0
200,360,19981,2,0,P|256:344,2,52.5,2|0|0,0:0|0:0|0:0,0:0:0
160,152,20146,2,0,P|112:248,1,105
352,232,20311,2,0,P|400:136,1,105
224,24,20476,2,0,P|272:120,1,105
228,208,20641,1,8,0:0:0
264,272,20723,1,8,0:0:0
192,272,20806,2,0,P|128:272,2,52.5,10|0|0,0:0|0:0|0:0,0:0:0
232,336,20970,2,0,P|280:344|336:336,1,105
456,248,21135,6,0,P|456:136|384:56,1,210,4|0,0:0|0:0,0:0:0
56,136,21383,2,0,P|56:248|128:328,1,210,4|0,0:0|0:0,0:0:0
384,320,21630,2,0,P|336:296|376:216|312:184,1,157.5,4|0,0:0|0:0,0:0:0
304,152,21795,6,0,P|256:128,1,52.5,8|0,0:0|0:0,0:0:0
264,104,21877,2,0,P|210:110,1,52.5,8|0,0:0|0:0,0:0:0
200,88,21960,2,0,P|158:122,1,52.5,8|0,0:0|0:0,0:0:0
136,112,22042,2,0,P|119:163,1,52.5,8|0,0:0|0:0,0:0:0
104,168,22125,6,2,P|118:219,7,52.5,4|0|0|0|0|0|0|0,0:0|0:0|0:0|0:0|0:0|0:0|0:0|0:0,0:0:0
136,200,22455,6,0,P|152:264|208:304,1,134.4,2|2,0:0|0:0,0:0:0
384,320,22784,5,2,0:0:0
432,240,22867,1,2,0:0:0
376,312,23032,1,2,0:0:0
384,152,23114,1,2,0:0:0
368,304,23279,1,2,0:0:0
296,104,23361,1,2,0:0:0
360,296,23526,5,2,0:0:0
295,259,23609,1,2,0:0:0
221,267,23691,1,2,0:0:0
158,307,23774,2,0,P|94:283,1,67.2,2|0,0:0|0:0,0:0:0
72,177,23939,2,0,P|136:201,1,67.2,2|0,0:0|0:0,0:0:0
221,135,24104,1,2,0:0:0
152,109,24186,2,0,P|88:85,1,67.2,2|0,0:0|0:0,0:0:0
411,237,24433,6,0,P|435:309,1,67.2,2|0,0:0|0:0,0:0:0
339,245,24598,1,2,0:0:0
316,174,24681,2,0,P|292:102,1,67.2,2|0,0:0|0:0,0:0:0
246,206,24846,1,2,0:0:0
186,248,24928,1,2,0:0:0
128,294,25010,1,2,0:0:0
68,338,25093,2,0,P|12:376,1,67.2,2|0,0:0|0:0,0:0:0
13,267,25258,6,0,P|69:229,1,67.2,2|0,0:0|0:0,0:0:0
95,124,25423,1,2,0:0:0
154,80,25505,2,0,P|210:42,1,67.2,2|0,0:0|0:0,0:0:0
275,302,25752,6,0,P|305:362,1,67.2,2|0,0:0|0:0,0:0:0
205,320,25917,1,2,0:0:0
169,254,26000,2,0,P|137:190,1,67.2,2|0,0:0|0:0,0:0:0
218,120,26165,1,2,0:0:0
253,184,26247,1,2,0:0:0
327,190,26330,1,2,0:0:0
398,174,26412,6,0,P|478:158,1,67.2,4|0,0:0|0:0,0:0:0
101,339,26659,2,0,P|37:299,1,67.2,4|0,0:0|0:0,0:0:0
376,74,26907,2,0,P|440:34,1,67.2,4|0,0:0|0:0,0:0:0
54,179,27154,2,0,P|30:99,1,67.2,4|0,0:0|0:0,0:0:0
90,23,27401,5,8,0:0:0
146,71,27484,1,8,0:0:0
130,142,27566,6,2,P|90:174,3,33.6,6|2|2|2,0:0|0:0|0:0|0:0,0:0:0
162,159,27731,6,0,P|186:207|194:271,1,105,2|0,0:0|0:0,0:0:0
473,310,27896,2,0,P|449:262|441:198,1,105,2|0,0:0|0:0,0:0:0
375,33,28061,1,2,0:0:0
354,104,28144,2,0,P|335:157|291:214,1,105,2|0,0:0|0:0,0:0:0
74,291,28391,5,2,0:0:0
259,253,28556,1,2,0:0:0
194,287,28638,2,0,P|162:327|138:391,1,105,2|0,0:0|0:0,0:0:0
306,349,28803,1,2,0:0:0
371,314,28886,1,2,0:0:0
420,260,28968,2,0,P|444:212|452:148,1,105,2|0,0:0|0:0,0:0:0
81,85,29215,6,0,P|57:133|49:197,1,105,2|0,0:0|0:0,0:0:0
53,352,29380,1,2,0:0:0
103,297,29463,2,0,P|136:251|153:189,1,105,2|0,0:0|0:0,0:0:0
467,92,29710,6,0,P|433:137|416:199,1,105,2|0,0:0|0:0,0:0:0
282,284,29875,1,2,0:0:0
311,217,29957,2,0,P|326:162|320:98,1,105,2|0,0:0|0:0,0:0:0
289,49,30122,1,2,0:0:0
215,42,30205,1,2,0:0:0
162,92,30287,1,2,0:0:0
178,164,30370,6,0,P|186:220,1,52.5,2|0,0:0|0:0,0:0:0
122,300,30535,2,0,P|114:244,1,52.5,2|0,0:0|0:0,0:0:0
238,345,30699,1,2,0:0:0
310,360,30782,2,0,P|366:352,1,52.5,2|0,0:0|0:0,0:0:0
460,229,30947,1,2,0:0:0
402,183,31029,2,0,P|346:191,1,52.5,2|0,0:0|0:0,0:0:0
218,278,31194,1,2,0:0:0
290,261,31277,2,0,P|346:269,1,52.5,2|0,0:0|0:0,0:0:0
365,112,31441,5,2,0:0:0
302,72,31524,1,2,0:0:0
229,60,31606,2,0,P|181:12,1,52.5,2|0,0:0|0:0,0:0:0
54,103,31771,1,2,0:0:0
46,176,31854,2,0,P|89:218,1,52.5,2|0,0:0|0:0,0:0:0
240,195,32019,5,10,0:0:0
307,155,32101,1,10,0:0:0
370,313,32266,1,10,0:0:0
445,331,32348,1,10,0:0:0
228,322,32513,1,10,0:0:0
162,352,32596,1,10,0:0:0
109,303,32678,6,2,P|77:311,7,26.25,6|2|2|2|2|2|2|2,0:0|0:0|0:0|0:0|0:0|0:0|0:0|0:0,0:0:0
124,275,33008,6,0,P|140:227|140:155,1,105,2|0,0:0|0:0,0:0:0
325,66,33173,1,2,0:0:0
327,139,33255,1,2,0:0:0
394,170,33338,2,0,P|400:220|432:284,1,105,2|0,0:0|0:0,0:0:0
253,141,33503,2,0,P|230:95|179:44,1,105,2|0,0:0|0:0,0:0:0
365,321,33668,6,0,P|405:351|473:375,1,105,2|0,0:0|0:0,0:0:0
246,340,33833,1,2,0:0:0
173,329,33915,1,2,0:0:0
123,275,33997,2,0,P|94:233|36:190,1,105,2|0,0:0|0:0,0:0:0
261,229,34162,2,0,P|309:215|369:175,1,105,2|0,0:0|0:0,0:0:0
133,44,34327,6,0,P|91:73|49:131,1,105,2|0,0:0|0:0,0:0:0
346,242,34492,1,2,0:0:0
403,195,34575,1,2,0:0:0
400,121,34657,2,0,P|376:73|328:33,1,105,2|0,0:0|0:0,0:0:0
226,165,34822,1,2,0:0:0
261,228,34904,2,0,P|253:284|221:332,1,105,2|0,0:0|0:0,0:0:0
60,349,35069,5,10,0:0:0
79,277,35152,2,2,P|46:229|2:206,1,105,8|8,0:0|0:0,0:0:0
50,48,35317,1,10,0:0:0
92,107,35399,1,10,0:0:0
165,118,35482,2,10,P|213:134|269:134,1,105
428,263,35646,6,0,P|382:285|343:325,1,105,2|0,0:0|0:0,0:0:0
177,347,35811,5,2,0:0:0
205,278,35894,1,2,0:0:0
268,242,35976,2,0,P|313:219|352:179,1,105,2|0,0:0|0:0,0:0:0
221,72,36141,1,2,0:0:0
148,86,36224,2,0,P|102:63|63:23,1,105,2|0,0:0|0:0,0:0:0
85,190,36388,5,2,0:0:0
143,235,36471,1,2,0:0:0
216,235,36553,2,0,P|259:206|284:147,1,105,2|0,0:0|0:0,0:0:0
398,37,36718,1,2,0:0:0
421,107,36801,2,0,P|429:155|461:211,1,105,2|0,0:0|0:0,0:0:0
320,366,36966,6,0,P|323:317|304:255,1,105,2|0,0:0|0:0,0:0:0
345,100,37130,1,2,0:0:0
276,73,37213,1,2,0:0:0
227,127,37295,2,0,P|191:172|133:208,1,105,2|0,0:0|0:0,0:0:0
149,70,37460,5,2,0:0:0
76,84,37543,2,0,P|45:134|36:184,1,105,2|0,0:0|0:0,0:0:0
100,291,37708,1,2,0:0:0
116,317,37790,1,2,0:0:0
143,332,37873,1,2,0:0:0
173,338,37955,6,2,P|213:378,7,52.5,6|0|0|0|0|0|0|0,0:0|0:0|0:0|0:0|0:0|0:0|0:0|0:0,0:0:0
210,342,38285,6,0,P|258:350|314:342,1,105,2|0,0:0|0:0,0:0:0
153,286,38450,1,2,0:0:0
176,216,38532,1,2,0:0:0
241,181,38615,2,0,P|297:173|345:149,1,105,2|0,0:0|0:0,0:0:0
400,110,38779,5,2,0:0:0
64,135,38944,1,2,0:0:0
437,184,39109,5,2,0:0:0
363,176,39192,1,2,0:0:0
324,113,39274,2,0,P|277:93|235:56,1,105,2|0,0:0|0:0,0:0:0
138,190,39439,2,0,P|90:206|34:206,1,105,2|0,0:0|0:0,0:0:0
310,291,39604,2,0,P|359:299|409:325,1,105,2|0,0:0|0:0,0:0:0
238,331,39769,5,2,0:0:0
167,350,39851,1,2,0:0:0
98,320,39934,2,0,P|42:304|-6:264,1,105,2|0,0:0|0:0,0:0:0
160,272,40099,1,2,0:0:0
218,228,40181,2,2,P|261:190|287:138,2,105,2|0|0,0:0|0:0|0:0,0:0:0
150,199,40428,5,2,0:0:0
89,156,40511,1,2,0:0:0
92,82,40593,2,0,P|58:40|7:20,1,105
254,58,40758,2,0,P|302:66|366:50,1,105,2|0,0:0|0:0,0:0:0
492,167,40923,6,0,P|452:207|428:255,1,105,2|0,0:0|0:0,0:0:0
381,305,41088,1,2,0:0:0
317,342,41171,1,2,0:0:0
247,319,41253,2,0,P|239:263|215:207,1,105,2|0,0:0|0:0,0:0:0
222,144,41418,1,2,0:0:0
294,138,41500,2,0,P|342:154|422:146,1,105,2|0,0:0|0:0,0:0:0
433,216,41665,5,2,0:0:0
380,267,41748,2,0,P|396:315|436:355,1,105,2|0,0:0|0:0,0:0:0
264,350,41913,1,2,0:0:0
192,364,41995,1,2,0:0:0
119,352,42077,2,0,P|71:336|23:304,1,105,2|0,0:0|0:0,0:0:0
64,64,42242,6,0,P|136:160|272:144,1,262.5,4|0,0:0|0:0,0:0:0
240,72,42490,2,0,P|144:120|144:264,1,262.5,4|0,0:0|0:0,0:0:0
216,272,42737,2,0,P|272:296|360:264,1,157.5,4|0,0:0|0:0,0:0:0
392,224,42902,6,0,P|424:280,1,52.5,8|0,0:0|0:0,0:0:0
400,176,42984,2,0,P|446:221,1,52.5,8|0,0:0|0:0,0:0:0
384,128,43067,2,0,P|440:158,1,52.5,8|0,0:0|0:0,0:0:0
360,88,43149,2,0,P|423:101,1,52.5,8|0,0:0|0:0,0:0:0
328,56,43232,6,2,P|376:24,7,52.5,6|2|2|2|2|2|2|2,0:0|0:0|0:0|0:0|0:0|0:0|0:0|0:0,0:0:0
304,72,43562,6,0,P|184:88,1,117.600001435547,2|0,0:0|0:0,0:0:0
120,210,43726,1,2,0:0:0
184,238,43809,1,2,0:0:0
251,217,43891,2,0,P|370:167,1,117.600001435547,2|0,0:0|0:0,0:0:0
176,168,44056,1,2,0:0:0
113,133,44139,2,0,P|-3:60,1,117.600001435547,2|0,0:0|0:0,0:0:0
128,281,44304,5,2,0:0:0
191,310,44386,2,0,P|315:373,1,117.600001435547,2|0,0:0|0:0,0:0:0
303,265,44551,1,2,0:0:0
365,233,44633,1,2,0:0:0
409,177,44716,2,0,P|444:61,1,117.600001435547,2|0,0:0|0:0,0:0:0
362,304,44881,6,0,P|482:344,1,117.600001435547,2|0,0:0|0:0,0:0:0
301,191,45046,1,2,0:0:0
237,220,45128,1,2,0:0:0
173,251,45211,2,0,P|64:304,1,117.600001435547,2|0,0:0|0:0,0:0:0
71,95,45375,1,2,0:0:0
139,113,45458,2,0,P|265:134,1,117.600001435547,2|0,0:0|0:0,0:0:0
418,107,45623,5,2,0:0:0
474,148,45705,1,2,0:0:0
465,218,45788,2,0,P|369:294,1,117.600001435547,2|0,0:0|0:0,0:0:0
187,321,45953,1,2,0:0:0
131,278,46035,1,2,0:0:0
121,208,46117,1,2,0:0:0
147,142,46200,6,0,P|195:22,1,117.600001435547,2|0,0:0|0:0,0:0:0
337,71,46365,1,2,0:0:0
386,120,46447,1,2,0:0:0
371,189,46530,2,0,P|328:318,1,117.600001435547,2|0,0:0|0:0,0:0:0
237,112,46695,1,2,0:0:0
211,177,46777,2,0,P|163:297,1,117.600001435547,2|0,0:0|0:0,0:0:0
249,284,46942,5,2,0:0:0
274,218,47024,1,2,0:0:0
300,152,47107,2,0,P|341:35,1,117.600001435547,2|2,0:0|0:0,0:0:0
175,64,47272,1,2,0:0:0
118,80,47354,1,2,0:0:0
87,130,47437,1,2,0:0:0
79,187,47519,6,0,P|111:315,1,117.600001435547,2|0,0:0|0:0,0:0:0
257,347,47684,1,2,0:0:0
314,339,47766,1,2,0:0:0
353,294,47849,2,0,P|321:166,1,117.600001435547,2|0,0:0|0:0,0:0:0
205,115,48014,5,2,0:0:0
159,151,48096,1,2,0:0:0
135,205,48179,2,2,P|90:321,1,117.600001435547
254,306,48344,1,2,0:0:0
304,276,48426,1,2,0:0:0
342,232,48508,6,2,P|374:176,7,58.8000007177734,4|0|0|0|0|0|0|0,0:0|0:0|0:0|0:0|0:0|0:0|0:0|0:0,0:0:0
373,232,48838,6,0,P|437:240|437:240|501:232,1,117.600001435547,2|0,0:0|0:0,0:0:0
372,84,49003,1,2,0:0:0
318,37,49086,1,2,0:0:0
247,38,49168,2,0,P|183:46|183:46|119:38,1,117.600001435547,2|0,0:0|0:0,0:0:0
211,256,49333,1,2,0:0:0
273,302,49415,2,0,P|379:373,1,117.600001435547,2|0,0:0|0:0,0:0:0
214,155,49663,5,2,0:0:0
144,141,49746,1,2,0:0:0
95,191,49828,2,0,P|5:289,1,117.600001435547,2|0,0:0|0:0,0:0:0
307,136,49993,2,0,P|425:80,1,117.600001435547,2|0,0:0|0:0,0:0:0
397,298,50157,2,0,P|503:363,1,117.600001435547,2|0,0:0|0:0,0:0:0
247,308,50322,5,2,0:0:0
177,293,50405,1,2,0:0:0
134,237,50487,2,0,P|78:133,1,117.600001435547,2|0,0:0|0:0,0:0:0
298,68,50652,1,2,0:0:0
364,93,50735,2,0,P|445:191,1,117.600001435547,2|2,0:0|0:0,0:0:0
344,218,50900,5,2,0:0:0
378,279,50982,1,2,0:0:0
329,329,51064,2,0,P|221:386,1,117.600001435547,2|2,0:0|0:0,0:0:0
55,262,51229,1,2,0:0:0
29,195,51312,1,2,0:0:0
47,127,51394,1,2,0:0:0
100,80,51477,6,0,P|153:52|153:52|228:40,1,117.600001435547,2|0,0:0|0:0,0:0:0
435,132,51642,1,2,0:0:0
461,197,51724,1,2,0:0:0
455,266,51806,2,0,P|412:309|412:309|354:338,1,117.600001435547,2|0,0:0|0:0,0:0:0
297,366,51971,1,2,0:0:0
228,53,52136,5,2,0:0:0
205,107,52219,1,2,0:0:0
182,160,52301,2,0,P|128:287,1,117.600001435547,2|0,0:0|0:0,0:0:0
255,304,52466,1,2,0:0:0
277,249,52549,1,2,0:0:0
300,195,52631,1,2,0:0:0
321,140,52713,1,2,0:0:0
131,38,52796,6,0,P|107:158|35:262,1,235.200002871094,4|0,0:0|0:0,0:0:0
337,347,53043,2,0,P|361:227|433:123,1,235.200002871094,4|0,0:0|0:0,0:0:0
256,32,53291,2,0,P|192:104|176:192,1,176.40000215332,4|0,0:0|0:0,0:0:0
168,208,53455,6,0,P|112:240,1,58.8000007177734,8|0,0:0|0:0,0:0:0
179,238,53538,2,0,P|138:288,1,58.8000007177734,8|0,0:0|0:0,0:0:0
201,262,53620,2,0,P|181:324,1,58.8000007177734,8|0,0:0|0:0,0:0:0
230,277,53703,2,0,P|233:342,1,58.8000007177734,8|0,0:0|0:0,0:0:0
264,304,53785,6,2,P|320:344,7,58.8000007177734,6|2|2|2|2|2|2|2,0:0|0:0|0:0|0:0|0:0|0:0|0:0|0:0,0:0:0
296,304,54115,6,0,P|288:240|288:240|296:168,1,134.4
352,360,54445,1,0,0:0:0
200,88,54610,2,0,P|208:160|208:160|200:224,1,134.4
136,40,54940,5,8,0:0:0
64,352,55104,1,8,0:0:0
448,96,55269,1,8,0:0:0
200,216,55434,2,0,P|192:288|192:288|200:352,1,134.4,8|0,0:0|0:0,0:0:0
144,160,55764,1,0,0:0:0
320,192,55929,2,0,P|328:128|328:128|320:56,1,134.4
368,256,56259,5,0,0:0:0
376,264,56424,5,2,0:0:0
256,192,56506,1,2,0:0:0
136,120,56589,1,2,0:0:0
128,112,56753,6,0,P|192:88|192:88|256:32,1,134.4
48,88,57083,1,0,0:0:0
384,272,57248,2,0,P|320:296|320:296|256:352,1,134.4
464,296,57578,5,8,0:0:0
40,192,57743,1,8,0:0:0
448,64,57908,1,8,0:0:0
144,72,58073,2,0,P|200:104|200:104|272:120,1,134.4,8|0,0:0|0:0,0:0:0
64,72,58402,1,2,0:0:0
368,312,58567,2,0,P|312:280|312:280|240:264,1,134.4,0|2,0:0|0:0,0:0:0
184,248,58815,5,2,0:0:0
120,232,58897,1,2,0:0:0
112,240,59062,5,2,0:0:0
136,184,59144,1,2,0:0:0
160,128,59227,1,2,0:0:0
168,120,59392,6,0,P|232:128|304:112,1,134.4
80,64,59722,1,0,0:0:0
344,264,59886,2,0,P|280:256|208:272,1,134.4
432,320,60216,5,8,0:0:0
256,32,60381,1,8,0:0:0
80,320,60546,1,8,0:0:0
392,144,60711,2,0,P|400:80|440:16,1,134.4,8|0,0:0|0:0,0:0:0
416,232,61041,1,2,0:0:0
120,240,61206,2,0,P|112:304|72:368,1,134.4
96,152,61535,6,0,P|64:80,1,67.2,2|0,0:0|0:0,0:0:0
256,288,61700,2,0,P|256:360,1,67.2,2|0,0:0|0:0,0:0:0
416,152,61865,2,0,P|448:80,1,67.2,2|0,0:0|0:0,0:0:0
216,208,62030,2,0,P|208:136|184:64,1,134.4,2|0,0:0|0:0,0:0:0
256,24,62360,1,2,0:0:0
296,208,62525,2,0,P|304:136|328:64,1,134.4,2|0,0:0|0:0,0:0:0
256,288,62855,5,8,0:0:0
40,344,63020,1,8,0:0:0
472,344,63184,1,8,0:0:0
32,152,63349,2,0,P|80:208|80:208|144:232,1,134.4,8|0,0:0|0:0,0:0:0
256,368,63679,1,0,0:0:0
480,152,63844,2,0,P|432:208|432:208|368:232,1,134.4
315,258,64091,5,2,0:0:0
248,280,64174,1,2,0:0:0
256,296,64339,5,2,0:0:0
188,267,64421,1,2,0:0:0
136,213,64504,1,2,0:0:0
108,144,64586,1,2,0:0:0
104,68,64669,6,0,P|176:28|264:36,1,168,2|0,0:0|0:0,0:0:0
408,304,64998,2,0,P|336:344|248:336,1,168
48,184,65328,2,0,P|37:102|78:23,1,168
464,200,65658,2,0,P|474:281|433:360,1,168
120,312,65988,2,0,P|48:270|10:191,1,168
392,72,66318,2,0,P|464:114,1,84,2|0,0:0|0:0,0:0:0
456,128,66482,2,0,P|368:136|368:136|288:112,1,168
168,112,66812,6,0,P|136:32,1,84
232,160,66977,5,2,0:0:0
280,224,67060,1,2,0:0:0
344,272,67142,2,0,P|376:352,1,84,2|0,0:0|0:0,0:0:0
56,256,67307,6,0,P|144:248|144:248|224:272,1,168
504,208,67637,2,0,P|424:224|328:208,1,168
8,176,67967,2,0,P|88:160|184:176,1,168
405,320,68296,2,0,P|329:279|284:194,1,168
106,63,68626,2,0,P|182:104|227:189,1,168
176,320,68956,2,0,P|224:240,1,84,2|0,0:0|0:0,0:0:0
288,136,69121,2,0,P|342:69|434:40,1,168
432,40,69368,5,2,0:0:0
448,40,69451,1,2,0:0:0
64,344,69616,5,2,0:0:0
80,344,69698,1,2,0:0:0
143,304,69780,1,2,0:0:0
157,229,69863,1,2,0:0:0
136,152,69945,6,0,P|218:125|279:57,1,168,2|0,0:0|0:0,0:0:0
376,232,70275,2,0,P|294:259|233:327,1,168,2|0,0:0|0:0,0:0:0
48,104,70605,2,0,P|134:111|216:72,1,168,2|0,0:0|0:0,0:0:0
16,192,70935,2,0,P|104:192,1,84,2|0,0:0|0:0,0:0:0
464,280,71100,2,0,P|377:272|295:311,1,168,2|0,0:0|0:0,0:0:0
496,192,71429,2,0,P|408:192,1,84,2|0,0:0|0:0,0:0:0
48,104,71594,2,0,P|134:111|216:72,1,168,2|0,0:0|0:0,0:0:0
304,80,71924,5,8,0:0:0
208,304,72089,1,8,0:0:0
448,48,72254,1,10,0:0:0
64,336,72419,1,10,0:0:0
440,336,72584,6,0,P|376:304|376:304|328:208,1,168,2|0,0:0|0:0,0:0:0
72,48,72913,2,0,P|136:80|136:80|184:176,1,168,2|0,0:0|0:0,0:0:0
432,128,73243,2,0,P|336:112|264:128,1,168,2|0,0:0|0:0,0:0:0
280,8,73573,2,0,P|256:40|216:64,1,84,2|0,0:0|0:0,0:0:0
80,256,73738,2,0,P|176:272|248:256,1,168,2|0,0:0|0:0,0:0:0
232,376,74068,2,0,P|256:344|296:320,1,84,2|0,0:0|0:0,0:0:0
432,128,74233,2,0,P|336:112,1,84,2|0,0:0|0:0,0:0:0
162,114,74398,2,0,P|80:128,1,84,2|0,0:0|0:0,0:0:0
32,192,74562,5,2,0:0:0
80,256,74645,1,0,0:0:0
154,243,74727,1,2,0:0:0
480,192,74892,1,2,0:0:0
432,256,74975,1,0,0:0:0
358,239,75057,1,2,0:0:0
254,201,75222,6,0,P|282:157|284:88,1,105,6|0,0:0|0:0,0:0:0
240,48,75552,5,2,0:0:0
176,120,75634,1,2,0:0:0
232,64,75799,1,2,0:0:0
166,192,75882,1,2,0:0:0
235,79,76047,1,2,0:0:0
187,268,76129,2,0,P|209:322,1,52.5,2|0,0:0|0:0,0:0:0
277,350,76294,5,2,0:0:0
348,353,76376,1,2,0:0:0
411,323,76459,1,2,0:0:0
433,256,76541,2,0,P|489:240,1,52.5,2|0,0:0|0:0,0:0:0
378,181,76706,2,0,P|322:197,1,52.5,2|0,0:0|0:0,0:0:0
352,89,76871,1,2,0:0:0
419,68,76954,2,0,P|475:52,1,52.5,2|0,0:0|0:0,0:0:0
88,96,77201,6,0,P|56:48,1,52.5,2|0,0:0|0:0,0:0:0
32,168,77366,1,2,0:0:0
74,226,77448,2,0,P|106:274,1,52.5,2|0,0:0|0:0,0:0:0
151,322,77613,5,2,0:0:0
212,287,77696,1,2,0:0:0
241,223,77778,1,2,0:0:0
247,152,77860,2,0,P|279:88,1,52.5,2|0,0:0|0:0,0:0:0
392,112,78025,6,0,P|368:160,1,52.5,2|0,0:0|0:0,0:0:0
430,278,78190,1,2,0:0:0
464,216,78273,2,0,P|488:168,1,52.5,2|0,0:0|0:0,0:0:0
280,312,78520,2,0,P|248:368,1,52.5,2|0,0:0|0:0,0:0:0
127,188,78685,1,2,0:0:0
88,128,78767,2,0,P|56:72,1,52.5,2|0,0:0|0:0,0:0:0
143,40,78932,1,2,0:0:0
203,78,79015,1,2,0:0:0
276,79,79097,1,2,0:0:0
342,52,79180,6,0,P|406:28,1,52.5,8|0,0:0|0:0,0:0:0
80,312,79427,2,0,P|40:360,1,52.5,8|0,0:0|0:0,0:0:0
416,312,79674,2,0,P|448:376,1,52.5,8|0,0:0|0:0,0:0:0
128,88,79922,2,0,P|96:32,1,52.5,8|0,0:0|0:0,0:0:0
318,318,80169,5,8,0:0:0
360,248,80251,1,8,0:0:0
296,200,80334,6,2,P|272:224,3,26.25,4|0|0|0,0:0|0:0|0:0|0:0,0:0:0
320,176,80499,6,0,P|328:128|352:88,1,84,2|0,0:0|0:0,0:0:0
128,224,80664,2,0,P|120:272|96:312,1,84,2|0,0:0|0:0,0:0:0
72,96,80829,1,2,0:0:0
128,48,80911,2,0,P|200:80|296:48,1,168,2|0,0:0|0:0,0:0:0
192,288,81158,6,0,P|240:296|280:320,1,84,2|0,0:0|0:0,0:0:0
336,344,81323,1,2,0:0:0
368,280,81406,2,0,P|384:232|416:192,1,84,2|0,0:0|0:0,0:0:0
400,56,81571,1,2,0:0:0
392,128,81653,1,2,0:0:0
320,152,81736,1,2,0:0:0
248,136,81818,6,0,P|199:130|155:109,1,84,2|0,0:0|0:0,0:0:0
56,304,81983,2,0,P|96:320|136:352,1,84,2|0,0:0|0:0,0:0:0
232,216,82148,1,2,0:0:0
192,288,82230,2,0,P|272:312|368:296,1,168,2|0,0:0|0:0,0:0:0
136,224,82478,6,0,P|120:192|80:160,1,84,2|0,0:0|0:0,0:0:0
24,120,82643,1,2,0:0:0
88,88,82725,2,0,P|128:72|168:32,1,84,2|0,0:0|0:0,0:0:0
240,128,82890,1,2,0:0:0
264,200,82972,1,2,0:0:0
336,224,83055,1,2,0:0:0
352,296,83137,6,0,P|392:320|416:368,1,84,2|0,0:0|0:0,0:0:0
384,120,83302,2,0,P|360:88|344:40,1,84,2|0,0:0|0:0,0:0:0
258,215,83467,1,2,0:0:0
210,271,83549,2,0,P|186:303|138:335,1,84,2|0,0:0|0:0,0:0:0
344,216,83714,1,2,0:0:0
408,248,83797,2,0,P|448:272|496:280,1,84,2|0,0:0|0:0,0:0:0
216,144,83962,5,2,0:0:0
152,104,84044,2,0,P|112:80|72:40,1,84,2|0,0:0|0:0,0:0:0
280,256,84209,1,2,0:0:0
336,208,84291,1,2,0:0:0
352,136,84374,2,0,P|384:104|408:56,1,84,2|0,0:0|0:0,0:0:0
121,222,84539,1,2,0:0:0
142,293,84621,2,0,P|170:329|189:371,1,84,2|0,0:0|0:0,0:0:0
266,144,84786,5,2,0:0:0
224,80,84869,2,0,P|208:40|184:0,1,84,2|0,0:0|0:0,0:0:0
352,272,85034,1,2,0:0:0
408,320,85116,2,0,P|440:344|496:360,1,84,2|0,0:0|0:0,0:0:0
208,280,85281,5,8,0:0:0
176,216,85363,1,8,0:0:0
144,152,85446,6,2,P|152:104,7,42,6|2|2|2|2|2|2|2,0:0|0:0|0:0|0:0|0:0|0:0|0:0|0:0,0:0:0
120,168,85776,1,0,0:0:0
86,286,85940,1,0,0:0:0
264,360,86105,1,0,0:0:0
440,80,86270,1,0,0:0:0
200,64,86435,1,0,0:0:0
456,160,86600,2,0,P|464:216|464:216|456:272,1,105
216,144,86765,2,0,P|224:200|224:200|216:256,1,105
432,336,86930,5,0,0:0:0
232,352,87095,1,0,0:0:0
368,288,87260,2,0,P|342:243|342:243|339:182,1,105
160,320,87425,2,0,P|134:275|134:275|131:214,1,105
376,128,87589,1,0,0:0:0
141,151,87754,1,0,0:0:0
216,48,87919,1,0,0:0:0
219,57,88084,5,8,0:0:0
251,121,88167,1,8,0:0:0
283,185,88249,1,8,0:0:0
315,249,88332,1,8,0:0:0
352,312,88414,6,0,P|456:336,1,105,8|0,0:0|0:0,0:0:0
128,312,88579,2,0,P|72:360,2,52.5
144,216,88744,2,0,P|40:240,1,105
408,216,88909,2,0,P|464:264,2,52.5
360,120,89074,2,0,P|464:144,1,105,8|0,0:0|0:0,0:0:0
152,112,89238,2,0,P|48:136,1,105
256,272,89403,2,0,P|256:384,1,105
256,64,89568,2,0,P|256:8,2,52.5
128,96,89733,6,0,P|32:48,1,105,8|0,0:0|0:0,0:0:0
392,104,89898,2,0,P|448:88,2,52.5
368,192,90063,2,0,P|464:240,1,105
160,216,90228,2,0,P|64:288,1,105
360,352,90393,5,8,0:0:0
320,288,90475,1,8,0:0:0
288,224,90558,1,8,0:0:0
256,160,90640,1,8,0:0:0
216,96,90723,6,2,P|192:40,7,52.5,6|2|2|2|2|2|2|2,0:0|0:0|0:0|0:0|0:0|0:0|0:0|0:0,0:0:0
184,112,91052,6,0,P|176:168|144:216,1,105,8|0,0:0|0:0,0:0:0
144,344,91217,2,0,P|189:310|245:298,1,105
344,152,91382,2,0,P|377:197|389:253,1,105
464,344,91547,6,2,P|488:280,3,52.5
432,352,91712,6,0,P|376:344|376:344|320:320,1,105,8|0,0:0|0:0,0:0:0
40,256,91877,2,0,P|91:232|91:232|151:221,1,105
256,176,92042,6,2,P|264:112,3,52.5
252,206,92207,6,0,P|244:260|244:260|220:310,1,105,0|0,0:0|0:0,0:0:0
152,48,92372,2,0,P|160:104|192:152,1,105,8|0,0:0|0:0,0:0:0
379,87,92536,2,0,P|363:141|323:183,1,105
88,136,92701,2,0,P|112:186|158:222,1,105,8|0,0:0|0:0,0:0:0
408,144,92866,2,0,P|376:190|325:218,1,105
48,232,93031,2,0,P|87:272|141:292,1,105,8|0,0:0|0:0,0:0:0
418,207,93196,2,0,P|373:240|316:252,1,105
16,352,93361,5,8,0:0:0
88,368,93443,1,8,0:0:0
160,352,93526,1,8,0:0:0
232,368,93608,1,8,0:0:0
298,340,93691,6,0,P|306:284|298:228,1,105
214,44,93856,2,0,P|206:100|214:156,1,105
175,315,94021,2,0,P|191:267|231:219,1,105
337,69,94185,2,0,P|321:117|281:165,1,105
76,263,94350,2,0,P|115:234|155:183,1,105,8|0,0:0|0:0,0:0:0
436,121,94515,2,0,P|396:149|356:200,1,105,8|0,0:0|0:0,0:0:0
144,72,94680,2,0,P|167:113|215:145,1,105
367,311,94845,2,0,P|345:271|297:239,1,105
26,193,95010,6,0,P|51:248|51:248|87:265|87:265|146:369,1,210,4|0,0:0|0:0,0:0:0
186,355,95257,2,0,P|233:317|233:317|242:277|242:277|287:255|287:255|330:197,1,210,4|0,0:0|0:0,0:0:0
283,179,95505,2,0,P|204:159|164:79,1,157.5,4|0,0:0|0:0,0:0:0
208,72,95669,6,0,P|192:8,1,52.5,8|0,0:0|0:0,0:0:0
247,63,95752,2,0,P|251:-2,1,52.5,8|0,0:0|0:0,0:0:0
287,66,95834,2,0,P|312:5,1,52.5,8|0,0:0|0:0,0:0:0
324,82,95917,2,0,P|367:32,1,52.5,8|0,0:0|0:0,0:0:0
360,112,95999,6,2,P|408:144,7,52.5,6|2|2|2|2|2|2|2,0:0|0:0|0:0|0:0|0:0|0:0|0:0|0:0,0:0:0
368,160,96329,6,0,P|392:224|368:288,1,134.4
304,224,96659,2,0,P|144:224,1,134.4
112,160,96989,2,0,P|88:224|112:288,1,134.4,0|0,0:0|0:0,0:0:0
192,144,97318,2,0,P|240:96|272:24,1,134.4
192,304,97648,2,0,P|264:312|336:344,1,134.4
32,192,97978,1,0,0:0:0
480,192,98143,2,0,P|400:200|344:184,1,134.4
48,80,98473,5,8,0:0:0
424,336,98638,1,8,0:0:0
128,32,98803,1,8,0:0:0
336,288,98967,6,0,P|256:280|168:312,1,168
208,48,99297,2,0,P|297:59|384:48,1,168
240,128,99627,2,0,P|152:128|64:152,1,168
304,168,99957,2,0,P|376:200|488:208,1,168
232,208,100287,2,0,P|160:248|64:280,1,168,8|0,0:0|0:0,0:0:0
448,40,100616,1,8,0:0:0
2,169,100781,2,0,P|82:153|186:161,1,168,8|0,0:0|0:0,0:0:0
456,336,101111,6,0,P|376:280,1,84,8|0,0:0|0:0,0:0:0
309,149,101276,2,0,P|392:136,1,84,8|0,0:0|0:0,0:0:0
192,56,101441,2,0,P|136:136,1,84,8|0,0:0|0:0,0:0:0
32,232,101606,6,0,P|120:232|120:232|144:248|144:248|240:248,1,210,8|0,0:0|0:0,0:0:0
448,352,101936,2,0,P|376:352|376:352|352:336|352:336|240:336,1,210
184,168,102265,2,0,P|280:168|280:168|304:152|304:152|392:152,1,210
480,248,102595,2,0,P|376:248,1,105
240,88,102760,2,0,P|144:88|144:88|120:72|120:72|32:72,1,210
16,336,103090,2,0,P|144:336,1,105
320,40,103255,2,0,P|416:72|416:72|480:160,1,210
344,128,103585,6,0,P|264:208,1,105,8|0,0:0|0:0,0:0:0
24,232,103750,2,0,P|104:152,1,105,8|0,0:0|0:0,0:0:0
472,256,103914,2,0,P|392:320|392:320|288:352,1,210,8|0,0:0|0:0,0:0:0
48,48,104244,6,0,P|136:88|248:56,1,210
312,120,104574,2,0,P|232:184|208:288,1,210
120,296,104904,2,0,P|88:184|8:128,1,210
48,48,105234,2,0,P|104:40|152:48,1,105
477,335,105399,2,0,P|371:320|275:257,1,210
111,337,105728,2,0,P|164:319|204:291,1,105
472,48,105893,2,0,P|368:24|256:48,1,210
15,193,106223,2,0,P|116:215|231:201,1,210,8|0,0:0|0:0,0:0:0
368,192,106553,6,2,P|432:184,3,52.5,6|2|2|2,0:0|0:0|0:0|0:0,0:0:0
328,208,106718,6,2,P|280:216,5,26.25
336,176,106883,6,0,P|304:88|192:72,1,210,2|0,0:0|0:0,0:0:0
224,280,107212,2,0,P|152:360,2,105,2|0|0,0:0|0:0|0:0,0:0:0
408,88,107542,2,0,P|504:40,2,105,2|0|0,0:0|0:0|0:0,0:0:0
104,112,107872,2,0,P|16:24,2,105,2|0|0,0:0|0:0|0:0,0:0:0
120,240,108202,2,0,P|216:176|312:216,1,210,2|0,0:0|0:0,0:0:0
448,336,108532,2,0,P|336:328,1,105,2|0,0:0|0:0,0:0:0
336,88,108696,2,0,P|440:81,2,105,2|0|0,0:0|0:0|0:0,0:0:0
32,152,109026,5,8,0:0:0
456,200,109191,1,8,0:0:0
112,264,109356,1,8,0:0:0
408,128,109521,6,0,P|450:96|488:40,2,105,2|0|0,0:0|0:0|0:0,0:0:0
416,304,109851,2,0,P|312:288|240:208,1,210,2|0,0:0|0:0,0:0:0
272,64,110181,2,0,P|152:72|88:128,1,210,2|0,0:0|0:0,0:0:0
184,328,110510,2,0,P|304:296|344:208,1,210,2|0,0:0|0:0,0:0:0
200,200,110840,2,0,P|176:88|88:48,1,210,2|0,0:0|0:0,0:0:0
80,176,111170,6,0,P|0:256,1,105,2|0,0:0|0:0,0:0:0
464,40,111335,2,0,P|408:144|456:232,1,210,2|0,0:0|0:0,0:0:0
440,336,111665,2,0,P|360:256,1,105,8|0,0:0|0:0,0:0:0
88,48,111830,2,0,P|168:128,1,105,8|0,0:0|0:0,0:0:0
416,352,111994,2,0,P|336:272,1,105,8|0,0:0|0:0,0:0:0
80,64,112159,6,0,P|240:224,1,210,10|0,0:0|0:0,0:0:0
296,160,112489,2,0,P|304:112|304:112|344:56,2,105,2|0|0,0:0|0:0|0:0,0:0:0
46,288,112819,2,0,P|152:304|152:304|256:288,1,210,2|0,0:0|0:0,0:0:0
16,200,113149,2,0,P|136:216,1,105,2|0,0:0|0:0,0:0:0
448,216,113314,2,0,P|344:192|344:192|232:216,1,210,2|0,0:0|0:0,0:0:0
64,104,113643,6,0,P|176:88,1,105,2|0,0:0|0:0,0:0:0
448,280,113808,2,0,P|336:296,1,105,8|0,0:0|0:0,0:0:0
128,176,113973,2,0,P|240:192,1,105,2|0,0:0|0:0,0:0:0
424,144,114138,2,0,P|328:200,1,105,8|0,0:0|0:0,0:0:0
176,352,114303,2,0,P|104:248,1,105,2|0,0:0|0:0,0:0:0
288,104,114468,6,0,P|368:48|496:64,1,210,10|0,0:0|0:0,0:0:0
384,240,114798,2,0,P|267:269|176:240,1,210,2|0,0:0|0:0,0:0:0
56,320,115128,2,0,P|32:224|72:120,1,210,2|0,0:0|0:0,0:0:0
288,104,115457,2,0,P|392:144|504:104,1,210,2|0,0:0|0:0,0:0:0
392,32,115787,1,2,0:0:0
408,272,115952,2,0,P|304:240|200:256,1,210,2|0,0:0|0:0,0:0:0
168,48,116282,6,0,P|168:152,1,105,2|0,0:0|0:0,0:0:0
296,352,116447,2,0,P|296:248,1,105,2|0,0:0|0:0,0:0:0
320,40,116612,1,8,0:0:0
80,136,116777,2,0,P|80:240,1,105,2|0,0:0|0:0,0:0:0
200,384,116941,2,0,P|200:256,1,105,2|0,0:0|0:0,0:0:0
392,80,117106,2,0,P|392:200,1,105,2|0,0:0|0:0,0:0:0
464,344,117271,2,0,P|464:216,1,105,2|0,0:0|0:0,0:0:0
256,192,117436,5,0,0:0:0
200,89,117601,1,2,0:0:0
143,134,117683,1,2,0:0:0
133,207,117766,1,2,0:0:0
312,48,117931,1,0,0:0:0
178,300,118096,2,0,P|234:302|288:332,1,105
434,121,118261,1,2,0:0:0
493,167,118343,1,2,0:0:0
456,232,118425,6,0,P|408:256|360:304,1,105,2|0,0:0|0:0,0:0:0
344,200,118590,2,0,P|288:216|232:200,1,105,2|0,0:0|0:0,0:0:0
264,128,118755,2,0,P|208:112|152:120,1,105,2|0,0:0|0:0,0:0:0
57,191,118920,1,2,0:0:0
34,261,119003,1,2,0:0:0
71,323,119085,1,2,0:0:0
333,336,119250,5,2,0:0:0
406,337,119332,2,2,P|449:311|466:246,1,105
484,156,119497,1,2,0:0:0
439,96,119580,1,2,0:0:0
368,78,119662,1,2,0:0:0
294,70,119745,2,0,P|237:62|186:36,1,105,2|0,0:0|0:0,0:0:0
61,150,119910,2,0,P|118:158|176:188,1,105,2|0,0:0|0:0,0:0:0
285,345,120074,6,0,P|231:348|173:332,1,105,2|0,0:0|0:0,0:0:0
262,168,120239,1,2,0:0:0
276,240,120322,1,2,0:0:0
346,259,120404,2,0,P|403:244|440:205,1,105,2|0,0:0|0:0,0:0:0
209,90,120569,1,2,0:0:0
136,75,120652,2,0,P|75:68|18:35,1,105,2|0,0:0|0:0,0:0:0
248,106,120817,5,2,0:0:0
312,70,120899,1,2,0:0:0
384,79,120981,1,2,0:0:0
433,134,121064,1,2,0:0:0
431,207,121146,1,2,0:0:0
389,268,121229,2,0,P|363:317|360:376,1,105,2|0,0:0|0:0,0:0:0
158,296,121394,6,0,P|142:244|100:195,1,105,2|0,0:0|0:0,0:0:0
319,238,121559,1,2,0:0:0
266,186,121641,1,2,0:0:0
239,117,121723,2,0,P|256:64|253:5,1,105,2|0,0:0|0:0,0:0:0
118,100,121888,1,2,0:0:0
63,149,121971,2,0,P|29:196|15:247,1,105,2|0,0:0|0:0,0:0:0
244,319,122136,5,8,0:0:0
304,359,122218,1,8,0:0:0
377,362,122301,1,8,0:0:0
440,326,122383,6,2,P|476:278,7,52.5,6|2|2|2|2|2|2|2,0:0|0:0|0:0|0:0|0:0|0:0|0:0|0:0,0:0:0
438,284,122713,6,0,P|423:174,1,105,2|0,0:0|0:0,0:0:0
312,81,122878,1,2,0:0:0
239,68,122960,1,2,0:0:0
165,67,123043,2,0,P|47:89,1,105,2|0,0:0|0:0,0:0:0
42,220,123208,1,2,0:0:0
113,233,123290,2,0,P|227:248,1,105,2|0,0:0|0:0,0:0:0
305,336,123455,5,2,0:0:0
375,316,123537,1,2,0:0:0
401,247,123620,1,2,0:0:0
453,195,123702,2,0,P|424:91,1,105,2|0,0:0|0:0,0:0:0
218,59,123867,6,0,P|240:108|240:108|247:163,1,105,6|0,0:0|0:0,0:0:0
46,344,124032,6,0,P|48:291|48:291|70:225,1,105,6|0,0:0|0:0,0:0:0
275,230,124197,5,2,0:0:0
319,172,124279,1,2,0:0:0
363,112,124362,2,0,P|415:117|471:115,1,105,2|0,0:0|0:0,0:0:0
331,277,124527,1,2,0:0:0
262,303,124609,2,0,P|207:301|153:309,1,105,2|0,0:0|0:0,0:0:0
264,125,124774,5,2,0:0:0
190,123,124857,1,2,0:0:0
134,75,124939,1,2,0:0:0
72,35,125021,2,0,P|49:93|20:136,1,105,6|0,0:0|0:0,0:0:0
440,349,125186,6,0,P|463:291|492:248,1,105,6|0,0:0|0:0,0:0:0
103,145,125351,6,0,P|80:203|78:263,1,105,6|0,0:0|0:0,0:0:0
267,335,125516,1,2,0:0:0
314,278,125599,1,2,0:0:0
343,211,125681,2,0,P|348:160|336:98,1,105,2|0,0:0|0:0,0:0:0
127,114,125846,1,2,0:0:0
99,181,125928,2,0,P|79:236|76:296,1,105,2|0,0:0|0:0,0:0:0
237,146,126093,6,0,P|178:312,1,157.5,4|0,0:0|0:0,0:0:0
191,310,126341,5,4,0:0:0
215,243,126423,1,4,0:0:0
240,176,126506,1,4,0:0:0
267,110,126588,1,4,0:0:0
296,40,126670,6,0,P|352:48|352:48|408:40,1,105,6|0,0:0|0:0,0:0:0
442,188,126835,5,4,0:0:0
387,252,126918,1,2,0:0:0
424,326,127000,6,0,P|368:366,2,52.5,4|0|0,0:0|0:0|0:0,0:0:0
344,136,127165,6,0,P|368:80,2,52.5,2|0|0,0:0|0:0|0:0,0:0:0
245,231,127330,5,0,0:0:0
231,260,127412,1,0,0:0:0
217,288,127495,1,0,0:0:0
203,317,127577,1,0,0:0:0
189,346,127660,6,2,P|134:378,7,52.5
157,338,127990,6,0,P|81:246|58:123,1,235.200002871094,2|0,0:0|0:0,0:0:0
387,262,128237,2,0,P|257:238|174:167,1,235.200002871094,2|0,0:0|0:0,0:0:0
512,105,128484,2,0,P|384:140|280:112,1,235.200002871094,2|0,0:0|0:0,0:0:0
64,27,128732,2,0,P|117:59|182:77,1,117.600001435547,2|0,0:0|0:0,0:0:0
244,52,128897,5,2,0:0:0
217,139,128979,2,0,P|174:257,1,117.600001435547,2|0,0:0|0:0,0:0:0
273,224,129144,1,2,0:0:0
298,289,129226,1,2,0:0:0
347,339,129309,6,0,P|475:339,1,117.600001435547,2|0,0:0|0:0,0:0:0
363,232,129474,1,2,0:0:0
432,218,129557,2,0,P|505:113,1,117.600001435547,2|0,0:0|0:0,0:0:0
339,125,129721,1,2,0:0:0
300,65,129804,2,0,P|184:8,1,117.600001435547,2|0,0:0|0:0,0:0:0
222,160,129968,1,2,0:0:0
151,155,130051,2,0,P|34:209,1,117.600001435547,2|0,0:0|0:0,0:0:0
16,288,130216,5,2,0:0:0
80,320,130298,1,0,0:0:0
144,288,130381,1,2,0:0:0
208,320,130463,1,0,0:0:0
272,288,130546,1,2,0:0:0
336,320,130628,6,0,P|392:312|392:312|456:320,1,117.600001435547,0|0,0:0|0:0,0:0:0
336,248,130793,1,2,0:0:0
378,192,130875,2,0,P|410:145|410:145|434:89,1,117.600001435547,2|0,0:0|0:0,0:0:0
309,181,131040,1,2,0:0:0
253,136,131123,2,0,P|217:98|217:98|185:42,1,117.600001435547,2|0,0:0|0:0,0:0:0
243,206,131288,1,2,0:0:0
174,220,131370,2,0,P|116:231|116:231|52:215,1,117.600001435547,2|0,0:0|0:0,0:0:0
24,152,131535,5,2,0:0:0
88,120,131617,1,2,0:0:0
152,152,131700,1,2,0:0:0
216,120,131782,1,2,0:0:0
280,152,131865,1,2,0:0:0
344,120,131947,6,0,P|400:128|400:128|464:120,1,117.600001435547,2|0,0:0|0:0,0:0:0
400,352,132112,1,2,0:0:0
317,355,132195,2,0,P|237:275|181:155,1,235.200002871094,2|0,0:0|0:0,0:0:0
144,239,132442,2,0,P|264:223|384:239,1,235.200002871094,2|0,0:0|0:0,0:0:0
442,264,132689,5,2,0:0:0
433,193,132772,1,2,0:0:0
440,123,132854,1,2,0:0:0
474,61,132937,6,2,P|517:11,3,58.8000007177734,6|2|2|2,0:0|0:0|0:0|0:0,0:0:0
458,39,133101,6,2,P|403:9,3,58.8000007177734,6|2|2|2,0:0|0:0|0:0|0:0,0:0:0
441,59,133266,6,0,P|346:132,1,117.600001435547,2|0,0:0|0:0,0:0:0
124,162,133431,1,2,0:0:0
192,179,133514,1,2,0:0:0
213,245,133596,2,0,P|287:341,1,117.600001435547,2|0,0:0|0:0,0:0:0
246,131,133761,6,2,P|305:93,4,58.8000007177734,4|0|0|0|0,0:0|0:0|0:0|0:0|0:0,0:0:0
139,275,134008,6,0,P|16:256,1,117.600001435547,2|0,0:0|0:0,0:0:0
276,212,134173,1,2,0:0:0
345,224,134256,2,0,P|463:243,1,117.600001435547,2|0,0:0|0:0,0:0:0
346,71,134421,1,2,0:0:0
286,33,134503,1,2,0:0:0
215,39,134586,6,0,P|86:60,1,117.600001435547,2|0,0:0|0:0,0:0:0
212,279,134750,1,2,0:0:0
268,322,134833,1,2,0:0:0
338,322,134915,2,0,P|460:286,1,117.600001435547,2|0,0:0|0:0,0:0:0
235,166,135080,5,2,0:0:0
164,156,135163,2,0,P|49:183,1,117.600001435547,2|0,0:0|0:0,0:0:0
283,219,135328,1,2,0:0:0
343,183,135410,2,0,P|429:94,1,117.600001435547,2|0,0:0|0:0,0:0:0
191,324,135575,5,8,0:0:0
171,311,135657,1,0,0:0:0
147,308,135740,1,8,0:0:0
126,319,135822,1,0,0:0:0
110,336,135905,6,0,P|64:221,1,117.600001435547,10|0,0:0|0:0,0:0:0
212,54,136070,1,2,0:0:0
280,67,136152,1,2,0:0:0
330,116,136235,2,0,P|235:192,1,117.600001435547,2|0,0:0|0:0,0:0:0
428,347,136399,2,0,P|471:224,1,117.600001435547,2|0,0:0|0:0,0:0:0
219,257,136564,5,2,0:0:0
170,205,136647,1,2,0:0:0
192,138,136729,2,0,P|149:22,1,117.600001435547,2|0,0:0|0:0,0:0:0
44,247,136894,2,0,P|0:372,1,117.600001435547,2|0,0:0|0:0,0:0:0
199,338,137059,1,2,0:0:0
233,277,137141,1,2,0:0:0
290,235,137224,6,0,P|394:193|441:76,1,235.200002871094,6|0,0:0|0:0,0:0:0
131,127,137471,2,0,P|135:259|199:338,1,235.200002871094,4|0,0:0|0:0,0:0:0
468,205,137719,2,0,P|371:168|331:108,1,176.40000215332,4|0,0:0|0:0,0:0:0
306,76,137884,6,0,P|364:80,1,58.8000007177734,8|0,0:0|0:0,0:0:0
263,65,137966,2,0,P|319:49,1,58.8000007177734,8|0,0:0|0:0,0:0:0
219,70,138048,2,0,P|266:36,1,58.8000007177734,8|0,0:0|0:0,0:0:0
180,90,138131,2,0,P|213:42,1,58.8000007177734,8|0,0:0|0:0,0:0:0
153,117,138213,6,2,P|86:98,7,58.8000007177734,6|2|2|2|2|2|2|2,0:0|0:0|0:0|0:0|0:0|0:0|0:0|0:0,0:0:0
123,136,138543,6,0,P|141:265,1,125.999996154785,2|0,0:0|0:0,0:0:0
410,276,138708,5,2,0:0:0
463,223,138790,1,2,0:0:0
443,149,138873,2,0,P|415:20,1,125.999996154785,2|0,0:0|0:0,0:0:0
344,239,139038,1,2,0:0:0
286,287,139120,2,0,P|177:363,1,125.999996154785,2|0,0:0|0:0,0:0:0
14,160,139285,5,2,0:0:0
19,235,139368,1,2,0:0:0
72,288,139450,1,2,0:0:0
148,286,139533,2,0,P|255:212,1,125.999996154785,2|0,0:0|0:0,0:0:0
238,167,139697,5,2,0:0:0
300,123,139780,1,2,0:0:0
361,79,139862,2,0,P|462:2,1,125.999996154785,2|0,0:0|0:0,0:0:0
409,190,140027,5,2,0:0:0
393,264,140110,1,2,0:0:0
345,322,140192,2,0,P|222:361,1,125.999996154785,2|0,0:0|0:0,0:0:0
258,273,140357,1,2,0:0:0
193,233,140439,2,0,P|66:226,1,125.999996154785,2|0,0:0|0:0,0:0:0
260,194,140604,1,2,0:0:0
205,140,140687,2,0,P|107:53,1,125.999996154785,2|0,0:0|0:0,0:0:0
415,133,140852,5,8,0:0:0
452,183,140934,1,0,0:0:0
455,246,141017,1,8,0:0:0
422,299,141099,1,0,0:0:0
372,339,141182,6,0,P|311:319|243:320,1,125.999996154785,10|0,0:0|0:0,0:0:0
61,188,141346,1,2,0:0:0
77,126,141429,1,2,0:0:0
118,78,141511,1,2,0:0:0
173,47,141594,1,2,0:0:0
234,35,141676,1,2,0:0:0
295,51,141759,2,0,P|301:114|330:175,1,125.999996154785,2|0,0:0|0:0,0:0:0
265,272,141924,5,2,0:0:0
202,266,142006,1,2,0:0:0
148,232,142088,1,2,0:0:0
112,179,142171,2,0,P|111:116|70:52,1,125.999996154785,2|0,0:0|0:0,0:0:0
111,336,142336,5,2,0:0:0
171,353,142418,1,2,0:0:0
230,331,142501,2,0,P|236:271|264:206,1,125.999996154785,2|0,0:0|0:0,0:0:0
121,240,142666,5,2,0:0:0
79,193,142748,1,2,0:0:0
85,130,142830,2,0,P|137:88|186:23,1,125.999996154785,2|0,0:0|0:0,0:0:0
179,173,142995,5,2,0:0:0
224,128,143078,2,0,P|269:95|334:35,1,125.999996154785,2|0,0:0|0:0,0:0:0
414,43,143243,5,2,0:0:0
459,85,143325,1,2,0:0:0
455,148,143408,1,2,0:0:0
438,208,143490,6,2,P|480:254,3,62.9999980773926,4|0|0|0,0:0|0:0|0:0|0:0,0:0:0
426,246,143655,6,2,P|397:311,3,62.9999980773926,6|2|2|2,0:0|0:0|0:0|0:0,0:0:0
386,260,143820,6,0,P|326:232|256:221,1,125.999996154785,2|0,0:0|0:0,0:0:0
165,220,143985,1,2,0:0:0
197,166,144067,1,2,0:0:0
188,103,144150,2,0,P|125:85|69:45,1,125.999996154785,2|0,0:0|0:0,0:0:0
270,102,144315,1,2,0:0:0
323,135,144397,6,2,P|383:112,2,62.9999980773926,6|2|2,0:0|0:0|0:0,0:0:0
271,256,144562,5,8,0:0:0
235,307,144644,1,0,0:0:0
177,333,144727,1,8,0:0:0
115,322,144809,6,2,P|49:304,2,62.9999980773926,4|0|0,0:0|0:0|0:0,0:0:0
81,184,144974,5,2,0:0:0
99,123,145057,1,2,0:0:0
145,81,145139,2,0,P|268:41,1,125.999996154785,2|0,0:0|0:0,0:0:0
348,321,145304,2,0,P|225:361,1,125.999996154785,2|0,0:0|0:0,0:0:0
324,140,145469,2,0,P|450:157,1,125.999996154785,2|0,0:0|0:0,0:0:0
271,239,145634,5,2,0:0:0
211,219,145716,2,0,P|77:187,1,125.999996154785,2|0,0:0|0:0,0:0:0
255,143,145881,1,2,0:0:0
310,174,145964,2,0,P|432:227,1,125.999996154785,2|0,0:0|0:0,0:0:0
431,333,146128,5,2,0:0:0
421,345,146211,1,0,0:0:0
413,353,146293,1,2,0:0:0
334,357,146376,1,0,0:0:0
256,336,146458,2,0,P|260:288|232:211,1,125.999996154785,2|0,0:0|0:0,0:0:0
144,79,146623,5,2,0:0:0
91,114,146706,1,2,0:0:0
83,176,146788,2,0,P|141:289,1,125.999996154785,2|0,0:0|0:0,0:0:0
435,178,146953,2,0,P|380:55,1,125.999996154785,2|0,0:0|0:0,0:0:0
272,33,147118,5,2,0:0:0
254,93,147200,1,2,0:0:0
309,123,147283,2,0,P|370:128|437:123,1,125.999996154785,2|0,0:0|0:0,0:0:0
192,245,147448,1,2,0:0:0
151,292,147530,1,2,0:0:0
87,292,147613,1,2,0:0:0
42,247,147695,1,2,0:0:0
59,191,147777,6,0,P|165:134|241:37,1,235.200002871094,4|0,0:0|0:0,0:0:0
465,112,148025,2,0,P|448:242|465:368,1,235.200002871094,4|0,0:0|0:0,0:0:0
222,351,148272,2,0,P|136:309|41:294,1,176.40000215332,4|0,0:0|0:0,0:0:0
140,223,148437,5,6,0:0:0
210,188,148519,1,6,0:0:0
280,150,148602,1,6,0:0:0
349,112,148684,1,6,0:0:0
416,68,148767,6,6,P|444:141,3,70.8750002703667
393,62,148932,5,0,0:0:0
370,58,148973,1,0,0:0:0
350,54,149014,1,0,0:0:0
259,68,149097,5,6,0:0:0
