osu file format v14

[General]
AudioFilename: CRUISE BEAST.mp3
AudioLeadIn: 0
PreviewTime: 65341
Countdown: 0
SampleSet: Normal
StackLeniency: 0.7
Mode: 1
LetterboxInBreaks: 1
WidescreenStoryboard: 1

[Editor]
Bookmarks: 81264
DistanceSpacing: 0.5
BeatDivisor: 4
GridSize: 32
TimelineZoom: 3.699999

[Metadata]
Title:CRUISE BEAST
TitleUnicode:CRUISE BEAST
Artist:The Quick Brown Fox
ArtistUnicode:The Quick Brown Fox
Creator:xWillx
Version:Oni
Source:renard
Tags:
BeatmapID:352301
BeatmapSetID:141184

[Difficulty]
HPDrainRate:6
CircleSize:5
OverallDifficulty:6
ApproachRate:5
SliderMultiplier:1.4
SliderTickRate:1

[Events]
//Background and Video events
0,0,"bgimage.jpg",0,0
//Break Periods
//Storyboard Layer 0 (Background)
//Storyboard Layer 1 (Fail)
//Storyboard Layer 2 (Pass)
//Storyboard Layer 3 (Foreground)
//Storyboard Sound Samples

[TimingPoints]
34,230.769230769231,4,1,0,60,1,0
51724,-100,4,1,0,50,0,1
65339,-100,4,1,0,80,0,0
81264,-100,4,1,0,60,0,0
96034,-100,4,1,0,80,0,1
109649,-100,4,1,0,80,0,0

[HitObjects]
64,192,7418,5,0,0:0:0:0:
64,192,7649,1,0,0:0:0:0:
64,192,7764,1,0,0:0:0:0:
64,192,7880,1,8,0:0:0:0:
192,192,7937,1,8,0:0:0:0:
64,192,7995,1,0,0:0:0:0:
64,192,8110,1,0,0:0:0:0:
64,192,8341,1,8,0:0:0:0:
96,160,8457,1,8,0:0:0:0:
64,192,8572,1,0,0:0:0:0:
64,192,8687,1,0,0:0:0:0:
64,192,8745,1,0,0:0:0:0:
64,192,8803,1,8,0:0:0:0:
64,192,8918,1,8,0:0:0:0:
64,192,9034,1,0,0:0:0:0:
64,192,9264,1,0,0:0:0:0:
64,192,9495,1,0,0:0:0:0:
64,192,9610,1,0,0:0:0:0:
64,192,9726,1,8,0:0:0:0:
192,192,9784,1,8,0:0:0:0:
64,192,9841,1,0,0:0:0:0:
64,192,9956,1,0,0:0:0:0:
64,192,10187,1,8,0:0:0:0:
96,160,10303,1,8,0:0:0:0:
64,192,10418,1,0,0:0:0:0:
64,192,10476,1,0,0:0:0:0:
64,192,10533,1,8,0:0:0:0:
64,192,10649,1,0,0:0:0:0:
64,192,10764,1,8,0:0:0:0:
64,192,10880,1,0,0:0:0:0:
64,192,11110,1,0,0:0:0:0:
64,192,11341,1,0,0:0:0:0:
64,192,11456,1,0,0:0:0:0:
64,192,11572,1,8,0:0:0:0:
192,192,11630,1,8,0:0:0:0:
64,192,11687,1,0,0:0:0:0:
64,192,11802,1,0,0:0:0:0:
64,192,12033,1,8,0:0:0:0:
96,160,12149,1,8,0:0:0:0:
64,192,12264,1,0,0:0:0:0:
64,192,12322,1,0,0:0:0:0:
64,192,12379,1,8,0:0:0:0:
64,192,12495,1,0,0:0:0:0:
64,192,12610,1,8,0:0:0:0:
64,192,12726,1,0,0:0:0:0:
64,192,12957,1,0,0:0:0:0:
64,192,13188,1,0,0:0:0:0:
64,192,13303,1,0,0:0:0:0:
64,192,13419,1,8,0:0:0:0:
192,192,13476,1,8,0:0:0:0:
64,192,13534,1,0,0:0:0:0:
64,192,13649,1,0,0:0:0:0:
64,192,13880,1,8,0:0:0:0:
96,160,13995,1,8,0:0:0:0:
64,192,14111,1,0,0:0:0:0:
64,192,14169,1,0,0:0:0:0:
64,192,14226,1,8,0:0:0:0:
64,192,14342,1,0,0:0:0:0:
64,192,14457,1,8,0:0:0:0:
96,192,14495,1,8,0:0:0:0:
96,192,14534,1,8,0:0:0:0:
64,192,14573,1,0,0:0:0:0:
96,224,14803,5,12,0:0:0:0:
192,192,14918,1,0,0:0:0:0:
192,192,14976,1,0,0:0:0:0:
192,192,15034,1,8,0:0:0:0:
192,192,15149,1,0,0:0:0:0:
192,192,15264,1,8,0:0:0:0:
192,192,15380,1,0,0:0:0:0:
192,192,15495,1,8,0:0:0:0:
192,192,15610,1,0,0:0:0:0:
192,192,15726,1,8,0:0:0:0:
192,192,15841,1,0,0:0:0:0:
192,192,15899,1,0,0:0:0:0:
192,192,15957,1,8,0:0:0:0:
192,192,16072,1,8,0:0:0:0:
192,192,16187,1,0,0:0:0:0:
192,192,16303,1,8,0:0:0:0:
192,192,16534,1,0,0:0:0:0:
192,192,16591,1,0,0:0:0:0:
96,224,16649,1,12,0:0:0:0:
192,192,16764,1,0,0:0:0:0:
192,192,16880,1,8,0:0:0:0:
192,192,16995,1,0,0:0:0:0:
192,192,17110,1,8,0:0:0:0:
192,192,17226,1,0,0:0:0:0:
192,192,17341,1,8,0:0:0:0:
192,192,17457,1,0,0:0:0:0:
192,192,17572,1,8,0:0:0:0:
192,192,17687,1,0,0:0:0:0:
192,192,17745,1,0,0:0:0:0:
192,192,17803,1,8,0:0:0:0:
192,192,17918,1,8,0:0:0:0:
192,192,18034,1,0,0:0:0:0:
192,192,18149,1,8,0:0:0:0:
96,160,18380,1,0,0:0:0:0:
96,160,18437,1,0,0:0:0:0:
96,224,18495,1,12,0:0:0:0:
192,192,18610,1,0,0:0:0:0:
192,192,18726,1,8,0:0:0:0:
192,192,18841,1,0,0:0:0:0:
192,192,18956,1,8,0:0:0:0:
192,192,19072,1,0,0:0:0:0:
192,192,19187,1,8,0:0:0:0:
192,192,19303,1,0,0:0:0:0:
192,192,19418,1,8,0:0:0:0:
192,192,19533,1,0,0:0:0:0:
192,192,19591,1,0,0:0:0:0:
192,192,19649,1,8,0:0:0:0:
192,192,19764,1,8,0:0:0:0:
192,192,19880,1,0,0:0:0:0:
192,192,19995,1,8,0:0:0:0:
128,160,20226,1,0,0:0:0:0:
128,160,20284,1,0,0:0:0:0:
96,224,20341,1,12,0:0:0:0:
192,192,20457,1,0,0:0:0:0:
192,192,20573,1,8,0:0:0:0:
192,192,20688,1,0,0:0:0:0:
192,192,20803,1,8,0:0:0:0:
192,192,20919,1,0,0:0:0:0:
192,192,21034,1,8,0:0:0:0:
192,192,21150,1,0,0:0:0:0:
192,192,21265,1,8,0:0:0:0:
192,192,21380,1,0,0:0:0:0:
192,192,21438,1,0,0:0:0:0:
192,192,21496,1,8,0:0:0:0:
192,192,21611,1,8,0:0:0:0:
192,192,21727,1,0,0:0:0:0:
192,192,21842,1,8,0:0:0:0:
256,96,21880,1,8,0:0:0:0:
256,96,21918,1,8,0:0:0:0:
256,96,21957,1,0,0:0:0:0:
96,224,22187,1,4,0:0:0:0:
160,192,24034,1,4,0:0:0:0:
160,192,25880,1,4,0:0:0:0:
160,192,27726,5,4,0:0:0:0:
160,192,27957,5,8,0:0:0:0:
160,192,28187,1,0,0:0:0:0:
160,192,28303,1,0,0:0:0:0:
160,192,28341,1,8,0:0:0:0:
160,192,28380,5,8,0:0:0:0:
160,192,28418,1,0,0:0:0:0:
96,160,28534,1,0,0:0:0:0:
352,128,28649,1,12,0:0:0:0:
352,128,28880,1,8,0:0:0:0:
352,128,28995,1,0,0:0:0:0:
288,128,29034,1,8,0:0:0:0:
288,128,29072,1,0,0:0:0:0:
352,128,29110,1,8,0:0:0:0:
320,64,29226,1,8,0:0:0:0:
320,64,29341,5,0,0:0:0:0:
320,64,29572,1,4,0:0:0:0:
320,64,30495,5,4,0:0:0:0:
320,64,30841,5,4,0:0:0:0:
320,64,31187,5,4,0:0:0:0:
64,128,31303,1,0,0:0:0:0:
320,64,31418,1,0,0:0:0:0:
320,64,31476,1,0,0:0:0:0:
320,64,31534,1,0,0:0:0:0:
64,128,31591,1,0,0:0:0:0:
64,128,31649,1,4,0:0:0:0:
160,192,31995,1,4,0:0:0:0:
160,192,32341,5,4,0:0:0:0:
64,160,33264,5,4,0:0:0:0:
64,160,34187,5,4,0:0:0:0:
64,160,35110,5,4,0:0:0:0:
64,160,35572,5,4,0:0:0:0:
64,160,36034,5,8,0:0:0:0:
64,160,36091,1,8,0:0:0:0:
64,160,36149,1,8,0:0:0:0:
64,160,36207,1,8,0:0:0:0:
64,160,36264,5,0,0:0:0:0:
64,160,36322,1,0,0:0:0:0:
64,160,36380,1,0,0:0:0:0:
64,160,36437,1,0,0:0:0:0:
64,160,36495,1,8,0:0:0:0:
256,96,36553,1,8,0:0:0:0:
256,96,36610,1,8,0:0:0:0:
256,96,36668,1,8,0:0:0:0:
256,96,36726,5,8,0:0:0:0:
256,96,36764,1,8,0:0:0:0:
256,96,36803,1,8,0:0:0:0:
256,96,36841,1,8,0:0:0:0:
256,96,36880,1,8,0:0:0:0:
256,96,36918,1,8,0:0:0:0:
256,96,36957,1,0,0:0:0:0:
64,160,37187,5,8,0:0:0:0:
64,160,37418,1,8,0:0:0:0:
64,160,37649,5,0,0:0:0:0:
64,160,37880,1,8,0:0:0:0:
96,160,37995,1,0,0:0:0:0:
96,128,38110,5,8,0:0:0:0:
96,128,38226,1,0,0:0:0:0:
128,192,38457,1,0,0:0:0:0:
128,192,38572,5,8,0:0:0:0:
128,192,38687,1,0,0:0:0:0:
128,192,38803,1,8,0:0:0:0:
128,192,39034,5,0,0:0:0:0:
128,192,39264,1,8,0:0:0:0:
128,192,39495,5,0,0:0:0:0:
128,192,39726,1,0,0:0:0:0:
128,192,39841,1,8,0:0:0:0:
128,192,39957,5,0,0:0:0:0:
128,192,40072,1,0,0:0:0:0:
128,192,40187,1,8,0:0:0:0:
128,192,40303,1,8,0:0:0:0:
128,192,40418,5,0,0:0:0:0:
64,160,40534,1,0,0:0:0:0:
128,192,40649,1,8,0:0:0:0:
128,192,40880,5,0,0:0:0:0:
128,192,41110,1,8,0:0:0:0:
96,160,41341,5,0,0:0:0:0:
96,160,41572,1,8,0:0:0:0:
96,160,41687,1,8,0:0:0:0:
96,160,41803,5,0,0:0:0:0:
96,160,41918,1,0,0:0:0:0:
96,160,42149,1,8,0:0:0:0:
96,160,42264,5,0,0:0:0:0:
96,160,42380,1,8,0:0:0:0:
96,160,42495,1,0,0:0:0:0:
96,160,42726,5,0,0:0:0:0:
96,160,42957,1,8,0:0:0:0:
96,160,43187,5,8,0:0:0:0:
160,192,43418,1,4,0:0:0:0:
160,192,43649,5,8,0:0:0:0:
160,192,43879,1,0,0:0:0:0:
160,192,43995,1,0,0:0:0:0:
160,192,44033,1,8,0:0:0:0:
160,192,44072,5,8,0:0:0:0:
160,192,44110,1,0,0:0:0:0:
96,160,44226,1,0,0:0:0:0:
128,192,44341,1,12,0:0:0:0:
128,192,44572,1,0,0:0:0:0:
64,160,44687,5,8,0:0:0:0:
64,160,44803,1,0,0:0:0:0:
64,160,45034,5,8,0:0:0:0:
64,160,45149,1,0,0:0:0:0:
64,160,45264,1,0,0:0:0:0:
64,160,45380,1,8,0:0:0:0:
64,160,45495,5,8,0:0:0:0:
64,160,45610,1,0,0:0:0:0:
64,160,45841,1,0,0:0:0:0:
64,160,45957,1,8,0:0:0:0:
64,160,46072,5,8,0:0:0:0:
64,160,46187,1,0,0:0:0:0:
64,160,46303,1,8,0:0:0:0:
64,160,46418,5,0,0:0:0:0:
64,160,46534,1,0,0:0:0:0:
64,160,46649,1,8,0:0:0:0:
64,160,46880,5,0,0:0:0:0:
64,160,46995,1,8,0:0:0:0:
128,192,47226,1,8,0:0:0:0:
64,160,47341,5,0,0:0:0:0:
128,192,47457,1,0,0:0:0:0:
128,192,47572,1,8,0:0:0:0:
128,192,47687,1,0,0:0:0:0:
128,192,47803,5,8,0:0:0:0:
128,192,47918,1,8,0:0:0:0:
128,192,48034,1,0,0:0:0:0:
128,192,48264,1,0,0:0:0:0:
128,192,48380,5,0,0:0:0:0:
128,192,48495,1,8,0:0:0:0:
128,192,48610,1,0,0:0:0:0:
128,192,48726,1,8,0:0:0:0:
128,192,48841,5,8,0:0:0:0:
128,192,48957,1,0,0:0:0:0:
128,160,49187,1,8,0:0:0:0:
128,192,49303,1,0,0:0:0:0:
128,160,49534,5,0,0:0:0:0:
128,160,49649,1,8,0:0:0:0:
128,160,49764,5,8,0:0:0:0:
96,128,49880,1,0,0:0:0:0:
128,160,49995,1,8,0:0:0:0:
128,160,50110,1,8,0:0:0:0:
128,160,50226,1,0,0:0:0:0:
128,160,50341,5,8,0:0:0:0:
96,128,50572,1,0,0:0:0:0:
96,128,50687,1,0,0:0:0:0:
288,128,50803,5,8,0:0:0:0:
288,128,50918,1,0,0:0:0:0:
288,128,50957,1,0,0:0:0:0:
288,128,50995,1,0,0:0:0:0:
288,128,51034,1,8,0:0:0:0:
288,128,51149,1,0,0:0:0:0:
288,128,51264,5,8,0:0:0:0:
288,128,51380,1,0,0:0:0:0:
288,128,51495,1,8,0:0:0:0:
128,128,51726,5,8,0:0:0:0:
128,128,51842,1,0,0:0:0:0:
128,128,51957,1,8,0:0:0:0:
128,128,52073,1,0,0:0:0:0:
128,128,52188,5,8,0:0:0:0:
128,128,52246,1,8,0:0:0:0:
128,128,52303,1,0,0:0:0:0:
128,128,52419,1,8,0:0:0:0:
128,128,52476,1,8,0:0:0:0:
128,128,52534,1,0,0:0:0:0:
128,128,52650,5,8,0:0:0:0:
128,128,52765,1,0,0:0:0:0:
128,128,52880,1,8,0:0:0:0:
128,128,52996,1,0,0:0:0:0:
128,128,53111,5,0,0:0:0:0:
128,128,53169,1,0,0:0:0:0:
128,128,53226,1,8,0:0:0:0:
128,128,53342,1,0,0:0:0:0:
128,128,53400,1,0,0:0:0:0:
128,128,53457,1,8,0:0:0:0:
128,128,53573,5,0,0:0:0:0:
128,128,53688,1,8,0:0:0:0:
128,128,53803,1,0,0:0:0:0:
128,128,53919,1,8,0:0:0:0:
128,128,54034,5,8,0:0:0:0:
128,128,54092,1,8,0:0:0:0:
128,128,54150,1,0,0:0:0:0:
128,128,54265,1,8,0:0:0:0:
128,128,54323,1,8,0:0:0:0:
128,128,54380,1,0,0:0:0:0:
128,128,54496,5,8,0:0:0:0:
128,128,54611,1,0,0:0:0:0:
128,128,54726,1,8,0:0:0:0:
128,128,54842,1,0,0:0:0:0:
128,128,54957,5,0,0:0:0:0:
128,128,55015,1,0,0:0:0:0:
128,128,55073,1,8,0:0:0:0:
128,128,55188,1,0,0:0:0:0:
128,128,55246,1,0,0:0:0:0:
128,128,55303,1,8,0:0:0:0:
64,160,55419,5,0,0:0:0:0:
64,160,55534,1,8,0:0:0:0:
64,160,55650,1,0,0:0:0:0:
64,160,55765,1,8,0:0:0:0:
64,160,55880,5,8,0:0:0:0:
64,160,55937,1,8,0:0:0:0:
64,160,55996,1,0,0:0:0:0:
64,160,56110,1,8,0:0:0:0:
64,160,56168,1,8,0:0:0:0:
64,160,56226,1,0,0:0:0:0:
64,160,56342,1,8,0:0:0:0:
64,160,56457,5,0,0:0:0:0:
64,160,56573,1,8,0:0:0:0:
64,160,56688,1,0,0:0:0:0:
64,160,56803,1,0,0:0:0:0:
64,160,56861,1,0,0:0:0:0:
64,160,56919,5,8,0:0:0:0:
64,160,57034,1,0,0:0:0:0:
64,160,57092,1,0,0:0:0:0:
64,160,57150,1,8,0:0:0:0:
64,224,57265,5,0,0:0:0:0:
64,224,57323,1,0,0:0:0:0:
64,224,57380,5,0,0:0:0:0:
64,224,57438,1,0,0:0:0:0:
64,224,57496,1,0,0:0:0:0:
64,224,57553,1,0,0:0:0:0:
64,224,57611,1,8,0:0:0:0:
64,224,57669,1,8,0:0:0:0:
64,224,57726,1,0,0:0:0:0:
64,224,57842,5,8,0:0:0:0:
64,224,57900,1,8,0:0:0:0:
96,256,57957,1,0,0:0:0:0:
96,256,58072,1,8,0:0:0:0:
96,256,58130,1,8,0:0:0:0:
96,256,58187,1,0,0:0:0:0:
96,256,58245,1,0,0:0:0:0:
96,256,58303,1,8,0:0:0:0:
288,128,58360,1,8,0:0:0:0:
288,128,58418,5,0,0:0:0:0:
288,128,58534,1,0,0:0:0:0:
288,128,58649,1,0,0:0:0:0:
320,128,58687,1,0,0:0:0:0:
320,128,58726,1,0,0:0:0:0:
320,128,58764,1,8,0:0:0:0:
96,256,58880,5,0,0:0:0:0:
320,96,58918,1,0,0:0:0:0:
320,96,58957,1,0,0:0:0:0:
320,96,58995,1,0,0:0:0:0:
320,96,59034,1,0,0:0:0:0:
320,96,59072,1,0,0:0:0:0:
128,128,59110,5,8,0:0:0:0:
128,128,59226,1,0,0:0:0:0:
128,128,59341,5,8,0:0:0:0:
128,128,59457,1,0,0:0:0:0:
128,128,59572,1,8,0:0:0:0:
128,128,59630,1,8,0:0:0:0:
128,128,59687,1,0,0:0:0:0:
128,128,59803,5,8,0:0:0:0:
128,128,59860,1,8,0:0:0:0:
128,128,59918,1,0,0:0:0:0:
128,128,60034,1,8,0:0:0:0:
128,128,60149,1,0,0:0:0:0:
128,128,60264,5,8,0:0:0:0:
128,128,60380,1,0,0:0:0:0:
128,128,60495,1,0,0:0:0:0:
128,128,60553,1,0,0:0:0:0:
128,128,60610,1,8,0:0:0:0:
128,128,60726,5,0,0:0:0:0:
128,128,60784,1,0,0:0:0:0:
128,128,60841,1,8,0:0:0:0:
128,128,60957,1,0,0:0:0:0:
128,128,61072,1,8,0:0:0:0:
128,128,61187,1,0,0:0:0:0:
128,128,61303,5,8,0:0:0:0:
128,128,61418,1,8,0:0:0:0:
128,128,61476,1,8,0:0:0:0:
128,128,61534,1,0,0:0:0:0:
128,128,61649,1,8,0:0:0:0:
128,128,61707,1,8,0:0:0:0:
128,128,61764,5,0,0:0:0:0:
128,128,61880,1,8,0:0:0:0:
128,128,61995,1,0,0:0:0:0:
128,128,62110,1,8,0:0:0:0:
128,128,62226,1,0,0:0:0:0:
128,128,62341,5,0,0:0:0:0:
128,128,62399,1,0,0:0:0:0:
128,128,62457,1,8,0:0:0:0:
128,128,62572,1,0,0:0:0:0:
128,128,62630,1,0,0:0:0:0:
128,128,62687,1,8,0:0:0:0:
64,160,62803,5,0,0:0:0:0:
64,160,62918,1,8,0:0:0:0:
64,160,63034,1,0,0:0:0:0:
64,160,63149,1,8,0:0:0:0:
64,160,63207,1,8,0:0:0:0:
64,160,63264,1,0,0:0:0:0:
64,160,63380,5,8,0:0:0:0:
64,160,63437,1,8,0:0:0:0:
64,160,63495,1,0,0:0:0:0:
64,160,63610,1,0,0:0:0:0:
64,160,63726,1,8,0:0:0:0:
64,160,63841,5,0,0:0:0:0:
64,160,63957,1,8,0:0:0:0:
64,160,64072,1,0,0:0:0:0:
64,160,64187,1,0,0:0:0:0:
64,160,64245,1,0,0:0:0:0:
64,160,64303,1,8,0:0:0:0:
64,160,64418,5,0,0:0:0:0:
64,160,64476,1,0,0:0:0:0:
64,160,64534,1,8,0:0:0:0:
64,224,64649,5,0,0:0:0:0:
64,224,64707,1,0,0:0:0:0:
64,224,64764,1,0,0:0:0:0:
64,224,64822,1,0,0:0:0:0:
64,224,64880,5,0,0:0:0:0:
64,224,64937,1,0,0:0:0:0:
64,224,64995,1,0,0:0:0:0:
64,224,65053,1,0,0:0:0:0:
64,224,65110,1,8,0:0:0:0:
64,224,65226,1,8,0:0:0:0:
64,224,65264,1,8,0:0:0:0:
64,192,65303,5,8,0:0:0:0:
64,160,65341,1,0,0:0:0:0:
64,224,65572,1,12,0:0:0:0:
192,96,65803,5,4,0:0:0:0:
64,224,66034,1,12,0:0:0:0:
64,224,66264,5,4,0:0:0:0:
128,128,66495,1,0,0:0:0:0:
128,128,66553,1,0,0:0:0:0:
128,128,66610,1,0,0:0:0:0:
128,128,66668,1,0,0:0:0:0:
128,128,66726,5,8,0:0:0:0:
128,128,66784,1,8,0:0:0:0:
128,128,66841,1,8,0:0:0:0:
128,128,66899,1,8,0:0:0:0:
128,128,66957,1,0,0:0:0:0:
128,128,67072,1,8,0:0:0:0:
128,128,67187,5,0,0:0:0:0:
64,128,67303,1,8,0:0:0:0:
64,128,67360,1,0,0:0:0:0:
64,128,67418,1,8,0:0:0:0:
64,128,67476,1,0,0:0:0:0:
64,128,67534,1,8,0:0:0:0:
64,128,67649,5,8,0:0:0:0:
64,128,67764,1,0,0:0:0:0:
128,128,67880,1,8,0:0:0:0:
128,128,67937,1,8,0:0:0:0:
128,128,67995,1,0,0:0:0:0:
128,128,68110,1,8,0:0:0:0:
128,128,68168,5,8,0:0:0:0:
128,128,68226,1,0,0:0:0:0:
128,128,68341,1,0,0:0:0:0:
128,128,68399,1,0,0:0:0:0:
128,128,68457,1,0,0:0:0:0:
128,128,68514,1,0,0:0:0:0:
128,128,68572,1,8,0:0:0:0:
128,128,68630,1,8,0:0:0:0:
128,128,68687,5,8,0:0:0:0:
128,128,68745,1,8,0:0:0:0:
128,128,68803,1,0,0:0:0:0:
128,128,68918,1,8,0:0:0:0:
128,128,69034,1,0,0:0:0:0:
64,128,69150,1,8,0:0:0:0:
64,128,69207,5,0,0:0:0:0:
64,128,69265,1,8,0:0:0:0:
64,128,69323,1,0,0:0:0:0:
64,128,69381,1,8,0:0:0:0:
64,128,69496,1,8,0:0:0:0:
64,128,69611,1,0,0:0:0:0:
128,128,69726,5,0,0:0:0:0:
128,128,69784,1,0,0:0:0:0:
128,128,69841,1,8,0:0:0:0:
128,128,69899,1,8,0:0:0:0:
128,128,69957,1,0,0:0:0:0:
128,128,70014,1,0,0:0:0:0:
128,128,70072,1,8,0:0:0:0:
128,128,70187,5,0,0:0:0:0:
128,128,70245,1,0,0:0:0:0:
128,128,70303,1,0,0:0:0:0:
128,128,70360,1,0,0:0:0:0:
128,128,70418,1,8,0:0:0:0:
128,128,70476,1,8,0:0:0:0:
128,128,70534,1,8,0:0:0:0:
128,128,70591,1,8,0:0:0:0:
128,128,70649,5,0,0:0:0:0:
128,128,70764,1,8,0:0:0:0:
128,128,70880,1,0,0:0:0:0:
64,128,70996,1,8,0:0:0:0:
64,128,71053,1,0,0:0:0:0:
64,128,71111,1,8,0:0:0:0:
64,128,71169,5,0,0:0:0:0:
64,128,71227,1,8,0:0:0:0:
64,128,71342,1,8,0:0:0:0:
64,128,71457,1,0,0:0:0:0:
128,128,71572,1,8,0:0:0:0:
128,128,71630,1,8,0:0:0:0:
128,128,71687,5,0,0:0:0:0:
128,128,71803,1,8,0:0:0:0:
128,128,71860,1,8,0:0:0:0:
128,128,71918,1,0,0:0:0:0:
128,128,72034,1,0,0:0:0:0:
128,128,72091,1,0,0:0:0:0:
128,128,72149,5,0,0:0:0:0:
128,128,72207,1,0,0:0:0:0:
128,128,72264,1,8,0:0:0:0:
128,128,72322,1,8,0:0:0:0:
128,128,72380,1,8,0:0:0:0:
128,128,72437,1,8,0:0:0:0:
128,128,72495,1,0,0:0:0:0:
128,128,72610,1,8,0:0:0:0:
128,128,72726,5,0,0:0:0:0:
64,128,72841,1,8,0:0:0:0:
64,128,72898,1,0,0:0:0:0:
64,128,72956,1,8,0:0:0:0:
64,128,73014,1,0,0:0:0:0:
64,128,73072,1,8,0:0:0:0:
64,128,73187,5,8,0:0:0:0:
64,128,73302,1,0,0:0:0:0:
128,128,73418,1,0,0:0:0:0:
128,128,73476,1,0,0:0:0:0:
128,128,73534,1,8,0:0:0:0:
128,128,73591,1,8,0:0:0:0:
64,128,73649,5,0,0:0:0:0:
128,192,73880,5,8,0:0:0:0:
128,192,73995,1,0,0:0:0:0:
128,192,74110,5,8,0:0:0:0:
128,192,74226,1,0,0:0:0:0:
128,192,74341,1,8,0:0:0:0:
128,192,74457,1,0,0:0:0:0:
128,192,74572,5,8,0:0:0:0:
128,192,74687,1,0,0:0:0:0:
128,192,74803,1,8,0:0:0:0:
128,192,74918,1,0,0:0:0:0:
128,192,75034,5,8,0:0:0:0:
128,192,75149,1,0,0:0:0:0:
128,192,75264,1,8,0:0:0:0:
128,192,75322,1,8,0:0:0:0:
128,192,75380,1,0,0:0:0:0:
128,192,75495,5,8,0:0:0:0:
128,192,75553,1,8,0:0:0:0:
128,192,75610,1,0,0:0:0:0:
128,192,75726,1,8,0:0:0:0:
128,192,75841,1,0,0:0:0:0:
128,192,75957,1,8,0:0:0:0:
128,192,76072,5,0,0:0:0:0:
128,192,76187,1,8,0:0:0:0:
128,192,76303,1,0,0:0:0:0:
128,192,76418,1,8,0:0:0:0:
128,192,76534,5,0,0:0:0:0:
128,192,76649,1,8,0:0:0:0:
128,192,76764,1,0,0:0:0:0:
128,192,76880,1,8,0:0:0:0:
128,192,76995,5,0,0:0:0:0:
128,192,77110,1,8,0:0:0:0:
128,192,77168,1,8,0:0:0:0:
128,192,77226,1,0,0:0:0:0:
128,192,77341,1,8,0:0:0:0:
128,192,77399,1,8,0:0:0:0:
128,192,77457,5,0,0:0:0:0:
128,192,77514,1,0,0:0:0:0:
128,192,77572,1,8,0:0:0:0:
128,192,77687,1,0,0:0:0:0:
128,192,77803,1,8,0:0:0:0:
128,192,77918,1,0,0:0:0:0:
128,192,78034,5,8,0:0:0:0:
128,192,78149,1,0,0:0:0:0:
128,192,78264,1,8,0:0:0:0:
128,192,78380,1,0,0:0:0:0:
128,192,78495,1,8,0:0:0:0:
128,192,78610,5,0,0:0:0:0:
128,192,78726,1,8,0:0:0:0:
128,192,78841,1,0,0:0:0:0:
128,192,78899,1,0,0:0:0:0:
128,192,78957,1,8,0:0:0:0:
128,192,79014,1,8,0:0:0:0:
128,192,79072,5,0,0:0:0:0:
128,192,79130,1,0,0:0:0:0:
128,192,79187,1,8,0:0:0:0:
128,192,79303,1,0,0:0:0:0:
128,192,79418,1,8,0:0:0:0:
128,192,79764,5,8,0:0:0:0:
128,192,79880,1,0,0:0:0:0:
128,192,80110,5,0,0:0:0:0:
128,192,80226,1,8,0:0:0:0:
128,192,80341,1,8,0:0:0:0:
128,192,80457,1,8,0:0:0:0:
128,192,80572,5,0,0:0:0:0:
128,192,80803,1,0,0:0:0:0:
128,192,81034,5,8,0:0:0:0:
128,192,81110,1,0,0:0:0:0:
128,192,81264,1,0,0:0:0:0:
224,128,81380,5,0,0:0:0:0:
96,224,81495,1,8,0:0:0:0:
224,128,81726,1,0,0:0:0:0:
96,224,81957,5,8,0:0:0:0:
96,224,82187,1,0,0:0:0:0:
224,128,82303,5,8,0:0:0:0:
96,224,82418,1,8,0:0:0:0:
96,224,82534,1,0,0:0:0:0:
96,224,82764,5,0,0:0:0:0:
96,224,82880,1,0,0:0:0:0:
96,224,82995,1,8,0:0:0:0:
224,128,83110,1,0,0:0:0:0:
96,224,83226,5,8,0:0:0:0:
160,64,83341,1,8,0:0:0:0:
160,64,83457,1,0,0:0:0:0:
160,64,83572,1,8,0:0:0:0:
192,96,83803,5,0,0:0:0:0:
224,128,83918,1,8,0:0:0:0:
96,224,84149,1,0,0:0:0:0:
224,128,84264,5,8,0:0:0:0:
96,224,84380,1,0,0:0:0:0:
224,128,84495,1,8,0:0:0:0:
224,128,84610,5,8,0:0:0:0:
96,224,84726,1,0,0:0:0:0:
224,128,84841,1,0,0:0:0:0:
96,224,84957,1,8,0:0:0:0:
224,128,85187,5,0,0:0:0:0:
224,128,85418,1,8,0:0:0:0:
160,64,85649,5,0,0:0:0:0:
160,64,85764,1,0,0:0:0:0:
96,160,85880,1,8,0:0:0:0:
160,64,85995,5,0,0:0:0:0:
160,64,86110,1,8,0:0:0:0:
160,64,86226,1,0,0:0:0:0:
160,64,86457,5,0,0:0:0:0:
160,64,86572,1,8,0:0:0:0:
192,192,86687,1,8,0:0:0:0:
160,64,86803,1,0,0:0:0:0:
160,64,86918,5,0,0:0:0:0:
160,64,87034,1,8,0:0:0:0:
160,64,87149,1,0,0:0:0:0:
160,64,87264,1,8,0:0:0:0:
64,160,87495,5,0,0:0:0:0:
64,160,87610,1,8,0:0:0:0:
64,160,87841,1,8,0:0:0:0:
64,160,87957,5,0,0:0:0:0:
64,160,88072,1,0,0:0:0:0:
64,160,88187,1,8,0:0:0:0:
64,160,88303,5,8,0:0:0:0:
64,160,88418,1,0,0:0:0:0:
64,160,88534,1,0,0:0:0:0:
64,160,88649,1,12,0:0:0:0:
120,205,88880,5,0,0:0:0:0:
120,205,89110,1,8,0:0:0:0:
120,205,89341,5,0,0:0:0:0:
120,205,89457,1,8,0:0:0:0:
192,128,89572,1,8,0:0:0:0:
120,205,89687,1,0,0:0:0:0:
120,205,89803,5,8,0:0:0:0:
120,205,89918,1,0,0:0:0:0:
120,205,90149,1,0,0:0:0:0:
120,205,90264,1,8,0:0:0:0:
96,128,90380,1,0,0:0:0:0:
128,160,90495,1,8,0:0:0:0:
120,205,90610,5,8,0:0:0:0:
120,205,90726,1,0,0:0:0:0:
120,205,90957,1,0,0:0:0:0:
120,205,91187,5,0,0:0:0:0:
120,205,91303,1,8,0:0:0:0:
120,205,91534,1,0,0:0:0:0:
120,205,91649,5,8,0:0:0:0:
120,205,91764,1,0,0:0:0:0:
120,205,91880,1,8,0:0:0:0:
120,205,91995,1,8,0:0:0:0:
120,205,92110,1,0,0:0:0:0:
120,205,92226,5,8,0:0:0:0:
120,205,92341,1,0,0:0:0:0:
120,205,92572,1,8,0:0:0:0:
120,205,92803,5,0,0:0:0:0:
120,205,93034,1,0,0:0:0:0:
120,205,93149,1,8,0:0:0:0:
120,205,93380,5,0,0:0:0:0:
120,205,93495,1,0,0:0:0:0:
120,205,93610,1,8,0:0:0:0:
120,205,93726,5,0,0:0:0:0:
120,205,93841,1,8,0:0:0:0:
120,205,93957,1,8,0:0:0:0:
120,205,94072,1,0,0:0:0:0:
105,143,94187,1,8,0:0:0:0:
192,128,94303,1,0,0:0:0:0:
48,152,94418,5,8,0:0:0:0:
105,143,94534,1,0,0:0:0:0:
48,152,94649,1,8,0:0:0:0:
48,152,94880,5,8,0:0:0:0:
48,152,95110,1,0,0:0:0:0:
48,152,95572,5,12,0:0:0:0:
48,152,95687,5,4,0:0:0:0:
48,152,95803,1,12,0:0:0:0:
160,160,96034,1,0,0:0:0:0:
64,32,96149,5,0,0:0:0:0:
64,32,96264,1,8,0:0:0:0:
64,32,96495,1,8,0:0:0:0:
64,32,96726,5,0,0:0:0:0:
64,32,96841,1,8,0:0:0:0:
64,32,97072,1,0,0:0:0:0:
64,32,97187,5,0,0:0:0:0:
64,32,97303,1,8,0:0:0:0:
64,32,97534,1,8,0:0:0:0:
64,32,97649,1,8,0:0:0:0:
64,32,97764,5,0,0:0:0:0:
64,32,97880,1,0,0:0:0:0:
64,32,97995,1,8,0:0:0:0:
64,32,98110,1,0,0:0:0:0:
64,32,98341,5,8,0:0:0:0:
64,32,98572,1,0,0:0:0:0:
64,32,98687,5,8,0:0:0:0:
64,32,98918,1,0,0:0:0:0:
64,32,99034,1,0,0:0:0:0:
64,32,99149,1,8,0:0:0:0:
64,32,99264,5,8,0:0:0:0:
64,32,99380,1,0,0:0:0:0:
64,32,99495,1,0,0:0:0:0:
64,32,99610,1,8,0:0:0:0:
64,32,99726,1,8,0:0:0:0:
64,32,99841,1,0,0:0:0:0:
64,32,99957,1,8,0:0:0:0:
64,32,100187,1,0,0:0:0:0:
64,32,100418,5,0,0:0:0:0:
64,32,100534,1,8,0:0:0:0:
64,32,100764,1,0,0:0:0:0:
64,32,100879,1,0,0:0:0:0:
64,32,100995,1,8,0:0:0:0:
64,128,101110,1,0,0:0:0:0:
64,32,101226,1,0,0:0:0:0:
64,32,101341,1,0,0:0:0:0:
64,32,101457,1,8,0:0:0:0:
160,64,101572,5,0,0:0:0:0:
320,160,101630,1,0,0:0:0:0:
320,160,101687,1,0,0:0:0:0:
320,160,101745,1,0,0:0:0:0:
160,64,101803,1,0,0:0:0:0:
320,160,101918,1,8,0:0:0:0:
160,64,102034,1,0,0:0:0:0:
128,192,102149,1,8,0:0:0:0:
160,64,102264,1,0,0:0:0:0:
128,192,102380,1,8,0:0:0:0:
160,64,102495,1,0,0:0:0:0:
320,96,102553,1,0,0:0:0:0:
320,96,102610,1,8,0:0:0:0:
160,64,102726,1,0,0:0:0:0:
320,96,102784,1,0,0:0:0:0:
320,96,102841,1,8,0:0:0:0:
160,64,102957,1,0,0:0:0:0:
320,96,103014,1,0,0:0:0:0:
320,96,103072,1,8,0:0:0:0:
320,96,103130,1,8,0:0:0:0:
320,96,103187,1,0,0:0:0:0:
96,192,103226,1,0,0:0:0:0:
96,192,103264,1,0,0:0:0:0:
96,192,103303,1,0,0:0:0:0:
96,192,103341,1,0,0:0:0:0:
96,192,103380,1,0,0:0:0:0:
96,192,103418,1,8,0:0:0:0:
256,32,103534,1,0,0:0:0:0:
256,32,103649,1,8,0:0:0:0:
256,32,103880,1,0,0:0:0:0:
256,32,104110,1,0,0:0:0:0:
256,32,104226,1,8,0:0:0:0:
128,192,104457,1,0,0:0:0:0:
256,32,104572,1,8,0:0:0:0:
256,32,104687,1,0,0:0:0:0:
256,32,104918,1,8,0:0:0:0:
256,32,105034,1,0,0:0:0:0:
256,32,105149,1,8,0:0:0:0:
256,32,105264,1,0,0:0:0:0:
256,32,105380,1,8,0:0:0:0:
256,32,105495,1,0,0:0:0:0:
96,160,105610,1,8,0:0:0:0:
256,32,105726,1,0,0:0:0:0:
256,32,105957,1,8,0:0:0:0:
256,32,106072,1,0,0:0:0:0:
256,32,106303,1,0,0:0:0:0:
256,32,106418,1,0,0:0:0:0:
256,32,106534,1,8,0:0:0:0:
256,32,106649,1,0,0:0:0:0:
256,32,106764,1,8,0:0:0:0:
256,32,106880,1,0,0:0:0:0:
256,32,106995,1,8,0:0:0:0:
256,32,107110,1,8,0:0:0:0:
256,32,107226,1,0,0:0:0:0:
256,32,107341,1,8,0:0:0:0:
256,32,107572,1,0,0:0:0:0:
256,32,107803,1,0,0:0:0:0:
256,32,107918,1,8,0:0:0:0:
256,32,108149,1,0,0:0:0:0:
256,32,108265,1,0,0:0:0:0:
256,32,108380,1,8,0:0:0:0:
256,32,108610,1,0,0:0:0:0:
256,32,108725,1,0,0:0:0:0:
256,32,108841,1,8,0:0:0:0:
256,32,108957,1,8,0:0:0:0:
64,192,109015,1,8,0:0:0:0:
256,32,109072,1,0,0:0:0:0:
64,192,109130,1,0,0:0:0:0:
64,192,109188,1,8,0:0:0:0:
64,192,109245,1,8,0:0:0:0:
256,32,109303,1,0,0:0:0:0:
64,160,109360,1,0,0:0:0:0:
192,64,109418,1,8,0:0:0:0:
256,32,109649,1,0,0:0:0:0:
256,32,109880,1,8,0:0:0:0:
128,128,109995,1,8,0:0:0:0:
128,128,110053,1,8,0:0:0:0:
256,32,110110,1,8,0:0:0:0:
256,32,110226,1,8,0:0:0:0:
256,32,110341,1,8,0:0:0:0:
256,32,110457,1,8,0:0:0:0:
256,32,110572,1,8,0:0:0:0:
160,128,110803,1,0,0:0:0:0:
160,160,110860,1,0,0:0:0:0:
160,160,110918,1,8,0:0:0:0:
160,160,110976,1,8,0:0:0:0:
160,128,111034,1,0,0:0:0:0:
160,160,111149,1,8,0:0:0:0:
160,128,111264,1,0,0:0:0:0:
64,128,111380,1,8,0:0:0:0:
160,128,111495,1,0,0:0:0:0:
64,160,111610,1,8,0:0:0:0:
64,160,111668,1,8,0:0:0:0:
160,128,111726,1,0,0:0:0:0:
64,160,111784,1,8,0:0:0:0:
64,160,111841,1,0,0:0:0:0:
160,128,111957,1,0,0:0:0:0:
64,160,112072,1,8,0:0:0:0:
160,128,112187,1,8,0:0:0:0:
160,160,112245,1,8,0:0:0:0:
160,160,112303,1,0,0:0:0:0:
160,128,112418,1,8,0:0:0:0:
160,160,112476,1,8,0:0:0:0:
160,160,112534,1,0,0:0:0:0:
160,128,112649,1,0,0:0:0:0:
96,160,112707,1,0,0:0:0:0:
160,160,112764,1,8,0:0:0:0:
160,160,112822,1,8,0:0:0:0:
160,128,112880,1,0,0:0:0:0:
160,160,112995,1,8,0:0:0:0:
160,128,113110,1,0,0:0:0:0:
160,160,113226,1,8,0:0:0:0:
160,128,113341,1,0,0:0:0:0:
64,160,113457,1,8,0:0:0:0:
64,160,113514,1,8,0:0:0:0:
160,128,113572,1,0,0:0:0:0:
64,160,113630,1,8,0:0:0:0:
64,160,113687,1,0,0:0:0:0:
160,128,113803,1,0,0:0:0:0:
96,160,113918,1,8,0:0:0:0:
160,160,114034,1,0,0:0:0:0:
160,160,114091,1,8,0:0:0:0:
192,160,114149,1,8,0:0:0:0:
192,160,114207,1,8,0:0:0:0:
160,128,114265,1,0,0:0:0:0:
192,160,114322,1,8,0:0:0:0:
192,160,114380,1,8,0:0:0:0:
192,160,114437,1,8,0:0:0:0:
160,128,114495,1,0,0:0:0:0:
128,128,114610,1,8,0:0:0:0:
160,128,114726,1,0,0:0:0:0:
128,128,114841,1,8,0:0:0:0:
160,128,114957,1,0,0:0:0:0:
128,128,115072,1,8,0:0:0:0:
160,128,115188,1,0,0:0:0:0:
96,160,115303,1,8,0:0:0:0:
96,160,115360,1,8,0:0:0:0:
160,128,115418,1,0,0:0:0:0:
96,160,115534,1,8,0:0:0:0:
160,128,115649,1,0,0:0:0:0:
96,160,115764,1,8,0:0:0:0:
160,128,115880,1,0,0:0:0:0:
96,160,115937,1,0,0:0:0:0:
192,128,115995,1,0,0:0:0:0:
96,160,116110,1,8,0:0:0:0:
160,128,116168,1,8,0:0:0:0:
128,128,116226,1,8,0:0:0:0:
320,160,116341,1,4,0:0:0:0:
320,160,116687,1,8,0:0:0:0:
320,160,116745,1,8,0:0:0:0:
320,160,116803,1,0,0:0:0:0:
288,160,117034,1,8,0:0:0:0:
288,160,117149,1,0,0:0:0:0:
288,160,117380,1,0,0:0:0:0:
288,160,117495,1,8,0:0:0:0:
128,192,117726,1,12,0:0:0:0:
128,192,117957,1,0,0:0:0:0:
128,192,118014,1,0,0:0:0:0:
128,192,118072,1,0,0:0:0:0:
192,160,118187,1,0,0:0:0:0:
224,128,118245,1,0,0:0:0:0:
224,128,118303,1,8,0:0:0:0:
256,128,118418,1,0,0:0:0:0:
224,128,118534,1,8,0:0:0:0:
192,192,118649,1,0,0:0:0:0:
192,160,118707,1,8,0:0:0:0:
224,128,118822,1,8,0:0:0:0:
224,128,118880,1,0,0:0:0:0:
224,128,118995,1,8,0:0:0:0:
224,128,119110,1,0,0:0:0:0:
224,128,119226,1,8,0:0:0:0:
224,128,119284,1,8,0:0:0:0:
224,128,119341,1,0,0:0:0:0:
224,128,119399,1,0,0:0:0:0:
224,128,119457,1,8,0:0:0:0:
224,128,119572,1,0,0:0:0:0:
192,128,119630,1,0,0:0:0:0:
160,128,119687,1,0,0:0:0:0:
160,128,119803,1,8,0:0:0:0:
160,128,119860,1,8,0:0:0:0:
160,128,119918,1,8,0:0:0:0:
160,128,120034,1,0,0:0:0:0:
192,128,120091,1,0,0:0:0:0:
192,128,120149,1,0,0:0:0:0:
192,128,120264,1,0,0:0:0:0:
160,128,120322,1,0,0:0:0:0:
192,128,120380,1,8,0:0:0:0:
192,128,120495,1,0,0:0:0:0:
192,128,120610,1,8,0:0:0:0:
192,128,120726,1,0,0:0:0:0:
192,128,120784,1,8,0:0:0:0:
160,128,120899,1,8,0:0:0:0:
160,128,120957,1,0,0:0:0:0:
128,160,121072,1,8,0:0:0:0:
128,160,121187,1,0,0:0:0:0:
128,160,121245,1,0,0:0:0:0:
160,128,121303,1,8,0:0:0:0:
160,128,121360,1,8,0:0:0:0:
160,128,121418,1,0,0:0:0:0:
160,128,121476,1,8,0:0:0:0:
160,128,121534,1,8,0:0:0:0:
160,128,121591,1,0,0:0:0:0:
160,128,121649,1,8,0:0:0:0:
160,128,121707,1,8,0:0:0:0:
160,128,121764,1,0,0:0:0:0:
128,160,121880,1,0,0:0:0:0:
128,160,121937,1,0,0:0:0:0:
160,160,121995,1,0,0:0:0:0:
160,160,122110,1,0,0:0:0:0:
128,160,122168,1,0,0:0:0:0:
128,160,122226,1,8,0:0:0:0:
128,160,122341,1,0,0:0:0:0:
128,160,122457,1,8,0:0:0:0:
128,160,122572,1,0,0:0:0:0:
128,160,122630,1,8,0:0:0:0:
128,160,122745,1,8,0:0:0:0:
128,160,122803,1,0,0:0:0:0:
128,160,122860,1,0,0:0:0:0:
128,160,122918,1,8,0:0:0:0:
128,160,123034,1,0,0:0:0:0:
128,160,123149,1,8,0:0:0:0:
128,160,123207,1,8,0:0:0:0:
128,160,123264,1,0,0:0:0:0:
128,160,123322,1,0,0:0:0:0:
128,160,123380,1,8,0:0:0:0:
128,160,123437,1,8,0:0:0:0:
128,160,123495,1,0,0:0:0:0:
128,160,123553,1,0,0:0:0:0:
128,160,123610,1,8,0:0:0:0:
128,160,123726,1,0,0:0:0:0:
128,160,123957,1,0,0:0:0:0:
128,160,124072,1,8,0:0:0:0:
128,160,124303,1,8,0:0:0:0:
128,160,124418,1,0,0:0:0:0:
128,160,124534,1,0,0:0:0:0:
128,160,124649,1,0,0:0:0:0:
128,160,124764,1,0,0:0:0:0:
128,160,124880,1,8,0:0:0:0:
64,128,125110,1,0,0:0:0:0:
128,160,125572,1,0,0:0:0:0:
128,160,125687,1,0,0:0:0:0:
128,160,125745,1,0,0:0:0:0:
128,160,125803,1,0,0:0:0:0:
128,160,125918,1,0,0:0:0:0:
128,160,126034,1,8,0:0:0:0:
128,160,126149,1,0,0:0:0:0:
128,160,126264,1,8,0:0:0:0:
128,160,126380,1,8,0:0:0:0:
128,160,126495,1,0,0:0:0:0:
96,160,126610,1,0,0:0:0:0:
96,192,126726,1,8,0:0:0:0:
96,192,126841,1,0,0:0:0:0:
64,256,126957,1,8,0:0:0:0:
64,224,127014,1,8,0:0:0:0:
64,192,127072,1,8,0:0:0:0:
96,160,127187,1,8,0:0:0:0:
96,96,127418,1,0,0:0:0:0:
96,128,127534,1,0,0:0:0:0:
96,128,127591,1,0,0:0:0:0:
96,128,127649,1,0,0:0:0:0:
96,128,127764,1,0,0:0:0:0:
128,224,127880,1,8,0:0:0:0:
96,128,127995,1,8,0:0:0:0:
96,128,128110,1,0,0:0:0:0:
96,128,128226,1,0,0:0:0:0:
96,128,128284,1,8,0:0:0:0:
96,128,128341,1,0,0:0:0:0:
96,128,128457,1,0,0:0:0:0:
96,128,128572,1,8,0:0:0:0:
64,128,128687,1,0,0:0:0:0:
64,128,128803,1,8,0:0:0:0:
64,128,128860,1,8,0:0:0:0:
32,128,128918,1,8,0:0:0:0:
64,128,129034,1,8,0:0:0:0:
128,160,129264,1,0,0:0:0:0:
128,160,129379,1,0,0:0:0:0:
128,160,129437,1,0,0:0:0:0:
128,160,129495,1,0,0:0:0:0:
128,160,129610,1,0,0:0:0:0:
128,160,129726,1,8,0:0:0:0:
128,160,129841,1,0,0:0:0:0:
128,160,129956,1,8,0:0:0:0:
128,160,130072,1,8,0:0:0:0:
128,160,130187,1,0,0:0:0:0:
96,160,130302,1,0,0:0:0:0:
96,192,130418,1,8,0:0:0:0:
96,192,130533,1,0,0:0:0:0:
64,256,130649,1,8,0:0:0:0:
64,224,130706,1,8,0:0:0:0:
64,192,130764,1,8,0:0:0:0:
96,160,130879,1,8,0:0:0:0:
96,96,131110,1,0,0:0:0:0:
96,128,131226,1,0,0:0:0:0:
96,128,131283,1,0,0:0:0:0:
96,128,131341,1,0,0:0:0:0:
96,128,131456,1,0,0:0:0:0:
128,224,131572,1,8,0:0:0:0:
96,128,131687,1,8,0:0:0:0:
96,128,131802,1,0,0:0:0:0:
96,128,131918,1,0,0:0:0:0:
96,128,131976,1,8,0:0:0:0:
96,128,132033,1,0,0:0:0:0:
96,128,132149,1,0,0:0:0:0:
96,128,132264,1,8,0:0:0:0:
64,128,132379,1,0,0:0:0:0:
64,128,132495,1,8,0:0:0:0:
64,128,132552,1,8,0:0:0:0:
32,128,132610,1,8,0:0:0:0:
64,128,132726,1,0,0:0:0:0:
128,128,132957,1,0,0:0:0:0:
256,160,133072,1,0,0:0:0:0:
256,160,133130,1,0,0:0:0:0:
256,160,133187,1,0,0:0:0:0:
256,160,133303,1,0,0:0:0:0:
256,160,133418,1,8,0:0:0:0:
224,192,133534,1,8,0:0:0:0:
128,128,133649,1,0,0:0:0:0:
224,192,133707,1,0,0:0:0:0:
128,128,133764,1,0,0:0:0:0:
128,160,133880,1,0,0:0:0:0:
160,128,133995,1,8,0:0:0:0:
128,160,134110,1,8,0:0:0:0:
96,128,134226,1,0,0:0:0:0:
128,128,134341,1,8,0:0:0:0:
160,128,134399,1,8,0:0:0:0:
160,128,134457,1,8,0:0:0:0:
192,160,134572,1,8,0:0:0:0:
128,160,134803,1,0,0:0:0:0:
160,160,134918,1,0,0:0:0:0:
128,160,134976,1,0,0:0:0:0:
96,160,135034,1,0,0:0:0:0:
96,160,135149,1,0,0:0:0:0:
96,64,135264,1,8,0:0:0:0:
96,160,135380,1,0,0:0:0:0:
192,160,135495,1,8,0:0:0:0:
128,160,135553,1,8,0:0:0:0:
160,160,135610,1,8,0:0:0:0:
128,160,135726,1,8,0:0:0:0:
128,160,135841,1,0,0:0:0:0:
192,160,135957,1,8,0:0:0:0:
160,160,136072,1,0,0:0:0:0:
192,160,136187,1,8,0:0:0:0:
160,160,136245,1,8,0:0:0:0:
128,160,136303,1,8,0:0:0:0:
128,160,136418,1,8,0:0:0:0:
128,128,136649,1,0,0:0:0:0:
256,160,136764,1,0,0:0:0:0:
256,160,136822,1,0,0:0:0:0:
256,160,136879,1,0,0:0:0:0:
256,160,136995,1,0,0:0:0:0:
256,160,137110,1,8,0:0:0:0:
224,192,137226,1,8,0:0:0:0:
128,128,137341,1,0,0:0:0:0:
224,192,137399,1,0,0:0:0:0:
128,128,137456,1,0,0:0:0:0:
128,160,137572,1,0,0:0:0:0:
160,128,137687,1,8,0:0:0:0:
128,160,137802,1,8,0:0:0:0:
96,128,137918,1,0,0:0:0:0:
128,128,138033,1,8,0:0:0:0:
160,128,138091,1,8,0:0:0:0:
160,128,138149,1,8,0:0:0:0:
192,160,138264,1,8,0:0:0:0:
128,160,138495,1,0,0:0:0:0:
160,160,138610,1,0,0:0:0:0:
128,160,138668,1,0,0:0:0:0:
96,160,138726,1,0,0:0:0:0:
96,160,138841,1,0,0:0:0:0:
96,64,138956,1,8,0:0:0:0:
96,160,139072,1,0,0:0:0:0:
192,160,139187,1,8,0:0:0:0:
128,160,139245,1,8,0:0:0:0:
160,160,139302,1,8,0:0:0:0:
128,160,139418,1,8,0:0:0:0:
128,160,139533,1,0,0:0:0:0:
192,160,139649,1,8,0:0:0:0:
160,160,139764,1,0,0:0:0:0:
192,160,139879,1,8,0:0:0:0:
160,160,139995,1,8,0:0:0:0:
128,160,140053,1,8,0:0:0:0:
128,160,140110,1,0,0:0:0:0:
64,128,140341,1,4,0:0:0:0:
64,128,140726,1,8,0:0:0:0:
96,224,141034,1,0,0:0:0:0:
192,128,141495,1,8,0:0:0:0:
128,160,141726,1,8,0:0:0:0:
192,192,141957,1,0,0:0:0:0:
128,160,142187,1,0,0:0:0:0:
256,224,142572,1,8,0:0:0:0:
160,192,142880,1,0,0:0:0:0:
96,128,143341,1,8,0:0:0:0:
64,128,143572,1,8,0:0:0:0:
64,128,143803,1,0,0:0:0:0:
64,192,144034,1,0,0:0:0:0:
192,128,144418,1,8,0:0:0:0:
96,160,144726,1,0,0:0:0:0:
32,160,145187,1,8,0:0:0:0:
64,192,145418,1,8,0:0:0:0:
128,160,145649,1,0,0:0:0:0:
128,160,145880,1,4,0:0:0:0:
256,224,146341,1,12,0:0:0:0:
224,192,146457,1,12,0:0:0:0:
192,192,146572,1,12,0:0:0:0:
128,160,146803,1,4,0:0:0:0:
128,96,147034,1,12,0:0:0:0:
128,160,147264,1,4,0:0:0:0:
128,128,147380,1,4,0:0:0:0:
128,128,147495,1,4,0:0:0:0:
128,128,147726,1,12,0:0:0:0:
128,128,148072,1,0,0:0:0:0:
32,160,148418,1,8,0:0:0:0:
32,160,148649,1,12,0:0:0:0:
128,128,148995,1,12,0:0:0:0:
32,160,149341,1,8,0:0:0:0:
64,160,149399,1,8,0:0:0:0:
64,160,149457,1,8,0:0:0:0:
96,160,149514,1,8,0:0:0:0:
128,160,149572,1,8,0:0:0:0:
160,160,149630,1,8,0:0:0:0:
160,160,149687,1,8,0:0:0:0:
128,128,149803,1,12,0:0:0:0:
128,128,150149,1,12,0:0:0:0:
128,128,150495,1,12,0:0:0:0:
96,128,150957,1,0,0:0:0:0:
128,128,151418,1,12,0:0:0:0:
32,224,151880,1,0,0:0:0:0:
128,128,152341,1,12,0:0:0:0:
32,224,152803,1,0,0:0:0:0:
64,128,153264,1,12,0:0:0:0:
96,192,153495,1,0,0:0:0:0:
64,128,153726,1,12,0:0:0:0:
96,192,153957,1,0,0:0:0:0:
64,128,154187,1,0,0:0:0:0:
64,128,154245,1,0,0:0:0:0:
32,160,154303,1,0,0:0:0:0:
32,160,154360,1,0,0:0:0:0:
32,160,154418,1,0,0:0:0:0:
32,160,154476,1,0,0:0:0:0:
64,128,154534,1,0,0:0:0:0:
64,128,154591,1,0,0:0:0:0:
64,128,154649,1,0,0:0:0:0:
64,128,154687,1,0,0:0:0:0:
64,128,154726,1,0,0:0:0:0:
64,128,154764,1,0,0:0:0:0:
64,128,154803,1,0,0:0:0:0:
64,128,154841,1,0,0:0:0:0:
64,128,154880,1,0,0:0:0:0:
96,128,154918,1,0,0:0:0:0:
96,128,154957,1,0,0:0:0:0:
96,128,154995,1,0,0:0:0:0:
96,128,155034,1,0,0:0:0:0:
96,128,155072,1,0,0:0:0:0:
96,128,155110,1,12,0:0:0:0:
