osu file format v12

[General]
AudioFilename: 12. The Quick Brown Fox - Big Money.mp3
AudioLeadIn: 0
PreviewTime: -1
Countdown: 1
SampleSet: Normal
StackLeniency: 1
Mode: 0
LetterboxInBreaks: 1
WidescreenStoryboard: 0

[Editor]
DistanceSpacing: 0.5
BeatDivisor: 12
GridSize: 8

[Metadata]
Title:Big Money(Please Auto)
TitleUnicode:Big Money(Please Auto)
Artist:The Quick Brown Fox
ArtistUnicode:The Quick Brown Fox
Creator:kkkkssss
Version:Beautiful
Source:
Tags:
BeatmapID:222277
BeatmapSetID:79701

[Difficulty]
HPDrainRate:0
CircleSize:3
OverallDifficulty:5
ApproachRate:9
SliderMultiplier:1.4
SliderTickRate:1

[Events]
//Background and Video events
0,0,"the money.jpg",0,0
//Break Periods
//Storyboard Layer 0 (Background)
//Storyboard Layer 1 (Fail)
//Storyboard Layer 2 (Pass)
//Storyboard Layer 3 (Foreground)
//Storyboard Sound Samples
//Background Colour Transformations
3,100,163,162,255

[TimingPoints]
0,214.285714285714,4,1,0,100,1,0
20571,71.4285714285714,4,1,0,100,1,0
28285,71.4285714285714,4,1,0,100,1,0
29999,214.285714285714,4,1,0,100,1,0
44141,214.285714285714,4,1,0,100,1,1
58283,214.285714285714,4,1,0,100,1,0
70284,71.4285714285714,4,1,0,100,1,1
71426,214.285714285714,4,1,0,100,1,1
71961,214.285714285714,4,1,0,100,1,1
85675,214.285714285714,4,1,0,100,1,0
116532,214.285714285714,4,1,0,100,1,1
122960,71.4285714285714,4,1,0,100,1,1
123388,214.285714285714,4,1,0,100,1,1
133459,53.5714285714286,4,1,0,100,1,1
133673,214.285714285714,4,1,0,100,1,1
143958,214.285714285714,4,1,0,100,1,0
154243,71.4285714285714,4,1,0,100,1,0
157385,214.285714285714,4,1,0,100,1,1
157688,214.285714285714,4,1,0,100,1,1

[HitObjects]
0,0,13714,1,0,0:0:0:0:
512,0,14142,1,0,0:0:0:0:
0,384,14571,1,0,0:0:0:0:
512,384,15000,1,0,0:0:0:0:
256,0,15428,1,0,0:0:0:0:
0,192,15857,1,0,0:0:0:0:
248,384,16285,1,0,0:0:0:0:
384,288,16500,1,0,0:0:0:0:
512,192,16714,1,0,0:0:0:0:
256,192,17142,5,0,0:0:0:0:
512,0,17571,5,0,0:0:0:0:
0,384,17785,1,0,0:0:0:0:
512,64,18000,1,0,0:0:0:0:
0,320,18214,1,0,0:0:0:0:
512,128,18428,1,0,0:0:0:0:
0,256,18642,1,0,0:0:0:0:
512,192,18857,1,0,0:0:0:0:
0,192,19071,1,0,0:0:0:0:
512,256,19285,1,0,0:0:0:0:
0,128,19500,1,0,0:0:0:0:
512,320,19714,1,0,0:0:0:0:
0,64,19928,1,0,0:0:0:0:
512,384,20142,1,0,0:0:0:0:
0,0,20357,1,0,0:0:0:0:
0,0,20571,6,0,B|512:192|512:192|240:192,1,805
0,192,21428,1,0,0:0:0:0:
512,192,21642,1,0,0:0:0:0:
256,0,21856,1,0,0:0:0:0:
256,384,22071,1,0,0:0:0:0:
512,0,22285,6,0,B|0:192|0:192|376:192,1,840
0,0,23142,1,0,0:0:0:0:
512,384,23356,1,0,0:0:0:0:
512,0,23571,1,0,0:0:0:0:
0,384,23785,1,0,0:0:0:0:
248,24,23999,6,0,B|232:56|232:56|264:56|264:56|232:64|232:64|264:64|264:64|232:72|232:72|264:72|264:72|232:80|232:80|264:80|264:80|232:88|232:88|264:88|264:88|232:96|232:96|264:96|264:96|232:104|232:104|264:104|264:104|232:112|232:112|264:112|264:112|232:120|232:120|264:120|264:120|232:128|232:128|264:128|264:128|248:136|248:136|248:360|248:360,1,892.5
488,8,27428,6,0,P|336:0|520:368,1,840
256,0,28285,5,8,0:0:0:0:
256,192,28499,1,8,0:0:0:0:
256,384,28713,1,8,0:0:0:0:
0,192,28874,1,8,0:0:0:0:
512,192,28981,1,8,0:0:0:0:
0,16,29142,6,0,P|192:8|-32:328,1,840
256,0,29999,5,8,0:0:0:0:
336,192,30213,1,8,0:0:0:0:
256,384,30427,1,8,0:0:0:0:
176,192,30641,1,8,0:0:0:0:
256,192,30856,12,0,30891,0:0:0:0:
112,88,31713,5,8,0:0:0:0:
408,88,31927,1,8,0:0:0:0:
408,312,32141,1,8,0:0:0:0:
112,312,32356,1,8,0:0:0:0:
256,192,32463,1,8,0:0:0:0:
256,0,32570,1,8,0:0:0:0:
512,192,32784,5,8,0:0:0:0:
256,384,32998,1,8,0:0:0:0:
0,192,33213,1,8,0:0:0:0:
256,0,33427,1,8,0:0:0:0:
400,88,33641,5,0,0:0:0:0:
400,296,33856,1,0,0:0:0:0:
120,296,34070,1,0,0:0:0:0:
256,192,34284,12,0,34320,0:0:0:0:
0,384,34927,5,0,0:0:0:0:
256,0,35141,1,0,0:0:0:0:
512,384,35356,1,0,0:0:0:0:
256,192,35570,12,0,35606,0:0:0:0:
0,0,36213,5,8,0:0:0:0:
512,0,36427,1,8,0:0:0:0:
512,384,36641,1,8,0:0:0:0:
0,384,36856,1,8,0:0:0:0:
256,192,37070,12,0,37106,0:0:0:0:
0,192,37427,5,0,0:0:0:0:
512,192,37534,1,0,0:0:0:0:
256,192,37713,12,0,37748,0:0:0:0:
256,192,38141,5,0,0:0:0:0:
256,192,38570,12,0,38606,0:0:0:0:
256,88,38998,5,0,0:0:0:0:
112,296,39213,1,0,0:0:0:0:
400,296,39284,1,0,0:0:0:0:
256,192,39427,12,0,39463,0:0:0:0:
256,192,39856,12,0,39891,0:0:0:0:
256,192,40284,12,0,40320,0:0:0:0:
256,192,40498,12,0,40534,0:0:0:0:
256,192,40713,12,0,40749,0:0:0:0:
256,192,40820,12,0,40855,0:0:0:0:
256,192,40927,12,0,40963,0:0:0:0:
256,192,41034,12,0,41070,0:0:0:0:
152,192,44141,5,0,0:0:0:0:
160,192,44159,1,0,0:0:0:0:
168,192,44177,1,0,0:0:0:0:
176,192,44195,1,0,0:0:0:0:
184,192,44213,1,0,0:0:0:0:
192,192,44231,1,0,0:0:0:0:
200,192,44248,1,0,0:0:0:0:
208,192,44266,1,0,0:0:0:0:
216,192,44284,1,0,0:0:0:0:
224,192,44302,1,0,0:0:0:0:
232,192,44320,1,0,0:0:0:0:
240,192,44338,1,0,0:0:0:0:
248,192,44356,1,0,0:0:0:0:
256,192,44373,1,0,0:0:0:0:
264,192,44391,1,0,0:0:0:0:
272,192,44409,1,0,0:0:0:0:
280,192,44427,1,0,0:0:0:0:
288,192,44445,1,0,0:0:0:0:
296,192,44463,1,0,0:0:0:0:
304,192,44481,1,0,0:0:0:0:
312,192,44498,1,0,0:0:0:0:
320,192,44516,1,0,0:0:0:0:
328,192,44534,1,0,0:0:0:0:
336,192,44552,1,0,0:0:0:0:
344,192,44570,1,0,0:0:0:0:
256,384,44677,5,0,0:0:0:0:
392,192,44784,1,0,0:0:0:0:
256,280,44891,1,0,0:0:0:0:
256,0,44998,1,0,0:0:0:0:
0,192,45106,1,0,0:0:0:0:
488,320,45213,2,0,B|504:360|480:376|432:360,1,70
64,352,45427,6,0,P|24:336|32:304,1,70
24,64,45641,2,0,P|40:24|80:40,1,70
448,24,45856,2,0,P|488:40|480:72,1,70
488,320,46070,2,0,P|480:352|440:352,1,70
96,96,46284,6,0,P|136:72|136:32,1,70,0|0,0:0|0:0,0:0:0:0:
416,272,46498,2,0,P|384:288|376:320,1,70
376,56,46713,2,0,P|392:96|416:104,1,70
104,272,46927,2,0,P|144:296|144:328,1,70
192,64,47141,5,0,0:0:0:0:
0,192,47248,1,0,0:0:0:0:
320,64,47356,1,0,0:0:0:0:
512,192,47463,1,0,0:0:0:0:
416,272,47570,2,0,P|408:312|368:312,1,70
96,272,47784,2,0,P|104:312|144:312,1,70
88,64,47998,5,0,0:0:0:0:
424,280,48106,1,0,0:0:0:0:
48,24,48213,1,0,0:0:0:0:
464,320,48320,1,0,0:0:0:0:
96,272,48427,2,0,P|112:312|136:312,1,70
368,48,48641,2,0,P|400:56|408:88,1,70
424,64,48856,5,0,0:0:0:0:
96,280,48963,1,0,0:0:0:0:
464,24,49070,1,0,0:0:0:0:
56,320,49177,1,0,0:0:0:0:
424,280,49284,2,0,P|416:320|376:320,1,70
96,88,49498,2,0,P|104:48|136:48,1,70
368,48,49713,6,0,P|400:96|432:104,1,70
112,312,49927,1,0,0:0:0:0:
400,72,50034,1,0,0:0:0:0:
88,280,50141,2,0,P|136:336|136:352,1,70
400,72,50356,1,0,0:0:0:0:
112,312,50463,1,0,0:0:0:0:
248,192,50587,6,0,L|264:192,47,11.6666666666667
0,0,51534,1,0,0:0:0:0:
512,0,51641,1,0,0:0:0:0:
0,384,51748,1,0,0:0:0:0:
360,96,51856,2,0,L|424:40,1,70
152,288,52070,2,0,L|88:344,1,70
400,192,52284,2,0,L|480:192,1,70
104,192,52498,2,0,L|16:192,1,70
144,88,52713,6,0,L|72:24,1,70
416,344,52927,2,0,L|352:280,1,70
256,64,53141,2,0,L|256:-16,1,70
256,384,53356,2,0,L|256:296,1,70
512,192,53570,6,0,L|424:192,1,70
0,192,53784,2,0,L|80:192,1,70
72,48,53998,5,0,0:0:0:0:
440,48,54106,1,0,0:0:0:0:
184,160,54213,1,0,0:0:0:0:
328,160,54320,1,0,0:0:0:0:
72,328,54427,5,0,0:0:0:0:
440,328,54534,1,0,0:0:0:0:
184,224,54641,1,0,0:0:0:0:
328,224,54748,1,0,0:0:0:0:
112,104,54856,6,0,B|72:104|72:144|88:160,1,70
176,288,55070,2,0,P|192:328|240:320,1,70
368,280,55284,2,0,P|400:248|368:216,1,70
368,88,55498,2,0,P|360:56|312:48,1,70
64,56,55713,5,0,0:0:0:0:
416,320,55820,1,0,0:0:0:0:
40,160,55927,2,0,P|24:192|56:224,1,70
448,56,56141,5,0,0:0:0:0:
64,320,56248,1,0,0:0:0:0:
472,160,56356,2,0,P|488:192|472:224,1,70
256,192,56570,12,0,56606,0:0:0:0:
32,104,58284,6,0,P|48:40|136:32,1,140
480,272,58713,2,0,P|472:336|400:360,1,140
336,112,59141,5,0,0:0:0:0:
176,272,59356,1,0,0:0:0:0:
448,0,59570,1,0,0:0:0:0:
80,376,59784,1,0,0:0:0:0:
256,0,59998,5,2,0:0:0:0:
0,192,60320,1,2,0:0:0:0:
512,192,60534,1,2,0:0:0:0:
256,384,60748,1,2,0:0:0:0:
136,64,60856,5,0,0:0:0:0:
376,64,60963,1,0,0:0:0:0:
256,192,61070,1,0,0:0:0:0:
256,344,61284,1,0,0:0:0:0:
152,112,61713,6,0,P|120:80|128:48,1,70
176,272,61927,2,0,P|160:312|120:320,1,70
360,256,62141,2,0,P|392:280|392:320,1,70
336,96,62356,2,0,P|352:56|384:48,1,70
144,168,62570,6,0,P|120:184|80:176,1,70
240,304,62784,2,0,P|256:344|232:384,1,70
368,200,62998,2,0,P|408:184|432:208,1,70
280,80,63213,2,0,P|280:32|320:24,1,70
152,232,63427,6,0,P|112:264|80:248,1,70
312,296,63641,2,0,B|352:336|320:376|320:368,1,70
344,120,63856,2,0,P|384:96|424:120,1,70
192,96,64070,2,0,P|168:56|192:16,1,70
256,192,64391,12,0,64427,0:0:0:0:
256,192,64498,12,0,64534,0:0:0:0:
256,192,64713,12,0,64748,0:0:0:0:
256,0,65141,5,0,0:0:0:0:
256,384,65356,5,0,0:0:0:0:
256,0,65570,5,0,0:0:0:0:
256,384,65784,5,0,0:0:0:0:
512,192,65998,5,0,0:0:0:0:
0,192,66213,5,0,0:0:0:0:
512,192,66427,5,0,0:0:0:0:
0,192,66641,5,0,0:0:0:0:
512,0,66856,5,0,0:0:0:0:
0,384,66963,1,0,0:0:0:0:
440,48,67070,1,0,0:0:0:0:
72,336,67177,1,0,0:0:0:0:
368,104,67284,1,0,0:0:0:0:
144,280,67391,1,0,0:0:0:0:
296,152,67498,1,0,0:0:0:0:
216,232,67606,1,0,0:0:0:0:
0,0,67713,5,0,0:0:0:0:
512,384,67820,1,0,0:0:0:0:
64,48,67927,1,0,0:0:0:0:
440,336,68034,1,0,0:0:0:0:
144,104,68141,1,0,0:0:0:0:
368,280,68248,1,0,0:0:0:0:
216,152,68356,1,0,0:0:0:0:
296,232,68463,1,0,0:0:0:0:
256,192,68570,12,0,68606,0:0:0:0:
8,64,70284,6,0,B|56:128|56:128|104:64|104:64|56:128|56:128|56:232,1,315
152,64,70462,6,0,B|216:64|216:64|152:64|152:64|152:144|152:144|208:144|208:144|152:144|152:144|152:208|152:208|240:208,1,455
320,56,70712,6,0,B|272:216|272:216|296:136|296:136|352:136|352:136|376:216|376:216|320:48,1,560
424,48,71034,6,0,B|424:224|424:224|424:136|424:136|488:136|488:136|488:40|488:48|488:48|488:232,1,595
256,192,71426,12,0,71461,0:0:0:0:
256,192,71533,12,0,71568,0:0:0:0:
0,192,71747,5,0,0:0:0:0:
72,192,71765,1,0,0:0:0:0:
144,192,71783,1,0,0:0:0:0:
216,192,71801,1,0,0:0:0:0:
296,192,71818,1,0,0:0:0:0:
440,192,71836,1,0,0:0:0:0:
368,192,71854,1,0,0:0:0:0:
512,192,71872,1,0,0:0:0:0:
512,384,71961,5,0,0:0:0:0:
392,0,72068,1,0,0:0:0:0:
256,384,72176,1,0,0:0:0:0:
128,0,72283,1,0,0:0:0:0:
0,384,72390,1,0,0:0:0:0:
512,0,72497,1,0,0:0:0:0:
0,0,72604,1,0,0:0:0:0:
512,384,72711,1,0,0:0:0:0:
0,384,72818,1,0,0:0:0:0:
168,328,72926,6,0,P|160:280|176:248,1,70
336,48,73140,2,0,P|344:88|328:128,1,70
112,192,73354,5,0,0:0:0:0:
400,192,73461,1,0,0:0:0:0:
256,72,73568,6,0,L|256:-16,1,70
256,384,73783,2,0,L|256:304,1,70
176,112,73997,2,0,L|104:40,1,70
392,320,74211,2,0,L|320:248,1,70
136,192,74426,2,0,L|40:192,1,70
448,192,74640,2,0,L|368:192,1,70
176,272,74854,2,0,L|112:336,1,70
392,56,75068,2,0,L|328:128,1,70
0,0,75283,5,0,0:0:0:0:
376,136,75390,1,0,0:0:0:0:
112,248,75497,1,0,0:0:0:0:
512,376,75604,1,0,0:0:0:0:
112,96,75711,6,0,P|136:56|160:56,1,70
360,56,75925,2,0,P|392:64|400:104,1,70
408,272,76139,2,0,P|392:312|360:312,1,70
152,312,76353,2,0,P|120:304|112:272,1,70
112,96,76568,6,0,P|152:80|152:48,1,70
352,56,76782,2,0,P|368:96|400:96,1,70
400,272,76996,2,0,P|360:288|352:320,1,70
152,312,77211,2,0,P|136:272|96:272,1,70
0,192,77425,5,0,0:0:0:0:
160,128,77532,1,0,0:0:0:0:
336,264,77639,1,0,0:0:0:0:
504,80,77746,1,0,0:0:0:0:
496,192,77853,5,0,0:0:0:0:
352,128,77960,1,0,0:0:0:0:
160,264,78068,1,0,0:0:0:0:
248,192,78175,6,0,L|264:192,19,23.3333333333333
0,384,78925,5,0,0:0:0:0:
504,0,79032,1,0,0:0:0:0:
504,384,79139,1,0,0:0:0:0:
96,56,79246,6,0,L|160:120,1,70
416,336,79460,2,0,L|352:280,1,70
408,56,79675,2,0,L|336:128,1,70
96,336,79889,2,0,L|160:280,1,70
408,192,80103,5,0,0:0:0:0:
112,192,80211,1,0,0:0:0:0:
256,56,80318,1,0,0:0:0:0:
256,320,80425,1,0,0:0:0:0:
384,16,80532,6,0,P|408:56|384:80,1,70
456,120,80746,2,0,P|416:136|400:112,1,70
368,176,80960,2,0,P|344:144|368:112,1,70
296,72,81175,2,0,P|328:56|360:80,1,70
192,56,81389,5,0,0:0:0:0:
312,176,81496,1,0,0:0:0:0:
112,192,81603,1,0,0:0:0:0:
240,304,81710,1,0,0:0:0:0:
320,56,81818,5,0,0:0:0:0:
200,176,81925,1,0,0:0:0:0:
392,192,82032,1,0,0:0:0:0:
272,304,82139,1,0,0:0:0:0:
0,8,82246,6,0,L|80:8,1,70
512,8,82460,2,0,L|512:80,1,70
512,376,82675,2,0,L|440:376,1,70
0,384,82889,2,0,L|0:312,1,70
256,0,83103,6,0,L|176:64,1,70
0,192,83318,2,0,L|72:264,1,70
256,384,83532,2,0,L|336:320,1,70
512,192,83746,2,0,L|440:128,1,70
256,192,83960,12,0,83996,0:0:0:0:
0,0,85675,5,0,0:0:0:0:
512,384,86103,1,0,0:0:0:0:
256,64,86532,1,0,0:0:0:0:
256,192,86746,1,0,0:0:0:0:
128,192,86960,1,0,0:0:0:0:
392,0,87389,5,0,0:0:0:0:
120,112,87603,1,0,0:0:0:0:
392,216,87818,1,0,0:0:0:0:
120,320,88032,1,0,0:0:0:0:
120,0,88246,5,2,0:0:0:0:
392,112,88460,1,2,0:0:0:0:
120,216,88675,1,2,0:0:0:0:
392,320,88889,1,2,0:0:0:0:
152,16,89103,6,0,P|168:56|152:80,1,70
240,120,89318,2,0,P|192:128|160:96,1,70
152,200,89532,2,0,P|136:152|152:120,1,70
56,112,89746,2,0,P|112:96|128:104,1,70
352,184,89960,6,0,P|368:224|352:248,1,70
440,272,90175,2,0,P|400:288|360:264,1,70
344,360,90389,2,0,P|328:320|344:288,1,70
256,272,90603,2,0,P|288:256|336:280,1,70
256,40,90818,6,0,P|272:64|232:104,1,70
432,192,91032,2,0,P|400:208|368:192,1,70
264,352,91246,2,0,P|248:312|272:280,1,70
96,192,91460,2,0,P|128:176|160:200,1,70
168,96,91674,6,2,L|104:32,1,70
336,272,91889,2,2,L|400:344,1,70
336,96,92103,2,2,L|400:32,1,70
176,272,92317,2,2,L|120:336,1,70
256,0,92532,5,0,0:0:0:0:
256,384,92746,1,0,0:0:0:0:
256,192,92960,1,0,0:0:0:0:
0,192,93067,1,0,0:0:0:0:
512,192,93174,1,0,0:0:0:0:
0,0,93389,5,0,0:0:0:0:
512,384,93603,1,0,0:0:0:0:
256,192,93817,1,0,0:0:0:0:
80,368,93924,1,0,0:0:0:0:
432,16,94032,1,0,0:0:0:0:
0,192,94246,5,0,0:0:0:0:
512,192,94460,1,0,0:0:0:0:
256,192,94674,1,0,0:0:0:0:
256,384,94782,1,0,0:0:0:0:
256,0,94889,1,0,0:0:0:0:
0,384,95103,5,2,0:0:0:0:
512,0,95317,1,2,0:0:0:0:
256,192,95532,1,2,0:0:0:0:
432,360,95639,1,2,0:0:0:0:
96,24,95746,1,2,0:0:0:0:
168,104,95960,5,0,0:0:0:0:
256,304,96174,1,0,0:0:0:0:
344,104,96282,1,0,0:0:0:0:
432,192,96389,1,0,0:0:0:0:
88,192,96603,1,2,0:0:0:0:
344,304,96817,5,0,0:0:0:0:
256,104,97032,1,0,0:0:0:0:
168,304,97139,1,0,0:0:0:0:
88,192,97246,1,0,0:0:0:0:
432,192,97460,1,2,0:0:0:0:
256,192,97674,12,0,97710,0:0:0:0:
0,8,99389,5,0,0:0:0:0:
256,0,99818,1,0,0:0:0:0:
256,192,100245,1,0,0:0:0:0:
0,192,100460,1,0,0:0:0:0:
512,192,100674,1,0,0:0:0:0:
256,384,100888,1,0,0:0:0:0:
512,0,100996,1,0,0:0:0:0:
0,384,101103,1,0,0:0:0:0:
512,0,101532,5,0,0:0:0:0:
256,192,101961,1,0,0:0:0:0:
0,0,102389,1,0,0:0:0:0:
512,192,102604,1,0,0:0:0:0:
256,384,102710,1,0,0:0:0:0:
0,192,102818,1,0,0:0:0:0:
256,0,103032,5,0,0:0:0:0:
0,192,103246,1,0,0:0:0:0:
256,384,103460,1,0,0:0:0:0:
512,192,103674,1,0,0:0:0:0:
256,104,103889,1,0,0:0:0:0:
256,272,104103,1,0,0:0:0:0:
128,0,104317,1,0,0:0:0:0:
256,384,104424,1,0,0:0:0:0:
384,0,104532,1,0,0:0:0:0:
72,232,104960,6,0,P|24:184|96:168,1,140
432,152,105389,2,0,P|480:192|416:232,1,140
256,192,105817,1,0,0:0:0:0:
256,24,106032,5,0,0:0:0:0:
104,368,106139,1,0,0:0:0:0:
400,368,106246,1,0,0:0:0:0:
96,128,106889,6,0,P|112:72|208:64,1,140
392,312,107317,1,0,0:0:0:0:
256,192,107532,12,0,107567,0:0:0:0:
176,64,107746,5,0,0:0:0:0:
344,304,107960,1,0,0:0:0:0:
336,64,108175,1,0,0:0:0:0:
176,304,108389,1,0,0:0:0:0:
400,192,108603,1,0,0:0:0:0:
104,192,108817,1,0,0:0:0:0:
256,192,109032,12,0,109067,0:0:0:0:
256,0,109460,5,0,0:0:0:0:
256,384,109567,1,0,0:0:0:0:
256,192,109674,12,0,109710,0:0:0:0:
256,192,110103,5,0,0:0:0:0:
256,192,110532,12,0,110567,0:0:0:0:
256,384,110960,5,0,0:0:0:0:
144,0,111174,1,0,0:0:0:0:
360,0,111282,1,0,0:0:0:0:
256,192,111389,12,0,111424,0:0:0:0:
256,192,111817,12,0,111853,0:0:0:0:
256,192,112246,12,0,112282,0:0:0:0:
256,192,112460,12,0,112496,0:0:0:0:
256,192,112621,12,0,112657,0:0:0:0:
256,192,112728,12,0,112763,0:0:0:0:
256,192,112835,12,0,112871,0:0:0:0:
256,192,112942,12,0,112995,0:0:0:0:
256,192,113049,12,0,113085,0:0:0:0:
256,88,116103,5,0,0:0:0:0:
256,96,116121,1,0,0:0:0:0:
256,104,116139,1,0,0:0:0:0:
256,112,116157,1,0,0:0:0:0:
256,120,116174,1,0,0:0:0:0:
256,128,116192,1,0,0:0:0:0:
256,136,116210,1,0,0:0:0:0:
256,144,116228,1,0,0:0:0:0:
256,152,116246,1,0,0:0:0:0:
256,160,116264,1,0,0:0:0:0:
256,168,116282,1,0,0:0:0:0:
256,176,116299,1,0,0:0:0:0:
256,184,116317,1,0,0:0:0:0:
256,192,116335,1,0,0:0:0:0:
256,200,116353,1,0,0:0:0:0:
256,208,116371,1,0,0:0:0:0:
256,216,116389,1,0,0:0:0:0:
256,224,116407,1,0,0:0:0:0:
256,232,116424,1,0,0:0:0:0:
256,240,116442,1,0,0:0:0:0:
256,248,116460,1,0,0:0:0:0:
256,256,116478,1,0,0:0:0:0:
256,264,116496,1,0,0:0:0:0:
256,272,116514,1,0,0:0:0:0:
256,384,116532,5,0,0:0:0:0:
120,192,116639,1,0,0:0:0:0:
360,224,116746,1,0,0:0:0:0:
120,0,116853,1,0,0:0:0:0:
344,48,116960,6,0,P|392:80|392:96,1,70
160,312,117174,2,0,P|112:280|112:256,1,70
352,312,117389,6,0,P|392:296|400:264,1,70
160,48,117603,2,0,P|120:56|104:96,1,70
464,192,117817,5,0,0:0:0:0:
56,192,117924,1,0,0:0:0:0:
256,32,118032,1,0,0:0:0:0:
256,352,118139,1,0,0:0:0:0:
120,104,118246,6,0,P|152:80|160:32,1,70
392,272,118460,2,0,P|352:304|352:344,1,70
256,192,118674,1,0,0:0:0:0:
256,32,118782,1,0,0:0:0:0:
384,80,118996,5,0,0:0:0:0:
128,288,119157,1,0,0:0:0:0:
256,192,119264,1,0,0:0:0:0:
40,56,119532,6,0,P|56:24|88:16,1,70
480,312,119746,2,0,P|456:352|424:352,1,70
168,136,119960,5,0,0:0:0:0:
328,104,120067,1,0,0:0:0:0:
256,272,120174,1,0,0:0:0:0:
408,232,120282,1,0,0:0:0:0:
336,136,120389,5,0,0:0:0:0:
184,104,120496,1,0,0:0:0:0:
256,272,120603,1,0,0:0:0:0:
104,232,120710,1,0,0:0:0:0:
256,0,120924,5,0,0:0:0:0:
256,384,121032,1,0,0:0:0:0:
45,220,121246,6,0,P|29:180|61:156,1,70
464,160,121460,2,0,P|480:192|464:224,1,70
120,64,121674,5,0,0:0:0:0:
384,112,121889,1,0,0:0:0:0:
144,272,122103,1,0,0:0:0:0:
400,328,122317,1,0,0:0:0:0:
227,45,122532,6,0,P|259:29|291:53,1,70
256,96,122692,1,0,0:0:0:0:
256,368,122960,2,0,B|224:224|256:120|320:80|424:232|336:272|216:288|216:96|256:-8,1,525
160,104,123388,6,0,L|104:40,1,70
240,264,123602,1,0,0:0:0:0:
128,192,123709,1,0,0:0:0:0:
336,104,123816,2,0,L|400:32,1,70
272,264,124030,1,0,0:0:0:0:
376,192,124138,1,0,0:0:0:0:
112,320,124352,5,0,0:0:0:0:
400,320,124459,1,0,0:0:0:0:
128,144,124673,6,0,P|176:144|192:104,1,70
200,328,124888,2,0,P|200:272|168:248,1,70
384,240,125102,2,0,P|344:240|328:272,1,70
336,64,125316,2,0,P|312:104|336:144,1,70
0,384,125530,5,0,0:0:0:0:
512,0,125638,1,0,0:0:0:0:
120,192,125852,5,0,0:0:0:0:
256,56,126013,1,0,0:0:0:0:
384,192,126120,1,0,0:0:0:0:
112,80,126333,6,0,L|48:24,1,70
400,288,126548,2,0,L|472:352,1,70
256,96,126816,6,0,L|256:0,1,70
256,352,127030,2,0,L|256:256,1,70
328,120,127245,2,0,L|400:48,1,70
128,304,127459,2,0,L|200:240,1,70
352,192,127673,6,0,L|432:192,1,70
80,192,127888,2,0,L|176:192,1,70
328,264,128102,2,0,L|400:328,1,70
128,72,128316,2,0,L|184:128,1,70
104,304,128530,5,0,0:0:0:0:
408,304,128745,1,0,0:0:0:0:
256,24,128959,1,0,0:0:0:0:
256,192,129173,1,0,0:0:0:0:
256,192,129388,12,0,129423,0:0:0:0:
0,0,130245,5,0,0:0:0:0:
512,0,130352,1,0,0:0:0:0:
112,80,130459,1,0,0:0:0:0:
392,80,130566,1,0,0:0:0:0:
0,384,130673,5,0,0:0:0:0:
512,376,130780,1,0,0:0:0:0:
112,288,130887,1,0,0:0:0:0:
392,288,130995,1,0,0:0:0:0:
47,160,131102,6,0,P|31:192|55:224,1,70
464,222,131316,2,0,P|480:190|448:158,1,70
472,32,131530,5,0,0:0:0:0:
408,32,131638,1,0,0:0:0:0:
440,80,131745,1,0,0:0:0:0:
504,80,131852,1,0,0:0:0:0:
472,128,131959,1,0,0:0:0:0:
416,128,132066,1,0,0:0:0:0:
384,80,132173,1,0,0:0:0:0:
328,80,132280,5,0,0:0:0:0:
353,131,132388,1,0,0:0:0:0:
387,180,132495,1,0,0:0:0:0:
326,183,132602,1,0,0:0:0:0:
294,131,132709,1,0,0:0:0:0:
78,105,132816,6,0,L|49:18,1,70
81,267,133030,2,0,L|59:339,1,70
256,0,133245,1,0,0:0:0:0:
256,384,133352,1,0,0:0:0:0:
0,192,133459,6,0,L|512:192,1,490
512,0,133673,5,0,0:0:0:0:
0,384,133780,1,0,0:0:0:0:
392,88,133887,1,0,0:0:0:0:
128,288,133994,1,0,0:0:0:0:
384,304,134101,6,0,L|456:376,1,70
128,64,134315,2,0,L|64:0,1,70
256,32,134530,5,0,0:0:0:0:
376,344,134637,1,0,0:0:0:0:
88,168,134744,1,0,0:0:0:0:
424,168,134851,1,0,0:0:0:0:
144,344,134958,1,0,0:0:0:0:
256,32,135065,1,0,0:0:0:0:
256,384,135173,2,0,L|256:288,1,70
128,128,135387,6,0,P|176:136|192:96,1,70
184,312,135601,2,0,P|200:264|176:240,1,70
392,248,135815,2,0,P|352:240|328:272,1,70
320,56,136030,2,0,P|312:96|344:120,1,70
120,224,136244,6,2,P|160:224|184:200,1,70
264,336,136458,2,2,P|280:288|264:256,1,70
392,160,136673,2,2,P|344:160|320:192,1,70
232,56,136887,2,2,P|224:96|256:128,1,70
0,0,137101,5,0,0:0:0:0:
512,0,137155,1,0,0:0:0:0:
46,51,137208,1,0,0:0:0:0:
466,52,137262,1,0,0:0:0:0:
94,96,137315,1,0,0:0:0:0:
419,100,137369,1,0,0:0:0:0:
138,144,137423,1,0,0:0:0:0:
374,148,137476,1,0,0:0:0:0:
186,190,137530,1,0,0:0:0:0:
327,192,137583,1,0,0:0:0:0:
145,244,137637,1,0,0:0:0:0:
375,244,137690,1,0,0:0:0:0:
95,291,137744,1,0,0:0:0:0:
421,292,137798,1,0,0:0:0:0:
46,339,137851,1,0,0:0:0:0:
469,338,137905,1,0,0:0:0:0:
0,384,137958,1,0,0:0:0:0:
512,384,138012,1,0,0:0:0:0:
146,120,138065,6,0,P|186:104|193:111,1,35
241,53,138173,2,0,P|276:53|282:71,1,35
345,90,138280,2,0,P|370:120|355:136,1,35
411,179,138387,2,0,P|410:214|386:223,1,35
378,287,138494,2,0,P|356:311|337:308,1,35
272,340,138601,2,0,P|247:346|237:330,1,35
158,308,138708,2,0,P|131:285|136:263,1,35
107,212,138815,2,0,P|103:185|111:174,1,35
256,0,138923,5,0,0:0:0:0:
0,192,138976,1,0,0:0:0:0:
256,384,139030,1,0,0:0:0:0:
512,192,139083,1,0,0:0:0:0:
256,32,139137,1,0,0:0:0:0:
32,192,139190,1,0,0:0:0:0:
256,352,139244,1,0,0:0:0:0:
480,192,139298,1,0,0:0:0:0:
256,64,139351,1,0,0:0:0:0:
64,192,139405,1,0,0:0:0:0:
256,320,139458,1,0,0:0:0:0:
448,192,139512,1,0,0:0:0:0:
256,96,139565,1,0,0:0:0:0:
96,192,139619,1,0,0:0:0:0:
256,288,139673,1,0,0:0:0:0:
256,192,139726,5,0,0:0:0:0:
256,192,139780,1,0,0:0:0:0:
256,192,139833,1,0,0:0:0:0:
256,192,139887,1,0,0:0:0:0:
256,192,139940,1,0,0:0:0:0:
256,192,139994,1,0,0:0:0:0:
256,192,140048,1,0,0:0:0:0:
256,192,140101,1,0,0:0:0:0:
256,192,140155,1,0,0:0:0:0:
256,192,140208,1,0,0:0:0:0:
256,192,140262,1,0,0:0:0:0:
256,192,140315,1,0,0:0:0:0:
232,192,140530,6,0,L|248:192,47,11.6666666666667
360,96,141387,6,0,L|352:104,1,11.6666666666667
352,104,141423,2,0,L|344:112,1,11.6666666666667
344,112,141458,2,0,L|336:120,1,11.6666666666667
336,120,141494,2,0,L|328:128,1,11.6666666666667
328,128,141530,2,0,L|320:136,1,11.6666666666667
320,136,141565,2,0,L|312:144,1,11.6666666666667
312,144,141601,2,0,L|304:152,1,11.6666666666667
304,152,141637,2,0,L|296:160,1,11.6666666666667
296,160,141673,2,0,L|288:168,1,11.6666666666667
288,168,141708,2,0,L|280:176,1,11.6666666666667
280,176,141744,2,0,L|272:184,1,11.6666666666667
272,184,141780,2,0,L|264:192,1,11.6666666666667
264,192,141815,2,0,L|256:200,1,11.6666666666667
256,200,141851,2,0,L|248:208,1,11.6666666666667
248,208,141887,2,0,L|240:216,1,11.6666666666667
240,216,141923,2,0,L|232:224,1,11.6666666666667
232,224,141958,2,0,L|224:232,1,11.6666666666667
224,232,141994,2,0,L|216:240,1,11.6666666666667
216,240,142030,2,0,L|208:248,1,11.6666666666667
208,248,142065,2,0,L|200:256,1,11.6666666666667
200,256,142101,2,0,L|192:264,1,11.6666666666667
192,264,142137,2,0,L|184:272,1,11.6666666666667
184,272,142173,2,0,L|176:280,1,11.6666666666667
176,280,142208,2,0,L|168:288,1,11.6666666666667
256,0,143958,5,0,0:0:0:0:
0,192,144172,1,0,0:0:0:0:
256,384,144386,1,0,0:0:0:0:
512,192,144600,1,0,0:0:0:0:
104,128,144815,6,0,P|112:72|200:64,1,140
408,256,145243,2,0,P|392:328|328:336,1,140
256,0,145672,5,2,0:0:0:0:
256,192,145993,1,2,0:0:0:0:
256,384,146261,1,2,0:0:0:0:
256,0,146422,1,2,0:0:0:0:
400,192,146636,5,0,0:0:0:0:
120,192,146743,1,0,0:0:0:0:
256,0,146958,1,0,0:0:0:0:
304,120,147386,6,0,P|344:88|432:96,1,140
200,136,147815,2,0,P|144:112|144:24,1,140
216,256,148243,2,0,P|176:304|88:288,1,140
320,240,148672,2,0,P|368:296|352:360,1,140
0,192,149100,5,0,0:0:0:0:
512,192,149208,1,0,0:0:0:0:
64,192,149315,1,0,0:0:0:0:
448,192,149422,1,0,0:0:0:0:
128,192,149529,1,0,0:0:0:0:
384,192,149636,1,0,0:0:0:0:
192,192,149743,1,0,0:0:0:0:
320,192,149850,1,0,0:0:0:0:
256,0,150065,5,2,0:0:0:0:
256,384,150172,1,2,0:0:0:0:
256,192,150386,1,2,0:0:0:0:
0,0,150815,5,0,0:0:0:0:
512,384,151029,1,0,0:0:0:0:
256,192,151243,1,0,0:0:0:0:
0,384,151458,1,0,0:0:0:0:
512,0,151672,5,0,0:0:0:0:
0,384,151886,1,0,0:0:0:0:
0,0,152100,1,0,0:0:0:0:
512,384,152315,1,0,0:0:0:0:
168,96,152529,6,0,P|176:56|144:24,1,70
352,136,152743,2,0,P|408:120|408:104,1,70
344,304,152958,2,0,P|344:360|360:368,1,70
160,272,153172,2,0,P|112:296|88:280,1,70
0,192,153493,5,2,0:0:0:0:
512,192,153600,1,2,0:0:0:0:
256,192,153815,1,2,0:0:0:0:
0,80,154243,6,0,L|520:80,1,525
0,192,154743,6,0,L|504:192,1,525
0,304,155207,2,0,L|504:304,1,525
256,40,155653,6,0,L|256:376,1,315
0,192,157403,5,0,0:0:0:0:
48,192,157420,1,0,0:0:0:0:
96,192,157438,1,0,0:0:0:0:
144,192,157456,1,0,0:0:0:0:
192,192,157474,1,0,0:0:0:0:
232,192,157492,1,0,0:0:0:0:
280,192,157510,1,0,0:0:0:0:
322,192,157528,1,0,0:0:0:0:
368,192,157545,1,0,0:0:0:0:
416,192,157563,1,0,0:0:0:0:
464,192,157581,1,0,0:0:0:0:
512,192,157599,1,0,0:0:0:0:
0,384,157688,5,0,0:0:0:0:
176,0,157795,1,0,0:0:0:0:
336,384,157902,1,0,0:0:0:0:
512,8,158009,1,0,0:0:0:0:
152,296,158116,6,0,L|96:352,1,70
360,104,158331,2,0,L|424:48,1,70
88,48,158545,5,0,0:0:0:0:
416,328,158652,1,0,0:0:0:0:
256,48,158759,1,0,0:0:0:0:
256,328,158866,1,0,0:0:0:0:
256,112,158974,2,0,L|256:16,1,70
256,272,159188,2,0,L|256:368,1,70
136,120,159402,6,0,P|176:80|184:40,1,70
368,248,159617,2,0,P|336:280|328:312,1,70
328,64,159831,6,0,P|344:104|384:128,1,70
176,304,160045,2,0,P|160:264|128:248,1,70
0,192,160259,5,0,0:0:0:0:
512,192,160367,5,0,0:0:0:0:
256,0,160474,5,0,0:0:0:0:
256,384,160581,5,0,0:0:0:0:
0,0,160688,5,0,0:0:0:0:
512,384,160795,5,0,0:0:0:0:
0,384,160902,5,0,0:0:0:0:
512,8,161009,5,0,0:0:0:0:
136,192,161117,6,0,L|64:192,1,70
376,192,161331,2,0,L|448:192,1,70
256,296,161545,2,0,L|256:368,1,70
256,88,161759,2,0,L|256:8,1,70
116,52,161974,5,0,0:0:0:0:
393,321,162081,1,0,0:0:0:0:
184,123,162188,1,0,0:0:0:0:
328,258,162295,1,0,0:0:0:0:
390,60,162402,5,0,0:0:0:0:
120,314,162509,1,0,0:0:0:0:
326,123,162617,1,0,0:0:0:0:
184,257,162724,1,0,0:0:0:0:
136,192,162831,6,0,L|64:192,1,70
440,192,163045,2,0,L|352:192,1,70
176,272,163259,2,0,L|120:336,1,70
384,56,163474,2,0,L|320:136,1,70
256,304,163688,6,0,L|256:384,1,70
256,8,163902,2,0,L|256:96,1,70
344,272,164117,2,0,L|408:336,1,70
120,72,164331,2,0,L|192:136,1,70
0,192,164545,5,0,0:0:0:0:
512,192,164652,1,0,0:0:0:0:
256,192,164759,1,0,0:0:0:0:
256,0,164866,1,0,0:0:0:0:
289,346,164973,2,0,P|255:359|214:328,1,70
222,18,165188,2,0,P|277:12|300:34,1,70
0,0,165402,5,0,0:0:0:0:
512,384,165509,1,0,0:0:0:0:
401,78,165616,1,0,0:0:0:0:
120,296,165723,1,0,0:0:0:0:
112,120,165830,6,0,P|128:80|176:96,1,70
392,272,166045,2,0,P|384:312|360:320,1,70
96,192,166259,5,0,0:0:0:0:
336,280,166366,1,0,0:0:0:0:
256,64,166473,1,0,0:0:0:0:
0,384,166580,1,0,0:0:0:0:
416,192,166688,5,0,0:0:0:0:
176,280,166795,1,0,0:0:0:0:
256,64,166902,1,0,0:0:0:0:
512,384,167009,1,0,0:0:0:0:
72,88,167116,6,0,P|96:40|128:32,1,70
120,344,167330,2,0,P|72:320|72:304,1,70
440,304,167545,2,0,P|424:344|392:352,1,70
384,32,167759,2,0,P|432:48|432:88,1,70
0,384,167973,5,0,0:0:0:0:
0,0,168080,1,0,0:0:0:0:
104,304,168188,1,0,0:0:0:0:
96,80,168295,1,0,0:0:0:0:
256,384,168402,1,0,0:0:0:0:
256,0,168509,1,0,0:0:0:0:
424,80,168616,1,0,0:0:0:0:
432,304,168723,1,0,0:0:0:0:
256,192,168848,6,0,L|272:192,48,11.6666666666667
8,0,170116,5,0,0:0:0:0:
256,192,170545,1,0,0:0:0:0:
512,384,170973,1,0,0:0:0:0:
256,192,171402,12,0,171437,0:0:0:0:
