osu file format v12

[General]
AudioFilename: 12. The Quick Brown Fox - Big Money.mp3
AudioLeadIn: 0
PreviewTime: 41074
Countdown: 1
SampleSet: Normal
StackLeniency: 0.7
Mode: 0
LetterboxInBreaks: 1
WidescreenStoryboard: 0

[Editor]
Bookmarks: 13633,23892,27214,34499,41089,44464,58178,68571,72107,83946,85767,97660,99374,113035,116464,123374,130178,136178,140839,141642,142232,154285,157767,169538,169698,171321
DistanceSpacing: 0.6
BeatDivisor: 4
GridSize: 8

[Metadata]
Title:Big Money
TitleUnicode:Big Money
Artist:The Quick Brown Fox
ArtistUnicode:The Quick Brown Fox
Creator:Xleonq
Version:need money? :D
Source:
Tags:
BeatmapID:310030
BeatmapSetID:121030

[Difficulty]
HPDrainRate:7
CircleSize:5
OverallDifficulty:8
ApproachRate:9
SliderMultiplier:1.4
SliderTickRate:1

[Events]
//Background and Video events
0,0,"35255411-20120506-photos-SLIME_MONEY_logo.jpg",0,0
//Break Periods
2,23984,26828
2,41295,43480
2,57432,69777
2,84131,98759
2,142456,156884
//Storyboard Layer 0 (Background)
//Storyboard Layer 1 (Fail)
//Storyboard Layer 2 (Pass)
//Storyboard Layer 3 (Foreground)
//Storyboard Sound Samples
//Background Colour Transformations
3,100,163,162,255

[TimingPoints]
0,214.285714285714,4,1,0,100,1,0
44443,-100,4,1,0,100,0,0

[HitObjects]
56,54,13607,1,0,0:0:0:0:
99,108,14035,1,0,0:0:0:0:
159,156,14571,1,0,0:0:0:0:
206,149,14785,1,0,0:0:0:0:
239,134,14999,1,0,0:0:0:0:
266,116,15214,2,0,B|335:95|335:95|352:217|352:217|226:236|226:236|205:116,1,420
204,111,16017,1,0,0:0:0:0:
206,80,16124,1,0,0:0:0:0:
221,57,16232,1,0,0:0:0:0:
257,46,16392,6,0,L|405:46,2,140
221,57,17035,1,0,0:0:0:0:
206,80,17517,1,0,0:0:0:0:
216,111,17999,2,0,L|263:244,3,140
290,254,18857,2,0,P|348:244|443:84,1,245
430,72,19392,1,0,0:0:0:0:
392,58,19499,1,0,0:0:0:0:
355,64,19607,1,0,0:0:0:0:
331,89,19714,2,0,L|234:214,2,140
297,73,20357,5,0,0:0:0:0:
235,78,20892,1,0,0:0:0:0:
188,91,21428,2,0,L|136:188,1,105
150,213,21857,2,0,L|245:320,1,140
290,310,22285,1,0,0:0:0:0:
327,291,22499,1,0,0:0:0:0:
352,271,22607,1,0,0:0:0:0:
365,246,22714,1,0,0:0:0:0:
369,218,22821,1,0,0:0:0:0:
356,188,22928,1,0,0:0:0:0:
330,165,23142,6,0,L|203:91,3,140
68,63,27428,5,0,0:0:0:0:
114,87,27642,1,0,0:0:0:0:
150,66,27857,1,0,0:0:0:0:
194,60,28071,2,0,L|253:99,2,70
252,98,28499,1,0,0:0:0:0:
290,79,28714,2,0,L|354:49,2,70
389,62,29142,2,0,L|394:148,2,70
375,167,29571,2,0,L|299:224,2,70
264,171,29999,2,0,L|208:91,2,70
205,76,30428,2,0,L|130:138,2,70
124,151,30857,5,0,0:0:0:0:
110,189,31071,1,0,0:0:0:0:
116,218,31285,1,0,0:0:0:0:
135,246,31499,1,0,0:0:0:0:
170,261,31714,1,0,0:0:0:0:
204,257,31928,2,0,P|269:223|318:150,3,140
321,136,32785,1,0,0:0:0:0:
354,113,32999,1,0,0:0:0:0:
391,122,33214,1,0,0:0:0:0:
414,142,33428,1,0,0:0:0:0:
436,171,33642,1,0,0:0:0:0:
428,209,33857,1,0,0:0:0:0:
412,241,34071,1,0,0:0:0:0:
386,257,34278,6,0,L|254:164,1,140
241,149,34881,1,0,0:0:0:0:
188,193,35350,2,0,L|86:325,1,140
148,317,35818,1,0,0:0:0:0:
220,318,36006,1,0,0:0:0:0:
294,322,36193,1,0,0:0:0:0:
361,323,36381,1,0,0:0:0:0:
426,321,36568,1,0,0:0:0:0:
423,258,36756,1,0,0:0:0:0:
423,198,36943,2,0,L|419:46,1,140
374,51,37412,5,0,0:0:0:0:
346,52,37553,1,0,0:0:0:0:
313,52,37693,2,0,L|265:200,1,140
194,191,38443,1,0,0:0:0:0:
110,91,39381,1,0,0:0:0:0:
105,137,39850,1,0,0:0:0:0:
109,175,40318,1,0,0:0:0:0:
129,206,40506,1,0,0:0:0:0:
169,215,40693,1,0,0:0:0:0:
205,213,40881,2,0,L|276:197,2,70
130,71,44080,6,0,L|140:98,11,26.25
202,54,44590,2,0,L|272:77,1,70
306,302,44778,2,0,L|234:316,1,70
194,166,44965,2,0,L|266:158,1,70
286,226,45153,2,0,L|214:243,1,70
365,59,45340,5,0,0:0:0:0:
408,185,45434,1,0,0:0:0:0:
396,320,45528,1,0,0:0:0:0:
122,325,45621,1,0,0:0:0:0:
85,193,45715,1,0,0:0:0:0:
134,53,45809,1,0,0:0:0:0:
261,113,45903,1,0,0:0:0:0:
261,267,45996,1,0,0:0:0:0:
261,113,46090,1,0,0:0:0:0:
261,267,46184,1,0,0:0:0:0:
261,113,46278,1,0,0:0:0:0:
261,267,46371,1,0,0:0:0:0:
339,140,46465,6,0,L|328:221,1,70
188,239,46653,2,0,L|106:236,1,70
150,142,46840,2,0,L|204:84,1,70
288,97,47028,2,0,L|373:153,1,70
354,230,47215,5,0,0:0:0:0:
187,166,47309,1,0,0:0:0:0:
333,256,47403,1,0,0:0:0:0:
211,140,47496,1,0,0:0:0:0:
297,273,47590,1,0,0:0:0:0:
239,131,47684,1,0,0:0:0:0:
261,267,47778,1,0,0:0:0:0:
278,141,47871,1,0,0:0:0:0:
391,46,47965,6,0,L|424:114,1,70
148,314,48153,2,0,L|107:258,1,70
159,84,48340,2,0,L|237:51,1,70
401,300,48528,2,0,L|315:336,1,70
230,202,48715,2,0,L|306:168,1,70
250,42,48903,5,0,0:0:0:0:
255,332,48996,1,0,0:0:0:0:
177,258,49090,1,0,0:0:0:0:
317,90,49184,1,0,0:0:0:0:
320,261,49278,1,0,0:0:0:0:
182,91,49371,1,0,0:0:0:0:
178,220,49465,1,0,0:0:0:0:
318,127,49559,1,0,0:0:0:0:
320,230,49653,1,0,0:0:0:0:
185,127,49746,1,0,0:0:0:0:
380,44,49840,6,0,L|299:44,1,70
101,320,50028,2,0,L|172:322,1,70
393,327,50215,2,0,L|310:326,1,70
105,57,50403,2,0,L|188:57,1,70
252,104,50590,2,0,L|253:179,1,70
252,282,50778,2,0,L|252:200,1,70
159,164,50965,5,0,0:0:0:0:
333,164,51059,1,0,0:0:0:0:
196,220,51153,1,0,0:0:0:0:
292,220,51246,1,0,0:0:0:0:
244,268,51340,1,0,0:0:0:0:
350,51,51434,6,0,L|383:129,1,70
371,247,51621,2,0,L|325:299,1,70
128,280,51809,2,0,L|87:211,1,70
110,108,51996,2,0,L|184:54,1,70
225,115,52184,1,0,0:0:0:0:
328,208,52270,1,0,0:0:0:0:
240,304,52377,1,0,0:0:0:0:
152,208,52484,1,0,0:0:0:0:
256,136,52591,5,0,0:0:0:0:
320,240,52698,1,0,0:0:0:0:
208,288,52806,1,0,0:0:0:0:
168,176,52913,1,0,0:0:0:0:
280,152,53020,5,0,0:0:0:0:
312,272,53127,1,0,0:0:0:0:
184,272,53234,1,0,0:0:0:0:
184,152,53341,1,0,0:0:0:0:
304,168,53448,5,0,0:0:0:0:
288,296,53556,1,0,0:0:0:0:
160,248,53663,1,0,0:0:0:0:
200,128,53770,1,0,0:0:0:0:
320,200,53877,5,0,0:0:0:0:
248,304,53984,1,0,0:0:0:0:
152,216,54091,1,0,0:0:0:0:
248,128,54198,1,0,0:0:0:0:
256,208,54306,5,0,0:0:0:0:
146,138,54434,5,0,0:0:0:0:
356,140,54528,1,0,0:0:0:0:
179,261,54621,1,0,0:0:0:0:
246,53,54715,1,0,0:0:0:0:
314,259,54809,1,0,0:0:0:0:
106,138,54903,1,0,0:0:0:0:
395,135,54996,1,0,0:0:0:0:
146,299,55090,1,0,0:0:0:0:
246,19,55184,1,0,0:0:0:0:
352,282,55278,1,0,0:0:0:0:
226,120,55371,6,0,L|227:197,1,70
285,120,55559,2,0,L|284:200,1,70
335,120,55746,2,0,L|336:209,1,70
379,113,55934,2,0,L|381:206,1,70
379,242,56121,1,0,0:0:0:0:
156,236,56215,1,0,0:0:0:0:
379,242,56309,1,0,0:0:0:0:
156,236,56403,1,0,0:0:0:0:
379,242,56496,1,0,0:0:0:0:
248,320,56590,6,0,B|259:221|259:221|430:229|430:228|432:40,1,420
144,72,70377,5,0,0:0:0:0:
184,104,70698,1,0,0:0:0:0:
224,120,71234,2,0,L|376:120,1,140
416,112,71663,2,0,L|416:160,7,35
432,336,72145,6,0,L|432:256,1,70
400,200,72359,1,0,0:0:0:0:
328,128,72466,1,0,0:0:0:0:
288,200,72573,2,0,L|248:264,1,70
176,248,72788,2,0,L|128:176,1,70
152,112,73002,5,0,0:0:0:0:
368,256,73109,1,0,0:0:0:0:
184,88,73216,1,0,0:0:0:0:
328,272,73323,1,0,0:0:0:0:
224,72,73431,1,0,0:0:0:0:
288,272,73538,1,0,0:0:0:0:
264,80,73645,1,0,0:0:0:0:
248,256,73752,1,0,0:0:0:0:
288,96,73859,1,0,0:0:0:0:
216,240,73966,1,0,0:0:0:0:
392,48,74073,6,0,L|408:120,1,70
360,176,74181,2,0,L|288:192,1,70
192,144,74395,2,0,L|160:72,1,70
104,152,74609,2,0,L|96:232,1,70
112,48,74823,5,0,0:0:0:0:
304,208,74931,1,0,0:0:0:0:
304,48,75038,1,0,0:0:0:0:
120,208,75145,1,0,0:0:0:0:
112,48,75252,1,0,0:0:0:0:
304,208,75359,1,0,0:0:0:0:
304,48,75466,1,0,0:0:0:0:
120,208,75573,1,0,0:0:0:0:
112,336,75681,6,0,L|64:272,1,70
416,32,75895,2,0,L|456:96,1,70
464,296,76109,2,0,L|408:352,1,70
64,96,76323,2,0,L|136:32,1,70
48,224,76538,2,0,L|48:128,1,70
208,40,76752,2,0,L|288:40,1,70
464,152,76966,2,0,L|464:224,1,70
312,344,77181,2,0,L|216:344,1,70
160,112,77395,5,0,0:0:0:0:
168,256,77502,1,0,0:0:0:0:
200,112,77609,1,0,0:0:0:0:
208,256,77716,1,0,0:0:0:0:
240,112,77823,1,0,0:0:0:0:
248,256,77931,1,0,0:0:0:0:
280,112,78038,1,0,0:0:0:0:
280,256,78145,1,0,0:0:0:0:
320,112,78252,1,0,0:0:0:0:
320,256,78359,1,0,0:0:0:0:
360,112,78466,1,0,0:0:0:0:
360,256,78573,1,0,0:0:0:0:
424,56,78681,6,0,L|424:136,1,70
424,192,78895,1,0,0:0:0:0:
88,216,79002,2,0,L|88:128,1,70
80,64,79216,1,0,0:0:0:0:
168,64,79323,2,0,L|256:64,1,70
320,64,79538,1,0,0:0:0:0:
360,256,79645,2,0,L|280:256,1,70
176,256,79859,1,0,0:0:0:0:
432,104,79966,5,0,0:0:0:0:
368,352,80073,1,0,0:0:0:0:
320,104,80181,1,0,0:0:0:0:
272,352,80288,1,0,0:0:0:0:
224,104,80395,1,0,0:0:0:0:
160,344,80502,1,0,0:0:0:0:
112,104,80609,1,0,0:0:0:0:
72,344,80716,1,0,0:0:0:0:
32,104,80823,1,0,0:0:0:0:
368,176,80931,5,0,0:0:0:0:
144,184,81038,1,0,0:0:0:0:
368,176,81145,1,0,0:0:0:0:
144,184,81252,1,0,0:0:0:0:
368,176,81359,1,0,0:0:0:0:
144,184,81466,1,0,0:0:0:0:
272,40,81573,6,0,L|328:120,1,70
232,304,81788,2,0,L|168:240,1,70
352,136,82002,2,0,L|304:216,1,70
168,216,82216,2,0,L|224:160,1,70
304,224,82431,2,0,L|264:288,1,70
240,144,82645,2,0,L|272:64,1,70
416,56,82859,5,0,0:0:0:0:
432,352,82966,1,0,0:0:0:0:
352,104,83073,1,0,0:0:0:0:
368,304,83181,1,0,0:0:0:0:
288,144,83288,1,0,0:0:0:0:
296,272,83395,1,0,0:0:0:0:
240,200,83502,1,0,0:0:0:0:
192,136,83609,1,0,0:0:0:0:
192,272,83716,1,0,0:0:0:0:
144,88,83823,1,0,0:0:0:0:
136,312,83931,1,0,0:0:0:0:
68,63,99359,5,0,0:0:0:0:
114,87,99573,1,0,0:0:0:0:
150,66,99788,1,0,0:0:0:0:
194,60,100002,2,0,L|253:99,2,70
252,98,100430,1,0,0:0:0:0:
290,79,100645,2,0,L|354:49,2,70
389,62,101073,2,0,L|394:148,2,70
375,167,101502,2,0,L|299:224,2,70
264,171,101930,2,0,L|208:91,2,70
205,76,102359,2,0,L|130:138,2,70
124,151,102788,5,0,0:0:0:0:
110,189,103002,1,0,0:0:0:0:
116,218,103216,1,0,0:0:0:0:
135,246,103430,1,0,0:0:0:0:
170,261,103645,1,0,0:0:0:0:
204,257,103859,2,0,P|269:223|318:150,3,140
321,136,104716,1,0,0:0:0:0:
354,113,104930,1,0,0:0:0:0:
391,122,105145,1,0,0:0:0:0:
414,142,105359,1,0,0:0:0:0:
436,171,105573,1,0,0:0:0:0:
428,209,105788,1,0,0:0:0:0:
412,241,106002,1,0,0:0:0:0:
386,257,106209,6,0,L|254:164,1,140
241,149,106812,1,0,0:0:0:0:
188,193,107281,2,0,L|86:325,1,140
148,317,107749,1,0,0:0:0:0:
220,318,107937,1,0,0:0:0:0:
294,322,108124,1,0,0:0:0:0:
361,323,108312,1,0,0:0:0:0:
426,321,108499,1,0,0:0:0:0:
423,258,108687,1,0,0:0:0:0:
423,198,108874,2,0,L|419:46,1,140
374,51,109343,5,0,0:0:0:0:
346,52,109484,1,0,0:0:0:0:
313,52,109624,2,0,L|265:200,1,140
194,191,110374,1,0,0:0:0:0:
110,91,111312,1,0,0:0:0:0:
105,137,111781,1,0,0:0:0:0:
109,175,112249,1,0,0:0:0:0:
129,206,112437,1,0,0:0:0:0:
169,215,112624,1,0,0:0:0:0:
205,213,112812,2,0,L|276:197,2,70
144,96,116073,6,0,L|144:152,7,35
232,152,116556,2,0,L|232:240,1,70
296,224,116770,2,0,L|296:144,1,70
176,152,116984,2,0,L|176:240,1,70
352,232,117198,2,0,L|352:144,1,70
128,152,117413,2,0,L|128:240,1,70
400,240,117627,2,0,L|400:168,1,70
80,144,117841,2,0,L|80:232,1,70
448,248,118056,2,0,L|448:168,1,70
280,232,118270,6,0,L|208:192,1,70
240,144,118484,2,0,L|320:192,1,70
264,280,118698,2,0,L|200:240,1,70
264,96,118913,2,0,L|328:144,1,70
256,320,119127,2,0,L|184:280,1,70
288,48,119341,2,0,L|368:88,1,70
240,368,119556,2,0,L|168:336,1,70
304,8,119770,2,0,L|384:48,1,70
304,152,119984,6,0,L|264:232,1,70
224,200,120198,2,0,L|264:128,1,70
352,160,120413,2,0,L|304:240,1,70
176,184,120627,2,0,L|224:112,1,70
400,168,120841,2,0,L|360:248,1,70
144,168,121056,2,0,L|192:96,1,70
448,176,121270,2,0,L|416:264,1,70
104,152,121484,2,0,L|136:80,1,70
432,264,121698,6,0,B|240:328|96:232|80:208|80:208|256:24|256:24|440:272,1,910
88,56,123359,6,0,L|88:144,1,70
128,56,123573,2,0,L|128:136,1,70
160,56,123788,2,0,L|160:144,1,70
192,56,123895,2,0,L|192:128,1,70
224,56,124109,2,0,L|224:136,1,70
304,56,124323,6,0,L|304:136,1,70
344,56,124538,2,0,L|344:144,1,70
376,56,124752,2,0,L|376:144,1,70
416,56,124966,2,0,L|416:136,1,70
448,56,125181,2,0,L|448:136,1,70
448,240,125395,6,0,L|448:160,1,70
416,240,125609,2,0,L|416:168,1,70
376,240,125823,2,0,L|376:160,1,70
336,240,126038,2,0,L|336:168,1,70
304,240,126252,2,0,L|304:168,1,70
224,248,126466,6,0,L|224:160,1,70
192,248,126681,2,0,L|192:176,1,70
160,248,126895,2,0,L|160:168,1,70
128,248,127109,2,0,L|128:168,1,70
96,248,127323,2,0,L|96:176,1,70
128,48,127538,5,0,0:0:0:0:
384,112,127645,5,0,0:0:0:0:
128,176,127752,5,0,0:0:0:0:
384,224,127859,5,0,0:0:0:0:
128,320,127966,5,0,0:0:0:0:
384,352,128073,5,0,0:0:0:0:
192,72,128234,6,0,B|208:288|360:272|360:272|456:136|456:136|304:56|304:56|176:72,1,735
88,302,130163,1,0,0:0:0:0:
96,290,130270,1,0,0:0:0:0:
104,278,130377,1,0,0:0:0:0:
113,267,130484,1,0,0:0:0:0:
122,256,130591,1,0,0:0:0:0:
132,246,130698,1,0,0:0:0:0:
142,236,130806,1,0,0:0:0:0:
153,227,130913,1,0,0:0:0:0:
165,220,131020,1,0,0:0:0:0:
178,215,131127,1,0,0:0:0:0:
191,212,131234,5,0,0:0:0:0:
204,212,131341,1,0,0:0:0:0:
217,216,131448,1,0,0:0:0:0:
231,217,131556,1,0,0:0:0:0:
244,218,131663,1,0,0:0:0:0:
257,219,131770,1,0,0:0:0:0:
270,220,131877,1,0,0:0:0:0:
283,221,131984,1,0,0:0:0:0:
295,226,132091,1,0,0:0:0:0:
307,232,132198,1,0,0:0:0:0:
319,239,132306,5,0,0:0:0:0:
330,247,132413,1,0,0:0:0:0:
341,255,132520,1,0,0:0:0:0:
352,263,132627,1,0,0:0:0:0:
363,271,132734,1,0,0:0:0:0:
374,278,132841,1,0,0:0:0:0:
387,281,132948,1,0,0:0:0:0:
401,279,133056,1,0,0:0:0:0:
414,275,133163,1,0,0:0:0:0:
424,265,133270,1,0,0:0:0:0:
429,252,133377,5,0,0:0:0:0:
434,239,133484,1,0,0:0:0:0:
436,225,133591,1,0,0:0:0:0:
436,211,133698,1,0,0:0:0:0:
434,196,133806,1,0,0:0:0:0:
429,182,133913,1,0,0:0:0:0:
423,169,134020,1,0,0:0:0:0:
417,156,134127,1,0,0:0:0:0:
410,143,134234,1,0,0:0:0:0:
403,130,134341,1,0,0:0:0:0:
395,118,134448,1,0,0:0:0:0:
387,106,134556,5,0,0:0:0:0:
377,95,134663,1,0,0:0:0:0:
366,85,134770,1,0,0:0:0:0:
354,76,134877,1,0,0:0:0:0:
341,69,134984,1,0,0:0:0:0:
327,65,135091,1,0,0:0:0:0:
313,64,135198,1,0,0:0:0:0:
298,65,135306,1,0,0:0:0:0:
284,67,135413,1,0,0:0:0:0:
270,71,135520,1,0,0:0:0:0:
256,76,135627,1,0,0:0:0:0:
243,81,135734,1,0,0:0:0:0:
230,87,135841,1,0,0:0:0:0:
218,94,135948,1,0,0:0:0:0:
207,103,136056,5,0,0:0:0:0:
196,112,136163,1,0,0:0:0:0:
105,307,136270,1,0,0:0:0:0:
208,29,136484,1,0,0:0:0:0:
275,297,136698,1,0,0:0:0:0:
353,22,136913,1,0,0:0:0:0:
443,324,137127,5,0,0:0:0:0:
443,316,137181,1,0,0:0:0:0:
443,309,137234,1,0,0:0:0:0:
443,301,137288,1,0,0:0:0:0:
441,294,137341,1,0,0:0:0:0:
438,287,137395,1,0,0:0:0:0:
435,280,137448,1,0,0:0:0:0:
432,273,137502,1,0,0:0:0:0:
428,266,137556,1,0,0:0:0:0:
424,260,137609,1,0,0:0:0:0:
420,254,137663,1,0,0:0:0:0:
415,248,137716,1,0,0:0:0:0:
410,242,137770,1,0,0:0:0:0:
405,236,137823,1,0,0:0:0:0:
401,229,137877,5,0,0:0:0:0:
395,225,137931,1,0,0:0:0:0:
389,221,137984,1,0,0:0:0:0:
383,216,138038,1,0,0:0:0:0:
377,212,138091,1,0,0:0:0:0:
371,208,138145,1,0,0:0:0:0:
365,204,138198,1,0,0:0:0:0:
359,200,138252,1,0,0:0:0:0:
352,196,138306,1,0,0:0:0:0:
346,192,138359,1,0,0:0:0:0:
339,188,138413,5,0,0:0:0:0:
332,184,138466,1,0,0:0:0:0:
325,180,138520,1,0,0:0:0:0:
318,178,138573,1,0,0:0:0:0:
310,178,138627,1,0,0:0:0:0:
303,180,138681,1,0,0:0:0:0:
297,183,138734,1,0,0:0:0:0:
290,185,138788,1,0,0:0:0:0:
283,187,138841,1,0,0:0:0:0:
276,190,138895,1,0,0:0:0:0:
269,193,138948,1,0,0:0:0:0:
262,196,139002,5,0,0:0:0:0:
255,199,139056,1,0,0:0:0:0:
249,203,139109,1,0,0:0:0:0:
243,207,139163,1,0,0:0:0:0:
237,211,139216,1,0,0:0:0:0:
231,215,139270,1,0,0:0:0:0:
225,219,139323,1,0,0:0:0:0:
218,221,139377,1,0,0:0:0:0:
211,222,139431,1,0,0:0:0:0:
204,222,139484,1,0,0:0:0:0:
196,221,139538,1,0,0:0:0:0:
189,220,139591,1,0,0:0:0:0:
182,218,139645,1,0,0:0:0:0:
175,215,139698,1,0,0:0:0:0:
168,212,139752,5,0,0:0:0:0:
162,208,139806,1,0,0:0:0:0:
156,203,139859,1,0,0:0:0:0:
151,197,139913,1,0,0:0:0:0:
146,191,139966,1,0,0:0:0:0:
142,185,140020,1,0,0:0:0:0:
140,178,140073,1,0,0:0:0:0:
141,171,140127,1,0,0:0:0:0:
140,163,140181,1,0,0:0:0:0:
143,157,140234,5,0,0:0:0:0:
148,152,140288,1,0,0:0:0:0:
154,148,140341,1,0,0:0:0:0:
160,145,140395,1,0,0:0:0:0:
166,142,140448,1,0,0:0:0:0:
172,140,140502,1,0,0:0:0:0:
178,138,140556,1,0,0:0:0:0:
184,137,140609,1,0,0:0:0:0:
191,137,140663,1,0,0:0:0:0:
244,113,140810,6,0,L|249:155,11,35
320,93,141520,2,0,L|318:102,55,8.75
179,69,157484,6,0,L|192:127,5,35
381,49,157913,5,0,0:0:0:0:
419,134,158020,1,0,0:0:0:0:
425,226,158127,1,0,0:0:0:0:
390,315,158234,1,0,0:0:0:0:
290,328,158341,1,0,0:0:0:0:
200,326,158448,1,0,0:0:0:0:
103,323,158556,1,0,0:0:0:0:
54,221,158663,1,0,0:0:0:0:
53,130,158770,1,0,0:0:0:0:
134,47,158877,1,0,0:0:0:0:
220,44,158984,1,0,0:0:0:0:
294,44,159091,5,0,0:0:0:0:
330,135,159198,1,0,0:0:0:0:
332,244,159306,1,0,0:0:0:0:
232,248,159413,1,0,0:0:0:0:
138,247,159520,1,0,0:0:0:0:
137,135,159627,1,0,0:0:0:0:
185,49,159734,1,0,0:0:0:0:
245,115,159841,5,0,0:0:0:0:
263,185,159948,2,0,L|345:175,1,70
268,260,160163,2,0,L|343:298,1,70
206,255,160377,2,0,L|136:313,1,70
196,191,160591,2,0,L|115:165,1,70
226,140,160806,2,0,L|232:47,1,70
442,55,161020,5,0,0:0:0:0:
444,84,161127,1,0,0:0:0:0:
445,117,161234,1,0,0:0:0:0:
445,146,161341,1,0,0:0:0:0:
445,182,161448,1,0,0:0:0:0:
413,186,161556,1,0,0:0:0:0:
383,189,161663,1,0,0:0:0:0:
350,187,161770,1,0,0:0:0:0:
323,188,161877,2,0,L|241:189,1,70
323,188,162091,2,0,L|322:114,1,70
323,188,162306,2,0,L|326:257,1,70
417,348,162520,5,0,0:0:0:0:
113,345,162627,1,0,0:0:0:0:
388,298,162734,1,0,0:0:0:0:
139,302,162841,1,0,0:0:0:0:
372,258,162948,1,0,0:0:0:0:
161,264,163056,1,0,0:0:0:0:
353,226,163163,1,0,0:0:0:0:
186,224,163270,1,0,0:0:0:0:
331,200,163377,1,0,0:0:0:0:
206,193,163484,1,0,0:0:0:0:
266,167,163591,1,0,0:0:0:0:
225,129,163698,5,0,0:0:0:0:
308,127,163806,1,0,0:0:0:0:
181,97,163913,1,0,0:0:0:0:
345,93,164020,1,0,0:0:0:0:
150,75,164127,1,0,0:0:0:0:
372,66,164234,1,0,0:0:0:0:
130,37,164341,1,0,0:0:0:0:
393,32,164448,1,0,0:0:0:0:
393,32,164556,5,0,0:0:0:0:
130,37,164663,1,0,0:0:0:0:
372,66,164770,1,0,0:0:0:0:
150,75,164877,1,0,0:0:0:0:
345,93,164984,1,0,0:0:0:0:
181,97,165091,1,0,0:0:0:0:
308,127,165198,1,0,0:0:0:0:
225,129,165306,1,0,0:0:0:0:
270,169,165413,1,0,0:0:0:0:
240,204,165520,5,0,0:0:0:0:
305,205,165627,1,0,0:0:0:0:
204,229,165734,1,0,0:0:0:0:
325,237,165841,1,0,0:0:0:0:
172,252,165948,1,0,0:0:0:0:
357,260,166056,1,0,0:0:0:0:
146,268,166163,1,0,0:0:0:0:
394,274,166270,1,0,0:0:0:0:
116,293,166377,1,0,0:0:0:0:
423,296,166484,1,0,0:0:0:0:
96,324,166591,1,0,0:0:0:0:
428,335,166698,1,0,0:0:0:0:
430,49,166806,6,0,L|434:122,1,70
451,273,166913,2,0,L|444:175,1,70
363,42,167127,2,0,L|365:140,1,70
368,293,167234,2,0,L|369:195,1,70
288,75,167448,2,0,L|288:150,1,70
284,293,167556,2,0,L|288:211,1,70
210,85,167770,2,0,L|208:160,1,70
216,295,167984,2,0,L|218:212,1,70
114,135,168198,6,0,L|199:137,1,70
401,140,168413,2,0,L|316:138,1,70
131,201,168627,2,0,L|222:200,1,70
409,209,168841,2,0,L|314:207,1,70
212,254,169056,2,0,L|285:253,1,70
405,270,169270,2,0,L|319:268,1,70
256,192,169698,12,0,171573,0:0:0:0:
