osu file format v12

[General]
AudioFilename: big money.mp3
AudioLeadIn: 0
PreviewTime: 47171
Countdown: 0
SampleSet: Soft
StackLeniency: 0.7
Mode: 0
LetterboxInBreaks: 0
WidescreenStoryboard: 0

[Editor]
DistanceSpacing: 0.8
BeatDivisor: 4
GridSize: 4

[Metadata]
Title:Big Money
TitleUnicode:Big Money
Artist:The Quick Brown Fox
ArtistUnicode:The Quick Brown Fox
Creator:RikiH_
Version:$50
Source:
Tags:Renard Lapfox Gero Speedcore
BeatmapID:269409
BeatmapSetID:101766

[Difficulty]
HPDrainRate:7
CircleSize:4
OverallDifficulty:7
ApproachRate:9
SliderMultiplier:1.3
SliderTickRate:1

[Events]
//Background and Video events
0,0,"UnUb2WW.png",0,0
//Break Periods
2,27388,29428
2,43942,46142
2,61085,70571
2,71371,73785
2,88313,99713
2,115942,118142
2,146599,156285
2,158584,159499
//Storyboard Layer 0 (Background)
//Storyboard Layer 1 (Fail)
//Storyboard Layer 2 (Pass)
//Storyboard Layer 3 (Foreground)
//Storyboard Sound Samples
//Background Colour Transformations
3,100,255,255,255

[TimingPoints]
16314,214.285714285714,4,1,0,30,1,0
16314,-133.333333333333,4,1,0,50,0,0
26599,-200,4,1,0,50,0,0
27189,-133.333333333333,4,1,0,10,0,0
30028,-133.333333333333,4,1,0,50,0,0
46742,-100,4,1,0,50,0,0
47171,-100,4,1,0,50,0,1
59171,-133.333333333333,4,1,0,50,0,0
60885,-133.333333333333,4,1,0,50,0,0
74599,-100,4,1,0,50,0,1
86599,-133.333333333333,4,1,0,50,0,0
118742,-100,4,1,0,50,0,0
119171,-100,4,1,0,50,0,1
119224,-100,4,1,0,50,0,0
132885,-100,4,1,0,50,0,1
138831,-100,4,1,0,50,0,0
138885,-76.9230769230769,4,1,0,50,0,1
138938,-76.9230769230769,4,1,0,50,0,0
139742,-100,4,1,0,50,0,0
140599,-90.9090909090909,4,1,0,50,0,0
141456,-83.3333333333333,4,1,0,50,0,0
142313,-76.9230769230769,4,1,0,50,0,0
143171,-50,4,1,0,50,0,0
143974,-100,4,1,0,5,0,0
144028,-76.9230769230769,4,1,0,50,0,1
144885,-100,4,1,0,50,0,0
156885,-100,4,2,0,50,0,0
158171,-200,4,2,0,50,0,0
160099,-100,4,1,0,50,0,0
160313,-100,4,1,0,50,0,1
172313,-100,4,1,0,50,0,0

[Colours]
Combo1 : 149,21,139
Combo2 : 24,83,131
Combo3 : 18,181,199
Combo4 : 32,172,43

[HitObjects]
28,36,16314,2,0,B|124:36|124:36|128:40|128:40|228:40,1,195.00000743866,4|8,0:0|0:0,0:0:0:0:
376,40,17171,2,0,L|484:36,2,97.50000371933,2|0|8,0:0|0:0|0:0,0:0:0:0:
320,92,17814,2,0,P|300:140|432:328,1,292.50001115799,0|8,0:0|0:0,0:0:0:0:
300,344,18778,1,0,0:0:0:0:
260,348,18885,5,2,0:0:0:0:
220,352,18992,1,0,0:0:0:0:
180,356,19099,1,0,0:0:0:0:
37,270,19314,2,0,P|60:312|104:332,1,97.50000371933,8|0,0:0|0:0,0:0:0:0:
113,256,19742,6,0,B|127:209|106:162|106:162|83:111|123:50,2,195.00000743866,0|8|0,0:0|0:0|0:0,0:0:0:0:
188,276,20814,1,0,0:0:0:0:
264,256,21028,1,8,0:0:0:0:
340,276,21242,2,0,P|404:280|420:96,1,292.50001115799,0|8,0:0|0:0,0:0:0:0:
340,28,22206,1,0,0:0:0:0:
300,32,22314,5,2,0:0:0:0:
260,36,22421,1,0,0:0:0:0:
220,40,22528,1,0,0:0:0:0:
46,55,22742,2,0,L|144:48,1,97.50000371933,8|0,0:0|0:0,0:0:0:0:
178,124,23171,6,0,B|81:131|81:131|38:170|67:223,1,195.00000743866,0|8,0:0|0:0,0:0:0:0:
308,288,24028,1,2,0:0:0:0:
256,348,24242,1,0,0:0:0:0:
204,288,24456,1,8,0:0:0:0:
256,228,24671,2,0,P|324:184|456:316,1,292.50001115799,0|8,0:0|0:0,0:0:0:0:
504,196,25635,1,0,0:0:0:0:
501,157,25742,5,2,0:0:0:0:
498,118,25849,1,0,0:0:0:0:
495,79,25956,1,0,0:0:0:0:
428,36,26171,1,8,0:0:0:0:
256,52,26385,1,0,0:0:0:0:
358,186,26599,6,2,B|370:218|370:218|358:258|358:258|382:302|350:362,1,178.75,0|2,0:0|0:0,0:0:0:0:
480,28,30028,5,12,0:0:0:0:
408,228,30242,1,8,0:0:0:0:
328,52,30456,1,8,0:0:0:0:
256,212,30671,1,8,0:0:0:0:
176,88,30885,1,8,0:0:0:0:
100,184,31099,1,8,0:0:0:0:
24,96,31313,1,8,0:0:0:0:
52,24,31528,1,8,0:0:0:0:
88,44,31635,1,8,0:0:0:0:
100,84,31742,5,8,0:0:0:0:
84,164,31956,1,8,0:0:0:0:
40,228,32171,1,8,0:0:0:0:
56,304,32385,1,8,0:0:0:0:
116,356,32599,1,8,0:0:0:0:
192,356,32813,1,8,0:0:0:0:
256,312,33028,1,8,0:0:0:0:
276,236,33242,1,8,0:0:0:0:
264,200,33349,1,8,0:0:0:0:
248,164,33456,6,0,P|220:120|172:100,1,97.50000371933,12|8,0:0|0:0,0:0:0:0:
112,38,33885,2,0,P|140:82|188:102,1,97.50000371933,8|8,0:0|0:0,0:0:0:0:
331,100,34313,2,0,P|371:82|399:38,1,97.50000371933,8|8,0:0|0:0,0:0:0:0:
331,101,34742,2,0,P|292:120|264:164,1,97.50000371933,8|8,0:0|0:0,0:0:0:0:
268,204,35063,1,8,0:0:0:0:
296,232,35171,5,8,0:0:0:0:
352,284,35385,1,8,0:0:0:0:
368,208,35599,5,8,0:0:0:0:
280,304,35813,1,8,0:0:0:0:
312,160,36028,5,8,0:0:0:0:
332,352,36242,1,8,0:0:0:0:
416,144,36456,5,8,0:0:0:0:
228,364,36671,1,8,0:0:0:0:
188,368,36778,1,8,0:0:0:0:
148,372,36885,6,0,P|100:368|36:168,2,292.50001115799,12|4|12,0:0|0:0|0:0,0:0:0:0:
207,267,38385,2,0,L|204:316,1,48.750001859665,8|8,0:0|0:0,0:0:0:0:
212,228,38599,6,0,P|240:216|252:148,1,97.50000371933,8|8,0:0|0:0,0:0:0:0:
299,83,39028,2,0,P|271:95|259:163,1,97.50000371933,8|8,0:0|0:0,0:0:0:0:
300,220,39456,1,8,0:0:0:0:
376,244,39671,5,4,0:0:0:0:
480,128,40099,1,0,0:0:0:0:
468,92,40206,1,0,0:0:0:0:
452,56,40313,2,0,P|372:24|256:32,1,195.00000743866,4|0,0:0|0:0,0:0:0:0:
60,328,41171,2,0,P|140:360|256:352,1,195.00000743866,4|0,0:0|0:0,0:0:0:0:
256,32,42028,6,0,B|204:24|204:24|156:56,1,97.50000371933,4|0,0:0|0:0,0:0:0:0:
256,352,42456,2,0,B|308:360|308:360|356:328,1,97.50000371933,4|0,0:0|0:0,0:0:0:0:
140,192,42885,5,4,0:0:0:0:
372,192,43099,1,4,0:0:0:0:
216,148,43313,2,0,P|208:124|188:104,1,48.750001859665,4|4,0:0|0:0,0:0:0:0:
296,236,43528,2,0,P|304:260|324:280,1,48.750001859665,4|4,0:0|0:0,0:0:0:0:
256,192,43742,1,4,0:0:0:0:
504,28,46742,6,0,L|500:64,7,32.5,0|0|0|0|0|0|0|0,0:0|0:0|0:0|0:0|0:0|0:0|0:0|0:0,0:0:0:0:
496,88,47171,6,0,L|488:160,1,65,6|0,0:0|0:0,0:0:0:0:
444,180,47385,2,0,L|436:244,1,65,0|0,0:0|0:0,0:0:0:0:
388,264,47599,2,0,L|380:336,1,65,2|0,0:0|0:0,0:0:0:0:
340,360,47813,1,0,0:0:0:0:
256,300,48028,6,0,P|220:312|188:304,1,65,2|0,0:0|0:0,0:0:0:0:
156,248,48242,2,0,P|192:236|224:244,1,65,0|0,0:0|0:0,0:0:0:0:
290,236,48456,2,0,P|318:212|330:176,2,65,2|0|0,0:0|0:0|0:0,0:0:0:0:
256,136,48885,6,0,P|260:100|280:72,1,65,2|0,0:0|0:0,0:0:0:0:
240,40,49099,2,0,P|204:36|176:16,1,65,0|0,0:0|0:0,0:0:0:0:
128,24,49313,2,0,P|104:39|68:43,1,65,2|0,0:0|0:0,0:0:0:0:
24,72,49528,1,0,0:0:0:0:
60,168,49742,6,0,L|64:232,2,65,2|0|0,0:0|0:0|0:0,0:0:0:0:
12,148,50063,2,0,P|-12:208|32:272,1,130,0|2,0:0|0:0,0:0:0:0:
48,304,50385,1,0,0:0:0:0:
148,332,50599,6,0,L|216:336,1,65,2|0,0:0|0:0,0:0:0:0:
304,295,50813,2,0,L|240:292,1,65,0|0,0:0|0:0,0:0:0:0:
344,260,51028,2,0,L|412:264,1,65,2|0,0:0|0:0,0:0:0:0:
452,232,51242,1,0,0:0:0:0:
488,136,51456,6,0,L|492:72,1,65,2|0,0:0|0:0,0:0:0:0:
424,16,51671,2,0,L|420:80,1,65,0|0,0:0|0:0,0:0:0:0:
344,128,51885,2,0,L|348:64,1,65,2|0,0:0|0:0,0:0:0:0:
288,16,52099,1,0,0:0:0:0:
196,60,52313,6,0,L|128:64,1,65,2|0,0:0|0:0,0:0:0:0:
80,120,52528,2,0,L|117:176,1,65,0|0,0:0|0:0,0:0:0:0:
192,192,52742,2,0,L|222:131,2,65,2|0|0,0:0|0:0|0:0,0:0:0:0:
112,260,53171,6,0,L|81:320,2,65,2|0|0,0:0|0:0|0:0,0:0:0:0:
92,212,53492,2,0,P|44:160|56:92,1,130,0|2,0:0|0:0,0:0:0:0:
80,64,53813,1,0,0:0:0:0:
176,28,54028,6,0,P|216:40|248:28,1,65,6|0,0:0|0:0,0:0:0:0:
288,20,54242,2,0,P|328:8|360:20,1,65,0|0,0:0|0:0,0:0:0:0:
396,40,54456,2,0,P|436:52|468:40,1,65,2|0,0:0|0:0,0:0:0:0:
504,20,54671,1,0,0:0:0:0:
504,124,54885,6,0,L|500:188,1,65,2|0,0:0|0:0,0:0:0:0:
476,144,55099,2,0,L|472:208,1,65,0|0,0:0|0:0,0:0:0:0:
448,164,55313,2,0,L|444:228,1,65,2|0,0:0|0:0,0:0:0:0:
440,280,55528,1,0,0:0:0:0:
348,236,55742,6,0,L|300:184,1,65,2|0,0:0|0:0,0:0:0:0:
256,208,55956,2,0,L|256:276,1,65,0|0,0:0|0:0,0:0:0:0:
212,304,56171,2,0,L|164:252,2,65,2|0|0,0:0|0:0|0:0,0:0:0:0:
116,344,56599,5,2,0:0:0:0:
96,328,56706,1,0,0:0:0:0:
76,312,56813,1,0,0:0:0:0:
56,296,56921,2,0,P|24:272|16:184,1,130,0|2,0:0|0:0,0:0:0:0:
52,152,57242,1,0,0:0:0:0:
40,48,57456,6,0,L|104:52,1,65,2|0,0:0|0:0,0:0:0:0:
196,100,57671,2,0,L|132:96,1,65,0|0,0:0|0:0,0:0:0:0:
224,56,57885,2,0,L|288:60,1,65,2|0,0:0|0:0,0:0:0:0:
324,100,58099,1,0,0:0:0:0:
416,52,58313,6,0,P|444:168|252:328,1,390,2|0,0:0|0:0,0:0:0:0:
188,300,59171,1,4,0:0:0:0:
256,192,59224,12,4,60885,0:0:0:0:
256,192,71171,5,4,0:0:0:0:
32,28,74385,6,0,L|68:32,3,24.3750009298325,0|0|0|0,0:0|0:0|0:0|0:0,0:0:0:0:
84,32,74599,5,6,0:0:0:0:
112,60,74706,1,0,0:0:0:0:
148,80,74813,1,0,0:0:0:0:
184,68,74921,1,0,0:0:0:0:
220,80,75028,1,2,0:0:0:0:
256,60,75135,1,0,0:0:0:0:
284,32,75242,1,0,0:0:0:0:
384,12,75456,5,2,0:0:0:0:
420,20,75563,1,0,0:0:0:0:
452,40,75671,1,0,0:0:0:0:
480,68,75778,1,0,0:0:0:0:
496,104,75885,1,2,0:0:0:0:
496,144,75992,1,0,0:0:0:0:
488,180,76099,1,0,0:0:0:0:
424,352,76313,5,2,0:0:0:0:
388,344,76420,1,0,0:0:0:0:
356,324,76528,1,0,0:0:0:0:
328,296,76635,1,0,0:0:0:0:
312,260,76742,1,2,0:0:0:0:
312,220,76849,1,0,0:0:0:0:
320,184,76956,1,0,0:0:0:0:
256,40,77171,6,0,P|152:24|12:196,1,325,2|2,0:0|0:0,0:0:0:0:
12,210,77813,2,0,P|12:246|28:282,1,65,0|0,0:0|0:0,0:0:0:0:
48,304,78028,5,2,0:0:0:0:
80,328,78135,1,0,0:0:0:0:
116,340,78242,1,0,0:0:0:0:
156,348,78349,1,0,0:0:0:0:
196,344,78456,1,2,0:0:0:0:
232,332,78563,1,0,0:0:0:0:
264,312,78671,1,0,0:0:0:0:
464,80,78885,5,2,0:0:0:0:
432,56,78992,1,0,0:0:0:0:
396,44,79099,1,0,0:0:0:0:
356,36,79206,1,0,0:0:0:0:
316,40,79313,1,2,0:0:0:0:
280,52,79420,1,0,0:0:0:0:
248,72,79528,1,0,0:0:0:0:
296,232,79742,6,0,L|364:236,1,65,2|0,0:0|0:0,0:0:0:0:
216,152,79956,2,0,L|148:148,1,65,0|0,0:0|0:0,0:0:0:0:
216,232,80171,2,0,L|212:300,1,65,2|0,0:0|0:0,0:0:0:0:
296,152,80385,1,0,0:0:0:0:
256,56,80599,6,0,L|188:52,2,65,2|0|0,0:0|0:0|0:0,0:0:0:0:
304,40,80921,2,0,P|364:24|436:48,1,130,0|2,0:0|0:0,0:0:0:0:
472,68,81242,2,0,L|468:136,1,65,0|0,0:0|0:0,0:0:0:0:
488,180,81456,6,0,L|492:244,1,65,6|0,0:0|0:0,0:0:0:0:
480,296,81671,2,0,P|448:312|408:304,1,65,0|0,0:0|0:0,0:0:0:0:
380,276,81885,2,0,L|376:212,1,65,2|0,0:0|0:0,0:0:0:0:
368,160,82099,1,0,0:0:0:0:
328,64,82313,6,0,B|296:60|296:60|272:32,1,65,2|0,0:0|0:0,0:0:0:0:
180,128,82528,2,0,B|212:124|212:124|236:96,1,65,0|0,0:0|0:0,0:0:0:0:
308,172,82742,2,0,B|276:176|276:176|252:204,1,65,2|0,0:0|0:0,0:0:0:0:
220,240,82956,1,0,0:0:0:0:
168,332,83171,6,0,L|236:340,2,65,2|0|0,0:0|0:0|0:0,0:0:0:0:
128,296,83492,1,0,0:0:0:0:
92,332,83599,2,0,L|24:340,2,65,2|0|0,0:0|0:0|0:0,0:0:0:0:
56,232,84028,6,0,L|48:160,2,65,2|0|0,0:0|0:0|0:0,0:0:0:0:
108,244,84349,2,0,B|128:188|128:188|88:112,1,130,0|2,0:0|0:0,0:0:0:0:
68,80,84671,2,0,L|88:16,1,65,0|0,0:0|0:0,0:0:0:0:
140,24,84885,5,2,0:0:0:0:
192,28,84992,1,0,0:0:0:0:
244,32,85099,1,0,0:0:0:0:
296,36,85206,1,0,0:0:0:0:
308,88,85313,1,2,0:0:0:0:
320,140,85421,1,0,0:0:0:0:
328,192,85528,1,0,0:0:0:0:
372,360,85742,5,2,0:0:0:0:
320,356,85849,1,0,0:0:0:0:
268,352,85956,1,0,0:0:0:0:
216,348,86063,1,0,0:0:0:0:
204,296,86170,1,2,0:0:0:0:
192,244,86278,1,0,0:0:0:0:
184,192,86385,1,0,0:0:0:0:
476,36,86599,5,4,0:0:0:0:
256,192,100313,5,4,0:0:0:0:
200,144,102028,6,0,P|152:128|128:80,1,97.50000371933,12|8,0:0|0:0,0:0:0:0:
312,240,102456,2,0,P|360:256|384:304,1,97.50000371933,8|8,0:0|0:0,0:0:0:0:
231,122,102885,2,0,P|197:84|201:31,1,97.50000371933,8|8,0:0|0:0,0:0:0:0:
280,261,103313,2,0,P|314:299|310:352,1,97.50000371933,8|8,0:0|0:0,0:0:0:0:
288,372,103635,1,8,0:0:0:0:
259,378,103742,6,0,P|208:380|162:348,1,97.50000371933,8|8,0:0|0:0,0:0:0:0:
253,6,104171,2,0,P|304:4|350:36,1,97.50000371933,8|8,0:0|0:0,0:0:0:0:
117,301,104599,2,0,P|68:251|58:211,1,97.50000371933,8|8,0:0|0:0,0:0:0:0:
395,83,105028,2,0,P|444:133|454:173,1,97.50000371933,8|8,0:0|0:0,0:0:0:0:
456,196,105349,1,8,0:0:0:0:
444,232,105456,6,0,P|404:272|352:260,1,97.50000371933,12|8,0:0|0:0,0:0:0:0:
68,152,105885,2,0,P|108:112|160:124,1,97.50000371933,8|8,0:0|0:0,0:0:0:0:
374,343,106313,2,0,P|317:348|285:305,1,97.50000371933,8|8,0:0|0:0,0:0:0:0:
137,40,106742,2,0,P|194:35|226:78,1,97.50000371933,8|8,0:0|0:0,0:0:0:0:
236,100,107063,1,8,0:0:0:0:
232,140,107171,6,0,B|228:164|228:164|144:192,1,97.50000371933,8|8,0:0|0:0,0:0:0:0:
64,88,107599,2,0,B|68:64|68:64|152:36,1,97.50000371933,8|8,0:0|0:0,0:0:0:0:
448,296,108028,2,0,B|444:320|444:320|374:343,1,97.50000371933,8|8,0:0|0:0,0:0:0:0:
280,244,108456,2,0,B|284:220|284:220|353:196,1,97.50000371933,8|8,0:0|0:0,0:0:0:0:
380,168,108778,1,8,0:0:0:0:
364,132,108885,6,0,B|325:75|231:87|231:87|154:98|101:10,2,292.50001115799,12|4|12,0:0|0:0|0:0,0:0:0:0:
344,208,110385,1,8,0:0:0:0:
320,240,110492,1,8,0:0:0:0:
292,264,110599,6,0,P|260:280|192:264,1,97.50000371933,8|8,0:0|0:0,0:0:0:0:
220,120,111028,2,0,P|252:104|320:120,1,97.50000371933,8|8,0:0|0:0,0:0:0:0:
256,192,111456,1,8,0:0:0:0:
105,57,111671,1,4,0:0:0:0:
96,68,112099,1,0,0:0:0:0:
76,104,112206,1,0,0:0:0:0:
60,140,112313,6,0,P|40:200|104:308,1,195.00000743866,4|0,0:0|0:0,0:0:0:0:
452,244,113171,2,0,P|472:184|408:76,1,195.00000743866,4|0,0:0|0:0,0:0:0:0:
102,307,114028,5,4,0:0:0:0:
409,76,114456,1,4,0:0:0:0:
124,180,114885,1,4,0:0:0:0:
388,204,115099,1,4,0:0:0:0:
216,152,115313,6,0,L|212:104,1,48.750001859665,4|4,0:0|0:0,0:0:0:0:
296,232,115528,2,0,L|300:280,1,48.750001859665,4|4,0:0|0:0,0:0:0:0:
256,192,115742,1,4,0:0:0:0:
36,36,118742,6,0,L|40:68,7,32.5,0|0|0|0|0|0|0|0,0:0|0:0|0:0|0:0|0:0|0:0|0:0|0:0,0:0:0:0:
44,96,119171,6,0,P|60:140|12:216,1,130,6|0,0:0|0:0,0:0:0:0:
64,304,119599,2,0,L|68:368,2,65,8|0|0,0:0|0:0|0:0,0:0:0:0:
100,268,119921,2,0,P|148:296|228:280,1,130,2|0,0:0|0:0,0:0:0:0:
252,248,120242,1,2,0:0:0:0:
140,112,120456,1,8,0:0:0:0:
372,112,120671,1,0,0:0:0:0:
252,248,120885,6,0,P|280:304|352:320,1,130,2|0,0:0|0:0,0:0:0:0:
508,312,121313,2,0,L|444:316,2,65,8|0|0,0:0|0:0|0:0,0:0:0:0:
492,264,121635,2,0,B|492:204|492:204|488:200|488:200|488:136,1,130,2|0,0:0|0:0,0:0:0:0:
508,88,121956,1,2,0:0:0:0:
420,32,122171,2,0,P|392:80|252:60,1,195,8|0,0:0|0:0,0:0:0:0:
232,36,122599,6,0,L|96:32,1,130,2|0,0:0|0:0,0:0:0:0:
16,92,123028,1,8,0:0:0:0:
20,132,123135,1,0,0:0:0:0:
24,172,123242,1,0,0:0:0:0:
28,212,123349,2,0,P|56:272|24:336,1,130,2|0,0:0|0:0,0:0:0:0:
8,356,123671,1,2,0:0:0:0:
128,188,123885,1,8,0:0:0:0:
256,356,124099,1,0,0:0:0:0:
256,128,124313,6,0,P|252:84|264:52,1,65,2|0,0:0|0:0,0:0:0:0:
256,256,124528,2,0,P|260:300|248:332,1,65,0|0,0:0|0:0,0:0:0:0:
288,136,124742,2,0,P|306:96|332:74,1,65,8|0,0:0|0:0,0:0:0:0:
224,247,124957,2,0,P|205:287|179:309,1,65,0|0,0:0|0:0,0:0:0:0:
352,192,125171,6,0,P|392:168|468:200,1,130,2|0,0:0|0:0,0:0:0:0:
160,192,125599,2,0,P|120:216|44:184,1,130,2|0,0:0|0:0,0:0:0:0:
464,195,126028,5,6,0:0:0:0:
256,192,126242,1,0,0:0:0:0:
464,195,126456,2,0,L|468:128,2,65,8|0|2,0:0|0:0|0:0,0:0:0:0:
440,228,126778,2,0,P|408:256|328:220,1,130,2|0,0:0|0:0,0:0:0:0:
312,196,127099,1,2,0:0:0:0:
360,132,127313,1,8,0:0:0:0:
152,252,127528,1,0,0:0:0:0:
360,132,127742,6,0,B|388:104|388:104|488:104,1,130,2|0,0:0|0:0,0:0:0:0:
152,252,128171,2,0,B|124:280|124:280|24:280,1,130,8|0,0:0|0:0,0:0:0:0:
16,244,128492,2,0,B|40:220|40:220|40:120,1,130,2|0,0:0|0:0,0:0:0:0:
40,84,128813,2,0,B|64:60|64:60|160:60,2,130,2|8|0,0:0|0:0|0:0,0:0:0:0:
100,136,129456,5,2,0:0:0:0:
344,192,129671,1,0,0:0:0:0:
100,136,129885,2,0,L|96:200,1,65,8|0,0:0|0:0,0:0:0:0:
92,240,130099,1,0,0:0:0:0:
96,280,130206,2,0,P|124:312|228:312,1,130,2|0,0:0|0:0,0:0:0:0:
244,308,130528,2,0,P|280:292|376:328,2,130,2|8|0,0:0|0:0|0:0,0:0:0:0:
176,268,131171,5,2,0:0:0:0:
336,116,131385,1,0,0:0:0:0:
120,216,131599,5,2,0:0:0:0:
392,168,131813,1,0,0:0:0:0:
256,192,132028,5,4,0:0:0:0:
332,228,132885,6,0,L|397:232,1,65,4|0,0:0|0:0,0:0:0:0:
180,156,133099,2,0,L|115:152,1,65,2|0,0:0|0:0,0:0:0:0:
315,251,133313,2,0,L|374:277,1,65,0|2,0:0|0:0,0:0:0:0:
196,132,133527,2,0,L|137:106,1,65,0|2,0:0|0:0,0:0:0:0:
291,268,133742,2,0,L|338:313,1,65,0|0,0:0|0:0,0:0:0:0:
220,115,133956,2,0,L|173:70,1,65,0|0,0:0|0:0,0:0:0:0:
262,275,134171,2,0,L|291:334,1,65,2|0,0:0|0:0,0:0:0:0:
249,108,134385,2,0,L|220:49,1,65,0|2,0:0|0:0,0:0:0:0:
233,273,134599,6,0,L|241:337,1,65,0|0,0:0|0:0,0:0:0:0:
278,110,134813,2,0,L|270:46,1,65,2|0,0:0|0:0,0:0:0:0:
207,260,135028,2,0,L|192:323,1,65,0|2,0:0|0:0,0:0:0:0:
304,123,135242,2,0,L|319:60,1,65,0|2,0:0|0:0,0:0:0:0:
186,239,135456,2,0,L|150:294,1,65,0|0,0:0|0:0,0:0:0:0:
325,144,135671,2,0,L|361:89,1,65,0|0,0:0|0:0,0:0:0:0:
174,213,135885,2,0,L|122:251,1,65,0|2,0:0|0:0,0:0:0:0:
337,170,136099,2,0,L|389:132,1,65,0|0,0:0|0:0,0:0:0:0:
392,232,136313,6,0,P|387:263|368:289,1,65,0|0,0:0|0:0,0:0:0:0:
119,151,136528,2,0,P|124:120|143:94,1,65,2|0,0:0|0:0,0:0:0:0:
333,310,136742,2,0,P|309:331|278:338,1,65,0|2,0:0|0:0,0:0:0:0:
177,72,136957,2,0,P|201:51|232:44,1,65,0|2,0:0|0:0,0:0:0:0:
239,332,137171,2,0,P|207:333|178:319,1,65,0|0,0:0|0:0,0:0:0:0:
271,50,137386,2,0,P|303:49|332:63,1,65,0|0,0:0|0:0,0:0:0:0:
152,288,137599,2,0,P|127:269|113:240,1,65,2|0,0:0|0:0,0:0:0:0:
358,94,137814,2,0,P|383:113|397:142,1,65,0|2,0:0|0:0,0:0:0:0:
296,232,138028,6,0,L|360:236,1,65,0|0,0:0|0:0,0:0:0:0:
216,152,138242,2,0,L|152:148,1,65,2|0,0:0|0:0,0:0:0:0:
251,248,138456,2,0,L|289:299,1,65,0|2,0:0|0:0,0:0:0:0:
260,135,138670,2,0,L|222:84,1,65,0|2,0:0|0:0,0:0:0:0:
152,288,138885,5,4,0:0:0:0:
360,96,139099,1,4,0:0:0:0:
136,268,139313,1,4,0:0:0:0:
375,115,139527,1,4,0:0:0:0:
256,192,139742,6,0,L|232:216,15,32.5,0|0|0|0|0|0|0|0|0|0|0|0|0|0|0|0,0:0|0:0|0:0|0:0|0:0|0:0|0:0|0:0|0:0|0:0|0:0|0:0|0:0|0:0|0:0|0:0,0:0:0:0:
293,262,140599,2,0,L|276:296,15,35.7500010910034
352,316,141456,2,0,L|348:360,15,38.9999988098145
424,340,142313,2,0,L|432:388,15,42.2499980659486
256,192,143171,12,0,143974,0:0:0:0:
256,192,144028,12,4,144885,0:0:0:0:
256,192,156885,5,4,0:0:0:0:
280,192,157313,1,2,0:0:0:0:
308,192,157742,1,2,0:0:0:0:
336,192,158224,2,0,L|396:192,1,48.75,2|0,0:0|0:0,0:0:0:0:
256,348,160099,6,0,L|256:312,3,32.5,0|0|0|0,0:0|0:0|0:0|0:0,0:0:0:0:
256,288,160313,6,0,L|184:272,1,65,6|0,0:0|0:0,0:0:0:0:
272,212,160528,2,0,L|344:196,1,65,0|0,0:0|0:0,0:0:0:0:
256,136,160742,2,0,L|184:120,1,65,2|0,0:0|0:0,0:0:0:0:
256,56,160956,1,0,0:0:0:0:
40,40,161171,6,0,P|33:78|44:117,1,65,2|0,0:0|0:0,0:0:0:0:
129,226,161385,2,0,P|136:188|125:149,1,65,0|0,0:0|0:0,0:0:0:0:
37,280,161599,2,0,P|33:306|40:344,1,65,2|0,0:0|0:0,0:0:0:0:
256,192,161813,1,0,0:0:0:0:
408,80,162028,6,0,B|440:76|440:76|456:44,1,65,2|0,0:0|0:0,0:0:0:0:
512,192,162242,2,0,L|448:192,1,65,0|0,0:0|0:0,0:0:0:0:
408,304,162456,2,0,B|440:308|440:308|456:340,1,65,2|0,0:0|0:0,0:0:0:0:
256,192,162671,1,0,0:0:0:0:
256,88,162885,6,0,L|256:24,2,65,2|0|0,0:0|0:0|0:0,0:0:0:0:
208,108,163206,2,0,P|152:132|84:112,1,130,0|2,0:0|0:0,0:0:0:0:
44,88,163528,1,0,0:0:0:0:
72,188,163742,6,0,P|80:228|68:264,1,65,2|0,0:0|0:0,0:0:0:0:
8,352,163956,2,0,P|0:312|12:276,1,65,0|0,0:0|0:0,0:0:0:0:
180,196,164171,2,0,P|220:188|256:200,1,65,2|0,0:0|0:0,0:0:0:0:
284,224,164385,1,0,0:0:0:0:
304,324,164599,6,0,P|280:329|240:321,1,65,2|0,0:0|0:0,0:0:0:0:
304,40,164813,2,0,P|344:32|380:44,1,65,0|0,0:0|0:0,0:0:0:0:
476,228,165028,2,0,P|452:233|412:225,1,65,2|0,0:0|0:0,0:0:0:0:
380,188,165242,1,0,0:0:0:0:
300,124,165456,6,0,L|288:192,1,65,2|0,0:0|0:0,0:0:0:0:
204,96,165671,2,0,L|192:164,1,65,0|0,0:0|0:0,0:0:0:0:
108,64,165885,2,0,L|96:132,1,65,2|0,0:0|0:0,0:0:0:0:
88,180,166099,1,0,0:0:0:0:
72,284,166313,6,0,P|44:320|8:328,2,65,2|0|0,0:0|0:0|0:0,0:0:0:0:
124,300,166635,2,0,B|184:300|184:300|188:304|188:304|260:304,1,130,0|2,0:0|0:0,0:0:0:0:
300,284,166956,2,0,L|368:284,1,65,0|0,0:0|0:0,0:0:0:0:
408,256,167171,5,4,0:0:0:0:
448,60,167385,2,0,L|496:12,2,65,0|0|8,0:0|0:0|0:0,0:0:0:0:
64,60,167813,2,0,L|16:12,2,65,0|0|8,0:0|0:0|0:0,0:0:0:0:
204,228,168242,2,0,P|212:260|208:300,1,65,0|0,0:0|0:0,0:0:0:0:
192,340,168456,1,8,0:0:0:0:
308,228,168671,2,0,P|300:260|304:300,1,65,0|0,0:0|0:0,0:0:0:0:
320,340,168885,1,8,0:0:0:0:
256,136,169099,6,0,L|256:68,1,65,0|0,0:0|0:0,0:0:0:0:
256,20,169313,1,8,0:0:0:0:
112,140,169528,2,0,P|88:164|48:172,1,65,0|0,0:0|0:0,0:0:0:0:
8,156,169742,1,8,0:0:0:0:
400,140,169956,2,0,P|424:164|464:172,1,65,0|0,0:0|0:0,0:0:0:0:
504,156,170170,1,8,0:0:0:0:
256,248,170385,2,0,L|256:316,1,65,0|0,0:0|0:0,0:0:0:0:
224,354,170599,6,0,P|180:354|156:338,1,65,2|0,0:0|0:0,0:0:0:0:
121,312,170813,2,0,P|77:312|53:328,1,65,0|0,0:0|0:0,0:0:0:0:
31,277,171028,2,0,L|3:205,1,65,2|0,0:0|0:0,0:0:0:0:
31,170,171242,1,0,0:0:0:0:
89,84,171456,6,0,P|129:65|170:65,1,65,2|0,0:0|0:0,0:0:0:0:
201,70,171671,2,0,P|263:66|281:52,1,65
309,41,171885,2,0,P|350:32|382:32,1,65,2|0,0:0|0:0,0:0:0:0:
424,40,172099,1,0,0:0:0:0:
256,192,172313,5,4,0:0:0:0:
256,192,172367,12,4,174028,0:0:0:0:
