osu file format v14

[General]
AudioFilename: money.mp3
AudioLeadIn: 0
PreviewTime: 47180
Countdown: 0
SampleSet: Normal
StackLeniency: 0.7
Mode: 3
LetterboxInBreaks: 0
SpecialStyle: 0
WidescreenStoryboard: 0

[Editor]
DistanceSpacing: 1
BeatDivisor: 4
GridSize: 16
TimelineZoom: 1.699999

[Metadata]
Title:Big Money
TitleUnicode:Big Money
Artist:The Quick Brown Fox
ArtistUnicode:The Quick Brown Fox
Creator:Mage
Version:Penny [EZ]
Source:
Tags:Renard Lapfox Trax speedcore Halley Labs Vulpvibe [Shana Lesus]
BeatmapID:947780
BeatmapSetID:440508

[Difficulty]
HPDrainRate:6.5
CircleSize:4
OverallDifficulty:7
ApproachRate:5
SliderMultiplier:1.4
SliderTickRate:1

[Events]
//Background and Video events
0,0,"bege.jpg",0,0
//Break Periods
//Storyboard Layer 0 (Background)
//Storyboard Layer 1 (Fail)
//Storyboard Layer 2 (Pass)
//Storyboard Layer 3 (Foreground)
//Storyboard Sound Samples

[TimingPoints]
2600,214.285714285714,4,1,1,70,1,0
47171,-100,4,1,1,70,0,1
59171,-100,4,1,1,70,0,0
74599,-100,4,1,1,70,0,1
86599,-100,4,1,1,70,0,0
119171,-100,4,1,1,70,0,1
132028,-100,4,1,1,70,0,0
132885,-100,4,1,1,70,0,1
144885,-100,4,1,1,70,0,0
160314,-100,4,1,1,70,0,1
172314,-100,4,1,1,70,0,0

[HitObjects]
64,192,2600,5,0,0:0:0:0:
64,192,3028,1,0,0:0:0:0:
448,192,3457,1,0,0:0:0:0:
64,192,3885,1,0,0:0:0:0:
448,192,4099,1,0,0:0:0:0:
320,192,4742,1,0,0:0:0:0:
192,192,5171,1,0,0:0:0:0:
448,192,5599,1,0,0:0:0:0:
64,192,6028,1,0,0:0:0:0:
64,192,6457,1,0,0:0:0:0:
192,192,6885,1,0,0:0:0:0:
448,192,7314,1,0,0:0:0:0:
320,192,7528,1,0,0:0:0:0:
192,192,8171,1,0,0:0:0:0:
448,192,8599,1,0,0:0:0:0:
64,192,9028,1,0,0:0:0:0:
448,192,9457,1,0,0:0:0:0:
448,192,9885,1,0,0:0:0:0:
64,192,10314,1,0,0:0:0:0:
448,192,10742,1,0,0:0:0:0:
192,192,10957,1,0,0:0:0:0:
320,192,11599,1,0,0:0:0:0:
64,192,12028,1,0,0:0:0:0:
448,192,12457,1,0,0:0:0:0:
64,192,12885,1,0,0:0:0:0:
64,192,13314,1,0,0:0:0:0:
192,192,13742,1,0,0:0:0:0:
448,192,14171,1,0,0:0:0:0:
320,192,14385,1,0,0:0:0:0:
64,192,15028,1,0,0:0:0:0:
320,192,15457,1,0,0:0:0:0:
192,192,15885,1,0,0:0:0:0:
448,192,16314,1,8,0:0:0:0:
64,192,16742,1,8,0:0:0:0:
320,192,17171,1,0,0:0:0:0:
64,192,17385,1,8,0:0:0:0:
192,192,17599,1,8,0:0:0:0:
448,192,18028,1,8,0:0:0:0:
64,192,18457,1,8,0:0:0:0:
320,192,18778,128,0,19099:0:0:0:0:
192,192,19314,1,8,0:0:0:0:
64,192,19742,1,8,0:0:0:0:
448,192,20171,1,8,0:0:0:0:
192,192,20599,1,0,0:0:0:0:
448,192,20814,1,8,0:0:0:0:
320,192,21028,1,8,0:0:0:0:
64,192,21457,1,8,0:0:0:0:
448,192,21885,1,8,0:0:0:0:
192,192,22207,128,0,22528:0:0:0:0:
320,192,22742,1,8,0:0:0:0:
448,192,23171,1,8,0:0:0:0:
64,192,23599,1,8,0:0:0:0:
448,192,24028,1,0,0:0:0:0:
192,192,24242,1,8,0:0:0:0:
320,192,24457,1,8,0:0:0:0:
64,192,24885,1,8,0:0:0:0:
448,192,25314,1,8,0:0:0:0:
64,192,25635,128,0,25957:0:0:0:0:
448,192,26171,1,8,0:0:0:0:
320,192,26599,128,8,27135:0:0:0:0:
64,192,30028,1,4,0:0:0:0:
448,192,30028,1,0,0:0:0:0:
192,192,30457,1,0,0:0:0:0:
448,192,30885,1,0,0:0:0:0:
320,192,31314,1,0,0:0:0:0:
64,192,31742,1,0,0:0:0:0:
448,192,32171,1,0,0:0:0:0:
320,192,32599,1,0,0:0:0:0:
192,192,33028,1,0,0:0:0:0:
448,192,33242,128,8,33457:0:0:0:0:
64,192,33457,1,4,0:0:0:0:
192,192,33885,1,0,0:0:0:0:
320,192,34314,1,0,0:0:0:0:
448,192,34742,1,0,0:0:0:0:
320,192,35171,1,0,0:0:0:0:
64,192,35599,1,0,0:0:0:0:
192,192,36028,1,0,0:0:0:0:
448,192,36457,1,0,0:0:0:0:
320,192,36671,128,8,36885:0:0:0:0:
64,192,36885,1,4,0:0:0:0:
320,192,37528,1,0,0:0:0:0:
64,192,37742,1,0,0:0:0:0:
448,192,38171,1,4,0:0:0:0:
64,192,38599,1,0,0:0:0:0:
320,192,39028,1,0,0:0:0:0:
192,192,39457,1,0,0:0:0:0:
64,192,39671,1,4,0:0:0:0:
448,192,39885,1,0,0:0:0:0:
320,192,40099,128,8,40314:0:0:0:0:
64,192,40314,1,4,0:0:0:0:
192,192,40742,1,0,0:0:0:0:
448,192,41171,1,4,0:0:0:0:
192,192,41599,1,0,0:0:0:0:
448,192,41814,128,8,42028:0:0:0:0:
64,192,42028,1,4,0:0:0:0:
320,192,42457,1,4,0:0:0:0:
64,192,42885,1,4,0:0:0:0:
448,192,43099,1,4,0:0:0:0:
192,192,43314,128,4,43742:0:0:0:0:
448,192,43742,1,4,0:0:0:0:
448,192,46742,128,8,47171:0:0:0:0:
64,192,47171,1,12,0:0:0:0:
192,192,47171,1,0,0:0:0:0:
320,192,47385,1,8,0:0:0:0:
64,192,47599,1,8,0:0:0:0:
448,192,47814,1,8,0:0:0:0:
64,192,48028,1,8,0:0:0:0:
192,192,48242,1,8,0:0:0:0:
448,192,48457,1,8,0:0:0:0:
320,192,48671,1,8,0:0:0:0:
64,192,48885,1,8,0:0:0:0:
192,192,49099,1,8,0:0:0:0:
320,192,49314,1,8,0:0:0:0:
64,192,49528,1,8,0:0:0:0:
448,192,49742,1,8,0:0:0:0:
320,192,49957,1,8,0:0:0:0:
192,192,50171,1,8,0:0:0:0:
64,192,50385,1,8,0:0:0:0:
320,192,50599,1,8,0:0:0:0:
192,192,50814,1,8,0:0:0:0:
448,192,51028,1,8,0:0:0:0:
320,192,51242,1,8,0:0:0:0:
64,192,51457,1,8,0:0:0:0:
448,192,51671,1,8,0:0:0:0:
320,192,51885,1,8,0:0:0:0:
64,192,52099,1,8,0:0:0:0:
320,192,52314,1,8,0:0:0:0:
192,192,52528,1,8,0:0:0:0:
448,192,52742,1,8,0:0:0:0:
320,192,52957,1,8,0:0:0:0:
64,192,53171,1,8,0:0:0:0:
448,192,53385,128,8,53599:0:0:0:0:
64,192,53599,1,8,0:0:0:0:
448,192,53814,1,8,0:0:0:0:
192,192,54028,1,4,0:0:0:0:
64,192,54028,1,8,0:0:0:0:
320,192,54242,1,8,0:0:0:0:
448,192,54457,1,8,0:0:0:0:
192,192,54671,1,8,0:0:0:0:
448,192,54885,1,8,0:0:0:0:
320,192,55099,1,8,0:0:0:0:
192,192,55314,1,8,0:0:0:0:
64,192,55528,1,8,0:0:0:0:
448,192,55742,1,8,0:0:0:0:
320,192,55957,1,8,0:0:0:0:
64,192,56171,1,8,0:0:0:0:
192,192,56385,1,8,0:0:0:0:
448,192,56599,1,8,0:0:0:0:
320,192,56814,1,8,0:0:0:0:
192,192,57028,1,8,0:0:0:0:
64,192,57242,1,8,0:0:0:0:
448,192,57457,1,8,0:0:0:0:
320,192,57671,1,8,0:0:0:0:
64,192,57885,1,8,0:0:0:0:
192,192,58099,1,8,0:0:0:0:
448,192,58314,1,8,0:0:0:0:
320,192,58528,1,8,0:0:0:0:
64,192,58742,1,8,0:0:0:0:
192,192,58957,1,8,0:0:0:0:
448,192,59171,1,4,0:0:0:0:
320,192,59171,1,8,0:0:0:0:
64,192,60885,1,8,0:0:0:0:
192,192,60885,1,4,0:0:0:0:
448,192,61314,1,8,0:0:0:0:
64,192,61742,1,8,0:0:0:0:
320,192,62171,1,8,0:0:0:0:
192,192,62599,1,8,0:0:0:0:
64,192,63028,1,8,0:0:0:0:
448,192,63457,1,8,0:0:0:0:
320,192,63885,1,8,0:0:0:0:
64,192,64314,1,8,0:0:0:0:
192,192,64742,1,8,0:0:0:0:
320,192,65171,1,8,0:0:0:0:
448,192,65599,1,8,0:0:0:0:
64,192,66028,1,8,0:0:0:0:
448,192,66457,1,8,0:0:0:0:
192,192,66885,1,8,0:0:0:0:
320,192,67314,1,8,0:0:0:0:
64,192,67742,1,4,0:0:0:0:
192,192,67742,1,8,0:0:0:0:
448,192,68171,1,8,0:0:0:0:
192,192,68599,1,8,0:0:0:0:
320,192,69028,1,8,0:0:0:0:
64,192,69457,1,8,0:0:0:0:
192,192,69885,1,8,0:0:0:0:
448,192,70314,1,8,0:0:0:0:
320,192,70742,1,8,0:0:0:0:
64,192,71171,1,8,0:0:0:0:
448,192,71171,1,4,0:0:0:0:
448,192,74385,128,8,74599:0:0:0:0:
64,192,74599,1,12,0:0:0:0:
192,192,74599,1,0,0:0:0:0:
320,192,74814,1,8,0:0:0:0:
448,192,75028,1,8,0:0:0:0:
64,192,75242,1,8,0:0:0:0:
448,192,75457,1,8,0:0:0:0:
320,192,75671,1,8,0:0:0:0:
64,192,75885,1,8,0:0:0:0:
192,192,76099,1,8,0:0:0:0:
448,192,76314,1,8,0:0:0:0:
64,192,76528,1,8,0:0:0:0:
320,192,76742,1,8,0:0:0:0:
448,192,76957,1,8,0:0:0:0:
64,192,77171,1,8,0:0:0:0:
192,192,77385,1,8,0:0:0:0:
320,192,77599,1,8,0:0:0:0:
448,192,77814,1,8,0:0:0:0:
192,192,78028,1,8,0:0:0:0:
320,192,78242,1,8,0:0:0:0:
64,192,78457,1,8,0:0:0:0:
320,192,78671,1,8,0:0:0:0:
448,192,78885,1,8,0:0:0:0:
192,192,79099,1,8,0:0:0:0:
64,192,79314,1,8,0:0:0:0:
320,192,79528,1,8,0:0:0:0:
448,192,79742,1,8,0:0:0:0:
64,192,79957,1,8,0:0:0:0:
192,192,80171,1,8,0:0:0:0:
320,192,80385,1,8,0:0:0:0:
448,192,80599,1,8,0:0:0:0:
64,192,80814,1,8,0:0:0:0:
448,192,81028,1,8,0:0:0:0:
64,192,81242,1,8,0:0:0:0:
448,192,81457,1,4,0:0:0:0:
192,192,81457,1,8,0:0:0:0:
320,192,81671,1,8,0:0:0:0:
192,192,81885,1,8,0:0:0:0:
448,192,82099,1,8,0:0:0:0:
64,192,82314,1,8,0:0:0:0:
192,192,82528,1,8,0:0:0:0:
448,192,82742,1,8,0:0:0:0:
320,192,82957,1,8,0:0:0:0:
64,192,83171,1,8,0:0:0:0:
320,192,83385,1,8,0:0:0:0:
192,192,83599,1,8,0:0:0:0:
448,192,83814,1,8,0:0:0:0:
64,192,84028,1,8,0:0:0:0:
192,192,84242,1,8,0:0:0:0:
320,192,84457,1,8,0:0:0:0:
448,192,84671,1,8,0:0:0:0:
64,192,84885,1,8,0:0:0:0:
192,192,85099,1,8,0:0:0:0:
448,192,85314,1,8,0:0:0:0:
320,192,85528,1,8,0:0:0:0:
64,192,85742,1,8,0:0:0:0:
192,192,85957,1,8,0:0:0:0:
448,192,86171,1,8,0:0:0:0:
320,192,86385,1,8,0:0:0:0:
64,192,86599,1,4,0:0:0:0:
192,192,86599,1,8,0:0:0:0:
448,192,88314,128,8,88742:0:0:0:0:
64,192,88314,1,4,0:0:0:0:
320,192,88742,128,8,89171:0:0:0:0:
192,192,89171,128,8,89492:0:0:0:0:
448,192,89492,128,0,89814:0:0:0:0:
64,192,89814,128,0,90028:0:0:0:0:
320,192,90028,128,8,90457:0:0:0:0:
192,192,90457,128,8,90885:0:0:0:0:
448,192,90885,128,8,91099:0:0:0:0:
64,192,91099,128,8,91314:0:0:0:0:
448,192,91314,128,8,91528:0:0:0:0:
64,192,91528,128,8,91742:0:0:0:0:
448,192,91742,128,8,92171:0:0:0:0:
320,192,92171,128,8,92599:0:0:0:0:
192,192,92599,128,8,92921:0:0:0:0:
448,192,92921,128,0,93242:0:0:0:0:
64,192,93242,128,0,93457:0:0:0:0:
448,192,93457,128,8,93885:0:0:0:0:
320,192,93885,128,8,94314:0:0:0:0:
64,192,94314,128,8,94528:0:0:0:0:
448,192,94528,128,8,94742:0:0:0:0:
64,192,94742,128,8,94957:0:0:0:0:
448,192,94957,128,8,95171:0:0:0:0:
64,192,95171,128,8,95599:0:0:0:0:
320,192,95171,1,4,0:0:0:0:
192,192,95599,128,8,96028:0:0:0:0:
448,192,96028,128,8,96349:0:0:0:0:
192,192,96349,128,0,96671:0:0:0:0:
320,192,96671,128,0,96885:0:0:0:0:
64,192,96885,128,8,97314:0:0:0:0:
192,192,97314,128,8,97742:0:0:0:0:
448,192,97742,128,8,97957:0:0:0:0:
64,192,97957,128,8,98171:0:0:0:0:
448,192,98171,128,8,98385:0:0:0:0:
64,192,98385,128,8,98599:0:0:0:0:
320,192,98599,128,8,99028:0:0:0:0:
448,192,99028,128,8,99457:0:0:0:0:
64,192,99457,128,8,99778:0:0:0:0:
448,192,99778,128,0,100099:0:0:0:0:
64,192,100099,128,0,100314:0:0:0:0:
448,192,100314,1,4,0:0:0:0:
192,192,100314,1,8,0:0:0:0:
64,192,102028,1,4,0:0:0:0:
192,192,102028,1,8,0:0:0:0:
448,192,102457,1,0,0:0:0:0:
192,192,102885,1,0,0:0:0:0:
320,192,103314,1,0,0:0:0:0:
64,192,103742,1,0,0:0:0:0:
448,192,104171,1,0,0:0:0:0:
320,192,104599,1,0,0:0:0:0:
192,192,105028,1,0,0:0:0:0:
64,192,105242,128,8,105457:0:0:0:0:
448,192,105457,1,4,0:0:0:0:
192,192,105885,1,0,0:0:0:0:
320,192,106314,1,0,0:0:0:0:
64,192,106742,1,0,0:0:0:0:
448,192,107171,1,0,0:0:0:0:
320,192,107599,1,0,0:0:0:0:
192,192,108028,1,0,0:0:0:0:
64,192,108457,1,0,0:0:0:0:
448,192,108671,128,8,108885:0:0:0:0:
192,192,108885,1,4,0:0:0:0:
64,192,109528,1,0,0:0:0:0:
448,192,109742,1,0,0:0:0:0:
192,192,110171,1,4,0:0:0:0:
320,192,110599,1,0,0:0:0:0:
64,192,111028,1,0,0:0:0:0:
192,192,111457,1,0,0:0:0:0:
448,192,111671,1,4,0:0:0:0:
320,192,111885,1,0,0:0:0:0:
64,192,112099,128,8,112314:0:0:0:0:
448,192,112314,1,4,0:0:0:0:
320,192,112742,1,0,0:0:0:0:
192,192,113171,1,4,0:0:0:0:
320,192,113599,1,0,0:0:0:0:
64,192,113814,128,8,114028:0:0:0:0:
448,192,114028,1,4,0:0:0:0:
64,192,114457,1,4,0:0:0:0:
448,192,114885,1,4,0:0:0:0:
64,192,115099,1,4,0:0:0:0:
448,192,115314,128,4,115742:0:0:0:0:
192,192,115742,1,4,0:0:0:0:
448,192,118742,128,8,119171:0:0:0:0:
192,192,119171,1,8,0:0:0:0:
64,192,119171,1,4,0:0:0:0:
448,192,119385,1,8,0:0:0:0:
192,192,119599,1,8,0:0:0:0:
320,192,119814,1,8,0:0:0:0:
64,192,120028,1,8,0:0:0:0:
192,192,120242,1,8,0:0:0:0:
448,192,120457,1,8,0:0:0:0:
320,192,120671,1,8,0:0:0:0:
64,192,120885,1,8,0:0:0:0:
320,192,121099,1,8,0:0:0:0:
64,192,121314,1,8,0:0:0:0:
192,192,121528,1,8,0:0:0:0:
448,192,121742,1,8,0:0:0:0:
192,192,121957,1,8,0:0:0:0:
448,192,122171,1,8,0:0:0:0:
320,192,122385,1,8,0:0:0:0:
64,192,122599,1,8,0:0:0:0:
192,192,122814,1,8,0:0:0:0:
448,192,123028,1,8,0:0:0:0:
64,192,123242,1,8,0:0:0:0:
320,192,123457,1,8,0:0:0:0:
64,192,123671,1,8,0:0:0:0:
448,192,123885,1,8,0:0:0:0:
320,192,124099,1,8,0:0:0:0:
64,192,124314,128,8,124528:0:0:0:0:
192,192,124528,128,8,124742:0:0:0:0:
448,192,124742,128,8,124957:0:0:0:0:
320,192,124957,128,8,125171:0:0:0:0:
64,192,125171,1,8,0:0:0:0:
192,192,125385,1,8,0:0:0:0:
320,192,125599,1,8,0:0:0:0:
448,192,125814,1,8,0:0:0:0:
64,192,126028,1,12,0:0:0:0:
320,192,126242,1,8,0:0:0:0:
64,192,126457,1,8,0:0:0:0:
192,192,126671,1,8,0:0:0:0:
448,192,126885,1,8,0:0:0:0:
192,192,127099,1,8,0:0:0:0:
448,192,127314,1,8,0:0:0:0:
320,192,127528,1,8,0:0:0:0:
64,192,127742,1,8,0:0:0:0:
192,192,127957,1,8,0:0:0:0:
448,192,128171,1,8,0:0:0:0:
192,192,128385,1,8,0:0:0:0:
448,192,128599,1,8,0:0:0:0:
64,192,128814,1,8,0:0:0:0:
320,192,129028,1,8,0:0:0:0:
448,192,129242,1,8,0:0:0:0:
64,192,129457,1,8,0:0:0:0:
192,192,129671,1,8,0:0:0:0:
448,192,129885,1,8,0:0:0:0:
320,192,130099,1,8,0:0:0:0:
64,192,130314,1,8,0:0:0:0:
320,192,130528,1,8,0:0:0:0:
64,192,130742,1,8,0:0:0:0:
192,192,130957,1,8,0:0:0:0:
448,192,131171,128,8,131385:0:0:0:0:
320,192,131385,128,8,131599:0:0:0:0:
64,192,131599,128,8,131814:0:0:0:0:
192,192,131814,128,8,132028:0:0:0:0:
320,192,132028,1,8,0:0:0:0:
448,192,132028,1,4,0:0:0:0:
64,192,132885,1,8,0:0:0:0:
448,192,132885,1,4,0:0:0:0:
192,192,133099,1,8,0:0:0:0:
320,192,133314,1,8,0:0:0:0:
448,192,133528,1,8,0:0:0:0:
64,192,133742,1,8,0:0:0:0:
192,192,133957,1,8,0:0:0:0:
448,192,134171,1,8,0:0:0:0:
320,192,134385,1,8,0:0:0:0:
192,192,134599,1,8,0:0:0:0:
64,192,134814,1,8,0:0:0:0:
320,192,135028,1,8,0:0:0:0:
448,192,135242,1,8,0:0:0:0:
64,192,135457,128,8,135671:0:0:0:0:
448,192,135671,128,8,135885:0:0:0:0:
64,192,135885,1,8,0:0:0:0:
448,192,136099,1,8,0:0:0:0:
64,192,136314,1,8,0:0:0:0:
192,192,136528,1,8,0:0:0:0:
448,192,136742,1,8,0:0:0:0:
320,192,136957,1,8,0:0:0:0:
192,192,137171,1,8,0:0:0:0:
64,192,137385,1,8,0:0:0:0:
320,192,137599,1,8,0:0:0:0:
448,192,137814,1,8,0:0:0:0:
192,192,138028,1,8,0:0:0:0:
64,192,138242,1,8,0:0:0:0:
448,192,138457,1,8,0:0:0:0:
320,192,138671,1,8,0:0:0:0:
64,192,138885,1,4,0:0:0:0:
320,192,139099,1,4,0:0:0:0:
64,192,139314,1,4,0:0:0:0:
320,192,139528,1,4,0:0:0:0:
64,192,139742,1,12,0:0:0:0:
192,192,139957,1,8,0:0:0:0:
320,192,140171,1,8,0:0:0:0:
448,192,140385,1,8,0:0:0:0:
192,192,140599,1,8,0:0:0:0:
320,192,140814,1,8,0:0:0:0:
64,192,141028,1,8,0:0:0:0:
448,192,141242,1,8,0:0:0:0:
192,192,141457,1,8,0:0:0:0:
64,192,141671,1,8,0:0:0:0:
448,192,141885,1,8,0:0:0:0:
320,192,142099,1,8,0:0:0:0:
64,192,142314,128,8,142528:0:0:0:0:
448,192,142528,128,8,142742:0:0:0:0:
64,192,142742,1,8,0:0:0:0:
448,192,142957,1,8,0:0:0:0:
64,192,143171,1,8,0:0:0:0:
192,192,143385,1,8,0:0:0:0:
448,192,143599,1,8,0:0:0:0:
320,192,143814,1,8,0:0:0:0:
64,192,144028,128,8,144885:0:0:0:0:
448,192,144885,1,4,0:0:0:0:
320,192,144885,1,8,0:0:0:0:
64,192,146599,1,12,0:0:0:0:
448,192,146599,1,0,0:0:0:0:
192,192,147028,1,8,0:0:0:0:
320,192,147457,1,8,0:0:0:0:
448,192,147885,1,8,0:0:0:0:
64,192,148314,1,8,0:0:0:0:
192,192,148742,1,8,0:0:0:0:
320,192,149171,1,8,0:0:0:0:
448,192,149599,1,8,0:0:0:0:
192,192,150028,1,8,0:0:0:0:
64,192,150457,1,8,0:0:0:0:
320,192,150885,1,8,0:0:0:0:
448,192,151314,1,8,0:0:0:0:
64,192,151742,1,8,0:0:0:0:
192,192,152171,1,8,0:0:0:0:
448,192,152599,1,8,0:0:0:0:
320,192,153028,1,8,0:0:0:0:
448,192,153457,1,4,0:0:0:0:
64,192,153457,1,12,0:0:0:0:
320,192,153885,1,8,0:0:0:0:
192,192,154314,1,8,0:0:0:0:
64,192,154742,1,8,0:0:0:0:
448,192,155171,1,8,0:0:0:0:
320,192,155599,1,8,0:0:0:0:
64,192,156028,1,8,0:0:0:0:
448,192,156457,1,8,0:0:0:0:
64,192,156885,1,4,0:0:0:0:
192,192,156885,1,8,0:0:0:0:
448,192,160099,128,8,160314:0:0:0:0:
64,192,160314,1,4,0:0:0:0:
192,192,160314,1,8,0:0:0:0:
320,192,160528,1,8,0:0:0:0:
64,192,160742,1,8,0:0:0:0:
448,192,160957,1,8,0:0:0:0:
64,192,161171,1,8,0:0:0:0:
192,192,161385,1,8,0:0:0:0:
320,192,161599,1,8,0:0:0:0:
448,192,161814,1,8,0:0:0:0:
192,192,162028,1,8,0:0:0:0:
64,192,162242,1,8,0:0:0:0:
320,192,162457,1,8,0:0:0:0:
448,192,162671,1,8,0:0:0:0:
192,192,162885,1,8,0:0:0:0:
64,192,163099,1,8,0:0:0:0:
320,192,163314,1,8,0:0:0:0:
448,192,163528,1,8,0:0:0:0:
64,192,163742,1,8,0:0:0:0:
192,192,163957,1,8,0:0:0:0:
448,192,164171,1,8,0:0:0:0:
320,192,164385,1,8,0:0:0:0:
64,192,164599,1,8,0:0:0:0:
192,192,164814,1,8,0:0:0:0:
448,192,165028,1,8,0:0:0:0:
320,192,165242,1,8,0:0:0:0:
64,192,165457,1,8,0:0:0:0:
192,192,165671,1,8,0:0:0:0:
320,192,165885,1,8,0:0:0:0:
448,192,166099,1,8,0:0:0:0:
64,192,166314,1,8,0:0:0:0:
320,192,166528,1,8,0:0:0:0:
64,192,166742,1,8,0:0:0:0:
320,192,166957,1,8,0:0:0:0:
448,192,167171,1,12,0:0:0:0:
64,192,167171,1,4,0:0:0:0:
192,192,167385,1,8,0:0:0:0:
320,192,167599,1,8,0:0:0:0:
64,192,167814,1,8,0:0:0:0:
192,192,168028,1,8,0:0:0:0:
448,192,168242,1,8,0:0:0:0:
64,192,168457,1,8,0:0:0:0:
192,192,168671,1,8,0:0:0:0:
448,192,168885,1,8,0:0:0:0:
320,192,169099,1,8,0:0:0:0:
64,192,169314,1,8,0:0:0:0:
192,192,169528,1,8,0:0:0:0:
448,192,169742,1,8,0:0:0:0:
320,192,169957,1,8,0:0:0:0:
192,192,170171,1,8,0:0:0:0:
64,192,170385,1,8,0:0:0:0:
320,192,170599,1,8,0:0:0:0:
192,192,170814,1,8,0:0:0:0:
448,192,171028,1,8,0:0:0:0:
320,192,171242,1,8,0:0:0:0:
64,192,171457,1,8,0:0:0:0:
192,192,171671,1,8,0:0:0:0:
320,192,171885,1,8,0:0:0:0:
448,192,172099,1,8,0:0:0:0:
64,192,172314,1,4,0:0:0:0:
192,192,172314,1,8,0:0:0:0:
448,192,174028,1,0,0:0:0:0:
320,192,174028,1,4,0:0:0:0:
