osu file format v14

[General]
AudioFilename: money.mp3
AudioLeadIn: 0
PreviewTime: 47180
Countdown: 0
SampleSet: Normal
StackLeniency: 0.7
Mode: 3
LetterboxInBreaks: 0
SpecialStyle: 0
WidescreenStoryboard: 1

[Editor]
DistanceSpacing: 1
BeatDivisor: 4
GridSize: 16
TimelineZoom: 2.199999

[Metadata]
Title:Big Money
TitleUnicode:Big Money
Artist:The Quick Brown Fox
ArtistUnicode:The Quick Brown Fox
Creator:Mage
Version:Nickel [NM]
Source:
Tags:Renard Lapfox Trax speedcore Halley Labs Vulpvibe [Shana Lesus]
BeatmapID:947781
BeatmapSetID:440508

[Difficulty]
HPDrainRate:7
CircleSize:4
OverallDifficulty:7.5
ApproachRate:5
SliderMultiplier:1.4
SliderTickRate:1

[Events]
//Background and Video events
0,0,"bege.jpg",0,0
//Break Periods
//Storyboard Layer 0 (Background)
//Storyboard Layer 1 (Fail)
//Storyboard Layer 2 (Pass)
//Storyboard Layer 3 (Foreground)
//Storyboard Sound Samples

[TimingPoints]
2600,214.285714285714,4,1,1,70,1,0
47171,-100,4,1,1,70,0,1
59171,-100,4,1,1,70,0,0
74599,-100,4,1,1,70,0,1
86599,-100,4,1,1,70,0,0
119171,-100,4,1,1,70,0,1
132028,-100,4,1,1,70,0,0
132885,-100,4,1,1,70,0,1
144885,-100,4,1,1,70,0,0
160314,-100,4,1,1,70,0,1
172314,-100,4,1,1,70,0,0

[HitObjects]
64,192,2600,5,0,0:0:0:0:
64,192,3028,1,0,0:0:0:0:
448,192,3457,1,0,0:0:0:0:
320,192,3671,1,0,0:0:0:0:
64,192,3885,1,0,0:0:0:0:
192,192,4099,1,0,0:0:0:0:
448,192,4528,1,0,0:0:0:0:
320,192,4742,1,0,0:0:0:0:
448,192,5171,1,0,0:0:0:0:
320,192,5385,1,0,0:0:0:0:
64,192,5599,1,0,0:0:0:0:
192,192,5814,1,0,0:0:0:0:
320,192,6028,1,0,0:0:0:0:
320,192,6457,1,0,0:0:0:0:
64,192,6885,1,0,0:0:0:0:
192,192,7099,1,0,0:0:0:0:
320,192,7314,1,0,0:0:0:0:
448,192,7528,1,0,0:0:0:0:
192,192,7957,1,0,0:0:0:0:
320,192,8171,1,0,0:0:0:0:
448,192,8599,1,0,0:0:0:0:
320,192,8814,1,0,0:0:0:0:
64,192,9028,1,0,0:0:0:0:
192,192,9242,1,0,0:0:0:0:
448,192,9457,1,0,0:0:0:0:
448,192,9885,1,0,0:0:0:0:
192,192,10314,1,0,0:0:0:0:
448,192,10528,1,0,0:0:0:0:
64,192,10742,1,0,0:0:0:0:
320,192,10957,1,0,0:0:0:0:
448,192,11385,1,0,0:0:0:0:
320,192,11599,1,0,0:0:0:0:
64,192,12028,1,0,0:0:0:0:
192,192,12242,1,0,0:0:0:0:
448,192,12457,1,0,0:0:0:0:
320,192,12671,1,0,0:0:0:0:
64,192,12885,1,0,0:0:0:0:
64,192,13314,1,0,0:0:0:0:
448,192,13742,1,0,0:0:0:0:
320,192,13957,1,0,0:0:0:0:
192,192,14171,1,0,0:0:0:0:
64,192,14385,1,0,0:0:0:0:
448,192,14814,1,0,0:0:0:0:
320,192,15028,1,0,0:0:0:0:
64,192,15457,1,0,0:0:0:0:
192,192,15671,1,0,0:0:0:0:
448,192,15885,1,0,0:0:0:0:
320,192,16099,1,0,0:0:0:0:
192,192,16314,1,0,0:0:0:0:
64,192,16314,1,8,0:0:0:0:
320,192,16742,1,0,0:0:0:0:
448,192,16742,1,8,0:0:0:0:
192,192,17171,1,0,0:0:0:0:
64,192,17385,1,0,0:0:0:0:
448,192,17385,1,8,0:0:0:0:
192,192,17599,1,0,0:0:0:0:
320,192,17599,1,8,0:0:0:0:
64,192,18028,1,8,0:0:0:0:
448,192,18028,1,0,0:0:0:0:
320,192,18457,1,8,0:0:0:0:
64,192,18457,1,0,0:0:0:0:
192,192,18778,1,0,0:0:0:0:
320,192,18885,1,0,0:0:0:0:
192,192,18992,1,0,0:0:0:0:
320,192,19099,1,8,0:0:0:0:
64,192,19314,1,0,0:0:0:0:
192,192,19314,1,8,0:0:0:0:
64,192,19742,1,0,0:0:0:0:
448,192,19742,1,8,0:0:0:0:
448,192,20171,1,0,0:0:0:0:
192,192,20171,1,8,0:0:0:0:
320,192,20599,1,0,0:0:0:0:
64,192,20814,1,8,0:0:0:0:
448,192,20814,1,0,0:0:0:0:
192,192,21028,1,8,0:0:0:0:
320,192,21028,1,0,0:0:0:0:
64,192,21457,1,0,0:0:0:0:
320,192,21457,1,8,0:0:0:0:
192,192,21885,1,8,0:0:0:0:
448,192,21885,1,0,0:0:0:0:
320,192,22207,1,0,0:0:0:0:
192,192,22314,1,0,0:0:0:0:
320,192,22421,1,0,0:0:0:0:
192,192,22528,1,8,0:0:0:0:
448,192,22742,1,0,0:0:0:0:
320,192,22742,1,8,0:0:0:0:
448,192,23171,1,8,0:0:0:0:
64,192,23171,1,0,0:0:0:0:
64,192,23599,1,8,0:0:0:0:
320,192,23599,1,0,0:0:0:0:
64,192,24028,1,0,0:0:0:0:
320,192,24242,1,0,0:0:0:0:
192,192,24242,1,8,0:0:0:0:
64,192,24457,1,8,0:0:0:0:
448,192,24457,1,0,0:0:0:0:
64,192,24885,1,0,0:0:0:0:
320,192,24885,1,8,0:0:0:0:
192,192,25314,1,8,0:0:0:0:
448,192,25314,1,0,0:0:0:0:
64,192,25635,1,0,0:0:0:0:
448,192,25742,1,0,0:0:0:0:
64,192,25849,1,0,0:0:0:0:
448,192,25957,1,8,0:0:0:0:
320,192,26171,1,0,0:0:0:0:
192,192,26171,1,8,0:0:0:0:
192,192,26599,128,8,27135:0:0:0:0:
448,192,26599,1,0,0:0:0:0:
64,192,30028,1,4,0:0:0:0:
448,192,30028,1,0,0:0:0:0:
192,192,30457,1,0,0:0:0:0:
320,192,30457,1,0,0:0:0:0:
64,192,30885,1,0,0:0:0:0:
448,192,30885,1,0,0:0:0:0:
192,192,31314,1,0,0:0:0:0:
448,192,31314,1,0,0:0:0:0:
64,192,31528,1,0,0:0:0:0:
448,192,31635,1,0,0:0:0:0:
64,192,31742,1,0,0:0:0:0:
192,192,32171,1,0,0:0:0:0:
448,192,32171,1,0,0:0:0:0:
320,192,32599,1,0,0:0:0:0:
192,192,32599,1,0,0:0:0:0:
64,192,33028,1,0,0:0:0:0:
320,192,33028,1,0,0:0:0:0:
448,192,33242,1,8,0:0:0:0:
64,192,33349,1,8,0:0:0:0:
448,192,33457,1,0,0:0:0:0:
320,192,33457,1,4,0:0:0:0:
448,192,33885,1,0,0:0:0:0:
192,192,33885,1,0,0:0:0:0:
64,192,34314,1,0,0:0:0:0:
320,192,34314,1,0,0:0:0:0:
64,192,34742,1,0,0:0:0:0:
448,192,34742,1,0,0:0:0:0:
192,192,34957,1,0,0:0:0:0:
320,192,35064,1,0,0:0:0:0:
192,192,35171,1,0,0:0:0:0:
64,192,35599,1,0,0:0:0:0:
448,192,35599,1,0,0:0:0:0:
192,192,36028,1,0,0:0:0:0:
448,192,36028,1,0,0:0:0:0:
320,192,36457,1,0,0:0:0:0:
192,192,36671,1,8,0:0:0:0:
448,192,36778,1,8,0:0:0:0:
192,192,36885,1,4,0:0:0:0:
64,192,36885,1,0,0:0:0:0:
64,192,37314,1,0,0:0:0:0:
448,192,37314,1,0,0:0:0:0:
192,192,37528,1,8,0:0:0:0:
64,192,37742,1,0,0:0:0:0:
448,192,37742,1,0,0:0:0:0:
320,192,38171,1,4,0:0:0:0:
448,192,38171,1,0,0:0:0:0:
64,192,38385,1,0,0:0:0:0:
448,192,38492,1,0,0:0:0:0:
64,192,38599,1,0,0:0:0:0:
64,192,39028,1,0,0:0:0:0:
448,192,39028,1,0,0:0:0:0:
192,192,39457,1,0,0:0:0:0:
320,192,39457,1,0,0:0:0:0:
64,192,39671,1,4,0:0:0:0:
448,192,39671,1,0,0:0:0:0:
192,192,39885,1,0,0:0:0:0:
448,192,39885,1,0,0:0:0:0:
320,192,40099,1,8,0:0:0:0:
192,192,40207,1,8,0:0:0:0:
64,192,40314,1,0,0:0:0:0:
448,192,40314,1,4,0:0:0:0:
64,192,40742,1,0,0:0:0:0:
448,192,40742,1,0,0:0:0:0:
192,192,41171,1,4,0:0:0:0:
320,192,41171,1,0,0:0:0:0:
64,192,41599,1,0,0:0:0:0:
320,192,41599,1,0,0:0:0:0:
192,192,41814,1,8,0:0:0:0:
320,192,41921,1,8,0:0:0:0:
448,192,42028,1,4,0:0:0:0:
64,192,42028,1,0,0:0:0:0:
64,192,42457,1,0,0:0:0:0:
192,192,42457,1,4,0:0:0:0:
320,192,42885,1,4,0:0:0:0:
448,192,42885,1,0,0:0:0:0:
192,192,43099,1,4,0:0:0:0:
64,192,43099,1,0,0:0:0:0:
448,192,43314,1,4,0:0:0:0:
64,192,43421,1,4,0:0:0:0:
448,192,43528,1,4,0:0:0:0:
64,192,43635,1,4,0:0:0:0:
448,192,43742,1,4,0:0:0:0:
448,192,46742,128,8,47171:0:0:0:0:
64,192,47171,1,4,0:0:0:0:
320,192,47171,1,8,0:0:0:0:
192,192,47278,1,0,0:0:0:0:
320,192,47385,1,8,0:0:0:0:
448,192,47492,1,0,0:0:0:0:
64,192,47707,1,0,0:0:0:0:
192,192,47814,1,8,0:0:0:0:
448,192,48028,1,8,0:0:0:0:
320,192,48135,1,0,0:0:0:0:
192,192,48242,1,8,0:0:0:0:
64,192,48349,1,0,0:0:0:0:
448,192,48564,1,0,0:0:0:0:
320,192,48671,1,8,0:0:0:0:
64,192,48885,1,8,0:0:0:0:
192,192,48992,1,0,0:0:0:0:
448,192,49099,1,8,0:0:0:0:
320,192,49207,1,0,0:0:0:0:
64,192,49421,1,0,0:0:0:0:
192,192,49528,1,8,0:0:0:0:
448,192,49742,1,8,0:0:0:0:
320,192,49849,1,0,0:0:0:0:
64,192,49957,1,8,0:0:0:0:
320,192,50064,1,0,0:0:0:0:
192,192,50278,1,0,0:0:0:0:
448,192,50385,1,8,0:0:0:0:
320,192,50599,1,8,0:0:0:0:
192,192,50707,1,0,0:0:0:0:
64,192,50814,1,8,0:0:0:0:
448,192,50921,1,0,0:0:0:0:
64,192,51135,1,0,0:0:0:0:
192,192,51242,1,8,0:0:0:0:
448,192,51457,1,8,0:0:0:0:
320,192,51564,1,0,0:0:0:0:
64,192,51671,1,8,0:0:0:0:
192,192,51778,1,0,0:0:0:0:
320,192,51992,1,0,0:0:0:0:
448,192,52099,1,8,0:0:0:0:
192,192,52314,1,8,0:0:0:0:
320,192,52421,1,0,0:0:0:0:
448,192,52528,1,8,0:0:0:0:
64,192,52635,1,0,0:0:0:0:
448,192,52849,1,0,0:0:0:0:
320,192,52957,1,8,0:0:0:0:
192,192,53171,1,8,0:0:0:0:
64,192,53278,1,8,0:0:0:0:
320,192,53385,1,8,0:0:0:0:
448,192,53492,1,8,0:0:0:0:
192,192,53707,1,8,0:0:0:0:
320,192,53814,1,8,0:0:0:0:
64,192,54028,1,4,0:0:0:0:
448,192,54028,1,8,0:0:0:0:
192,192,54135,1,0,0:0:0:0:
448,192,54242,1,8,0:0:0:0:
320,192,54349,1,0,0:0:0:0:
192,192,54564,1,0,0:0:0:0:
320,192,54671,1,8,0:0:0:0:
64,192,54885,1,8,0:0:0:0:
320,192,54992,1,0,0:0:0:0:
192,192,55099,1,8,0:0:0:0:
448,192,55207,1,0,0:0:0:0:
64,192,55421,1,0,0:0:0:0:
320,192,55528,1,8,0:0:0:0:
448,192,55742,1,8,0:0:0:0:
192,192,55849,1,0,0:0:0:0:
320,192,55957,1,8,0:0:0:0:
64,192,56064,1,0,0:0:0:0:
448,192,56278,1,0,0:0:0:0:
320,192,56385,1,8,0:0:0:0:
64,192,56599,1,8,0:0:0:0:
192,192,56707,1,0,0:0:0:0:
448,192,56814,1,8,0:0:0:0:
320,192,56921,1,0,0:0:0:0:
64,192,57135,1,0,0:0:0:0:
320,192,57242,1,8,0:0:0:0:
64,192,57457,1,8,0:0:0:0:
192,192,57564,1,0,0:0:0:0:
320,192,57671,1,8,0:0:0:0:
64,192,57778,1,0,0:0:0:0:
448,192,57992,1,0,0:0:0:0:
320,192,58099,1,8,0:0:0:0:
64,192,58314,1,8,0:0:0:0:
192,192,58421,1,0,0:0:0:0:
448,192,58528,1,8,0:0:0:0:
320,192,58635,1,0,0:0:0:0:
64,192,58849,1,0,0:0:0:0:
320,192,58957,1,8,0:0:0:0:
64,192,59171,1,4,0:0:0:0:
448,192,59171,1,8,0:0:0:0:
64,192,60885,1,8,0:0:0:0:
448,192,60885,1,4,0:0:0:0:
320,192,61099,1,0,0:0:0:0:
64,192,61207,1,0,0:0:0:0:
192,192,61314,1,8,0:0:0:0:
448,192,61421,1,0,0:0:0:0:
64,192,61635,1,0,0:0:0:0:
320,192,61742,1,8,0:0:0:0:
192,192,61849,1,0,0:0:0:0:
448,192,61957,1,0,0:0:0:0:
320,192,62171,1,8,0:0:0:0:
64,192,62385,1,0,0:0:0:0:
192,192,62599,1,8,0:0:0:0:
64,192,62814,1,0,0:0:0:0:
320,192,62921,1,0,0:0:0:0:
192,192,63028,1,8,0:0:0:0:
448,192,63135,1,0,0:0:0:0:
64,192,63349,1,0,0:0:0:0:
192,192,63457,1,8,0:0:0:0:
448,192,63564,1,0,0:0:0:0:
320,192,63671,1,0,0:0:0:0:
64,192,63885,1,8,0:0:0:0:
192,192,64099,1,0,0:0:0:0:
448,192,64314,1,8,0:0:0:0:
64,192,64528,1,0,0:0:0:0:
320,192,64635,1,0,0:0:0:0:
448,192,64742,1,8,0:0:0:0:
192,192,64849,1,0,0:0:0:0:
64,192,65064,1,0,0:0:0:0:
192,192,65171,1,8,0:0:0:0:
448,192,65278,1,0,0:0:0:0:
320,192,65385,1,0,0:0:0:0:
64,192,65599,1,8,0:0:0:0:
192,192,65814,1,0,0:0:0:0:
320,192,66028,1,8,0:0:0:0:
448,192,66242,1,0,0:0:0:0:
320,192,66349,1,0,0:0:0:0:
64,192,66457,1,8,0:0:0:0:
192,192,66564,1,0,0:0:0:0:
448,192,66778,1,0,0:0:0:0:
320,192,66885,1,8,0:0:0:0:
64,192,66992,1,0,0:0:0:0:
192,192,67099,1,0,0:0:0:0:
448,192,67314,1,8,0:0:0:0:
192,192,67528,1,0,0:0:0:0:
64,192,67635,1,0,0:0:0:0:
192,192,67742,1,4,0:0:0:0:
320,192,67742,1,8,0:0:0:0:
448,192,67957,1,0,0:0:0:0:
320,192,68064,1,0,0:0:0:0:
64,192,68171,1,8,0:0:0:0:
192,192,68278,1,0,0:0:0:0:
320,192,68492,1,0,0:0:0:0:
448,192,68599,1,8,0:0:0:0:
64,192,68707,1,0,0:0:0:0:
192,192,68814,1,0,0:0:0:0:
448,192,69028,1,8,0:0:0:0:
320,192,69242,1,0,0:0:0:0:
192,192,69457,1,8,0:0:0:0:
320,192,69671,1,0,0:0:0:0:
192,192,69778,1,0,0:0:0:0:
448,192,69885,1,8,0:0:0:0:
320,192,69992,1,0,0:0:0:0:
192,192,70207,1,0,0:0:0:0:
64,192,70314,1,8,0:0:0:0:
448,192,70421,1,0,0:0:0:0:
320,192,70528,1,0,0:0:0:0:
64,192,70742,1,8,0:0:0:0:
448,192,70957,1,0,0:0:0:0:
320,192,71171,1,8,0:0:0:0:
64,192,71171,1,4,0:0:0:0:
448,192,74385,128,8,74599:0:0:0:0:
64,192,74599,1,4,0:0:0:0:
320,192,74599,1,8,0:0:0:0:
192,192,74707,1,0,0:0:0:0:
320,192,74814,1,8,0:0:0:0:
448,192,74921,1,0,0:0:0:0:
64,192,75135,1,0,0:0:0:0:
192,192,75242,1,8,0:0:0:0:
448,192,75457,1,8,0:0:0:0:
320,192,75564,1,0,0:0:0:0:
192,192,75671,1,8,0:0:0:0:
448,192,75778,1,0,0:0:0:0:
192,192,75992,1,0,0:0:0:0:
64,192,76099,1,8,0:0:0:0:
320,192,76314,1,8,0:0:0:0:
448,192,76421,1,0,0:0:0:0:
192,192,76528,1,8,0:0:0:0:
64,192,76635,1,0,0:0:0:0:
448,192,76849,1,0,0:0:0:0:
320,192,76957,1,8,0:0:0:0:
64,192,77171,1,8,0:0:0:0:
192,192,77278,1,0,0:0:0:0:
448,192,77385,1,8,0:0:0:0:
320,192,77492,1,0,0:0:0:0:
192,192,77707,1,0,0:0:0:0:
320,192,77814,1,8,0:0:0:0:
64,192,78028,1,8,0:0:0:0:
192,192,78135,1,0,0:0:0:0:
320,192,78242,1,8,0:0:0:0:
64,192,78349,1,0,0:0:0:0:
448,192,78564,1,0,0:0:0:0:
320,192,78671,1,8,0:0:0:0:
192,192,78885,1,8,0:0:0:0:
320,192,78992,1,0,0:0:0:0:
448,192,79099,1,8,0:0:0:0:
192,192,79207,1,0,0:0:0:0:
64,192,79421,1,0,0:0:0:0:
192,192,79528,1,8,0:0:0:0:
320,192,79742,1,8,0:0:0:0:
448,192,79849,1,0,0:0:0:0:
64,192,79957,1,8,0:0:0:0:
192,192,80064,1,0,0:0:0:0:
448,192,80278,1,0,0:0:0:0:
320,192,80385,1,8,0:0:0:0:
64,192,80599,1,8,0:0:0:0:
192,192,80707,1,8,0:0:0:0:
320,192,80814,1,8,0:0:0:0:
448,192,80921,1,8,0:0:0:0:
64,192,81135,1,8,0:0:0:0:
320,192,81242,1,8,0:0:0:0:
448,192,81457,1,8,0:0:0:0:
64,192,81457,1,4,0:0:0:0:
320,192,81564,1,0,0:0:0:0:
192,192,81671,1,8,0:0:0:0:
448,192,81778,1,0,0:0:0:0:
64,192,81992,1,0,0:0:0:0:
192,192,82099,1,8,0:0:0:0:
320,192,82314,1,8,0:0:0:0:
448,192,82421,1,0,0:0:0:0:
192,192,82528,1,8,0:0:0:0:
64,192,82635,1,0,0:0:0:0:
320,192,82849,1,0,0:0:0:0:
192,192,82957,1,8,0:0:0:0:
448,192,83171,1,8,0:0:0:0:
320,192,83278,1,0,0:0:0:0:
192,192,83385,1,8,0:0:0:0:
64,192,83492,1,0,0:0:0:0:
448,192,83707,1,0,0:0:0:0:
320,192,83814,1,8,0:0:0:0:
64,192,84028,1,8,0:0:0:0:
192,192,84135,1,0,0:0:0:0:
448,192,84242,1,8,0:0:0:0:
320,192,84349,1,0,0:0:0:0:
192,192,84564,1,0,0:0:0:0:
320,192,84671,1,8,0:0:0:0:
64,192,84885,1,8,0:0:0:0:
192,192,84992,1,0,0:0:0:0:
320,192,85099,1,8,0:0:0:0:
448,192,85207,1,0,0:0:0:0:
320,192,85421,1,0,0:0:0:0:
192,192,85528,1,8,0:0:0:0:
64,192,85742,1,8,0:0:0:0:
192,192,85849,1,0,0:0:0:0:
448,192,85957,1,8,0:0:0:0:
320,192,86064,1,0,0:0:0:0:
64,192,86278,1,0,0:0:0:0:
320,192,86385,1,8,0:0:0:0:
64,192,86599,1,4,0:0:0:0:
448,192,86599,1,8,0:0:0:0:
64,192,88314,128,8,88742:0:0:0:0:
320,192,88314,1,4,0:0:0:0:
192,192,88742,128,0,89171:0:0:0:0:
448,192,88742,1,8,0:0:0:0:
448,192,89171,128,0,89492:0:0:0:0:
64,192,89171,1,8,0:0:0:0:
64,192,89492,128,0,89814:0:0:0:0:
192,192,89492,1,0,0:0:0:0:
320,192,89814,128,0,90028:0:0:0:0:
64,192,90028,128,0,90457:0:0:0:0:
448,192,90028,1,8,0:0:0:0:
192,192,90457,128,0,90885:0:0:0:0:
320,192,90457,1,8,0:0:0:0:
320,192,90885,128,8,91099:0:0:0:0:
448,192,91099,128,8,91314:0:0:0:0:
320,192,91314,128,8,91528:0:0:0:0:
448,192,91528,128,8,91742:0:0:0:0:
64,192,91742,128,0,92171:0:0:0:0:
192,192,91742,1,8,0:0:0:0:
192,192,92171,128,0,92599:0:0:0:0:
320,192,92171,1,8,0:0:0:0:
320,192,92599,128,0,92921:0:0:0:0:
64,192,92599,1,8,0:0:0:0:
448,192,92921,128,0,93242:0:0:0:0:
192,192,92921,1,0,0:0:0:0:
64,192,93242,128,0,93457:0:0:0:0:
320,192,93457,128,0,93885:0:0:0:0:
192,192,93457,1,8,0:0:0:0:
192,192,93885,128,0,94314:0:0:0:0:
448,192,93885,1,8,0:0:0:0:
64,192,94314,128,8,94528:0:0:0:0:
192,192,94528,128,8,94742:0:0:0:0:
64,192,94742,128,8,94957:0:0:0:0:
192,192,94957,128,8,95171:0:0:0:0:
448,192,95171,128,8,95599:0:0:0:0:
64,192,95171,1,4,0:0:0:0:
320,192,95599,128,0,96028:0:0:0:0:
192,192,95599,1,8,0:0:0:0:
192,192,96028,128,0,96349:0:0:0:0:
448,192,96028,1,8,0:0:0:0:
64,192,96349,128,0,96671:0:0:0:0:
320,192,96349,1,0,0:0:0:0:
448,192,96671,128,0,96885:0:0:0:0:
192,192,96885,128,0,97314:0:0:0:0:
320,192,96885,1,8,0:0:0:0:
320,192,97314,128,0,97742:0:0:0:0:
64,192,97314,1,8,0:0:0:0:
448,192,97742,128,8,97957:0:0:0:0:
320,192,97957,128,8,98171:0:0:0:0:
448,192,98171,128,8,98385:0:0:0:0:
320,192,98385,128,8,98599:0:0:0:0:
192,192,98599,128,0,99028:0:0:0:0:
448,192,98599,1,8,0:0:0:0:
64,192,99028,128,0,99457:0:0:0:0:
320,192,99028,1,8,0:0:0:0:
448,192,99457,128,0,99778:0:0:0:0:
192,192,99457,1,8,0:0:0:0:
320,192,99778,128,0,100099:0:0:0:0:
64,192,99778,1,0,0:0:0:0:
64,192,100099,128,0,100314:0:0:0:0:
448,192,100314,1,8,0:0:0:0:
192,192,100314,1,4,0:0:0:0:
64,192,102028,1,0,0:0:0:0:
320,192,102028,1,4,0:0:0:0:
192,192,102457,1,0,0:0:0:0:
448,192,102457,1,0,0:0:0:0:
64,192,102885,1,0,0:0:0:0:
320,192,102885,1,0,0:0:0:0:
192,192,103314,1,0,0:0:0:0:
448,192,103314,1,0,0:0:0:0:
64,192,103528,1,0,0:0:0:0:
448,192,103635,1,0,0:0:0:0:
64,192,103742,1,0,0:0:0:0:
320,192,103957,1,0,0:0:0:0:
64,192,104171,1,0,0:0:0:0:
192,192,104171,1,0,0:0:0:0:
320,192,104599,1,0,0:0:0:0:
64,192,104599,1,0,0:0:0:0:
192,192,105028,1,0,0:0:0:0:
448,192,105028,1,0,0:0:0:0:
64,192,105242,1,8,0:0:0:0:
192,192,105349,1,8,0:0:0:0:
320,192,105457,1,4,0:0:0:0:
448,192,105457,1,0,0:0:0:0:
64,192,105885,1,0,0:0:0:0:
448,192,105885,1,0,0:0:0:0:
320,192,106314,1,0,0:0:0:0:
192,192,106314,1,0,0:0:0:0:
64,192,106742,1,0,0:0:0:0:
320,192,106742,1,0,0:0:0:0:
448,192,106957,1,0,0:0:0:0:
320,192,107064,1,0,0:0:0:0:
192,192,107171,1,0,0:0:0:0:
448,192,107599,1,0,0:0:0:0:
64,192,107599,1,0,0:0:0:0:
64,192,108028,1,0,0:0:0:0:
320,192,108028,1,0,0:0:0:0:
192,192,108457,1,0,0:0:0:0:
448,192,108457,1,0,0:0:0:0:
64,192,108671,1,8,0:0:0:0:
192,192,108778,1,8,0:0:0:0:
320,192,108885,1,4,0:0:0:0:
448,192,108885,1,0,0:0:0:0:
192,192,109314,1,0,0:0:0:0:
448,192,109314,1,0,0:0:0:0:
64,192,109528,1,8,0:0:0:0:
192,192,109742,1,0,0:0:0:0:
448,192,109742,1,0,0:0:0:0:
192,192,110171,1,0,0:0:0:0:
320,192,110171,1,4,0:0:0:0:
64,192,110385,1,0,0:0:0:0:
448,192,110492,1,0,0:0:0:0:
64,192,110599,1,0,0:0:0:0:
192,192,111028,1,0,0:0:0:0:
448,192,111028,1,0,0:0:0:0:
64,192,111457,1,0,0:0:0:0:
192,192,111457,1,0,0:0:0:0:
448,192,111671,1,0,0:0:0:0:
320,192,111671,1,4,0:0:0:0:
64,192,111885,1,0,0:0:0:0:
192,192,111885,1,0,0:0:0:0:
448,192,112099,1,8,0:0:0:0:
320,192,112207,1,8,0:0:0:0:
192,192,112314,1,4,0:0:0:0:
64,192,112314,1,0,0:0:0:0:
192,192,112742,1,0,0:0:0:0:
448,192,112742,1,0,0:0:0:0:
64,192,113171,1,0,0:0:0:0:
320,192,113171,1,4,0:0:0:0:
192,192,113599,1,0,0:0:0:0:
448,192,113599,1,0,0:0:0:0:
64,192,113814,1,8,0:0:0:0:
448,192,113921,1,8,0:0:0:0:
64,192,114028,1,0,0:0:0:0:
192,192,114028,1,4,0:0:0:0:
448,192,114457,1,0,0:0:0:0:
320,192,114457,1,4,0:0:0:0:
64,192,114885,1,0,0:0:0:0:
192,192,114885,1,4,0:0:0:0:
448,192,115099,1,0,0:0:0:0:
320,192,115099,1,4,0:0:0:0:
64,192,115314,1,4,0:0:0:0:
448,192,115421,1,4,0:0:0:0:
64,192,115528,1,4,0:0:0:0:
448,192,115635,1,4,0:0:0:0:
64,192,115742,1,4,0:0:0:0:
448,192,118742,128,8,119171:0:0:0:0:
192,192,119171,1,8,0:0:0:0:
320,192,119171,1,4,0:0:0:0:
64,192,119385,1,8,0:0:0:0:
192,192,119599,1,8,0:0:0:0:
64,192,119814,1,8,0:0:0:0:
448,192,120028,1,8,0:0:0:0:
320,192,120242,1,8,0:0:0:0:
448,192,120457,1,8,0:0:0:0:
320,192,120671,1,8,0:0:0:0:
192,192,120885,1,8,0:0:0:0:
64,192,121099,1,8,0:0:0:0:
192,192,121314,1,8,0:0:0:0:
64,192,121528,1,8,0:0:0:0:
192,192,121742,1,8,0:0:0:0:
320,192,121957,1,8,0:0:0:0:
192,192,122171,1,8,0:0:0:0:
320,192,122385,1,8,0:0:0:0:
448,192,122599,1,8,0:0:0:0:
320,192,122814,1,8,0:0:0:0:
448,192,123028,1,8,0:0:0:0:
320,192,123242,1,8,0:0:0:0:
192,192,123457,1,8,0:0:0:0:
320,192,123671,1,8,0:0:0:0:
192,192,123885,1,8,0:0:0:0:
320,192,124099,1,8,0:0:0:0:
64,192,124314,128,0,124528:0:0:0:0:
448,192,124528,1,8,0:0:0:0:
64,192,124742,128,0,124957:0:0:0:0:
448,192,124957,1,8,0:0:0:0:
64,192,125171,1,8,0:0:0:0:
320,192,125385,1,8,0:0:0:0:
192,192,125599,1,8,0:0:0:0:
320,192,125814,1,8,0:0:0:0:
448,192,126028,1,8,0:0:0:0:
64,192,126028,1,4,0:0:0:0:
320,192,126242,1,8,0:0:0:0:
64,192,126457,1,8,0:0:0:0:
320,192,126671,1,8,0:0:0:0:
192,192,126885,1,8,0:0:0:0:
448,192,127099,1,8,0:0:0:0:
192,192,127314,1,8,0:0:0:0:
448,192,127528,1,8,0:0:0:0:
192,192,127742,1,8,0:0:0:0:
320,192,127957,1,8,0:0:0:0:
192,192,128171,1,8,0:0:0:0:
320,192,128385,1,8,0:0:0:0:
64,192,128599,1,8,0:0:0:0:
448,192,128814,1,8,0:0:0:0:
64,192,129028,1,8,0:0:0:0:
448,192,129242,1,8,0:0:0:0:
64,192,129457,1,8,0:0:0:0:
320,192,129671,1,8,0:0:0:0:
64,192,129885,1,8,0:0:0:0:
320,192,130099,1,8,0:0:0:0:
192,192,130314,1,8,0:0:0:0:
448,192,130528,1,8,0:0:0:0:
192,192,130742,1,8,0:0:0:0:
448,192,130957,1,8,0:0:0:0:
64,192,131171,128,0,131385:0:0:0:0:
448,192,131385,1,8,0:0:0:0:
64,192,131599,128,0,131814:0:0:0:0:
448,192,131814,1,8,0:0:0:0:
64,192,132028,1,4,0:0:0:0:
192,192,132028,1,8,0:0:0:0:
64,192,132885,1,8,0:0:0:0:
448,192,132885,1,4,0:0:0:0:
192,192,133099,1,8,0:0:0:0:
64,192,133314,1,0,0:0:0:0:
448,192,133314,1,8,0:0:0:0:
320,192,133528,1,8,0:0:0:0:
192,192,133742,1,8,0:0:0:0:
64,192,133742,1,0,0:0:0:0:
320,192,133957,1,8,0:0:0:0:
64,192,134171,1,0,0:0:0:0:
192,192,134171,1,8,0:0:0:0:
320,192,134385,1,8,0:0:0:0:
192,192,134599,1,8,0:0:0:0:
448,192,134599,1,0,0:0:0:0:
320,192,134814,1,8,0:0:0:0:
192,192,135028,1,8,0:0:0:0:
448,192,135028,1,0,0:0:0:0:
320,192,135242,1,8,0:0:0:0:
64,192,135457,1,0,0:0:0:0:
448,192,135457,1,8,0:0:0:0:
192,192,135671,1,8,0:0:0:0:
64,192,135885,1,8,0:0:0:0:
448,192,135885,1,0,0:0:0:0:
320,192,136099,1,8,0:0:0:0:
64,192,136314,1,0,0:0:0:0:
192,192,136314,1,8,0:0:0:0:
320,192,136528,1,8,0:0:0:0:
64,192,136742,1,0,0:0:0:0:
192,192,136742,1,8,0:0:0:0:
320,192,136957,1,8,0:0:0:0:
64,192,137171,1,8,0:0:0:0:
448,192,137171,1,0,0:0:0:0:
192,192,137385,1,8,0:0:0:0:
448,192,137599,1,8,0:0:0:0:
64,192,137599,1,0,0:0:0:0:
320,192,137814,1,8,0:0:0:0:
192,192,138028,1,8,0:0:0:0:
448,192,138028,1,0,0:0:0:0:
320,192,138242,1,8,0:0:0:0:
192,192,138457,1,8,0:0:0:0:
448,192,138457,1,0,0:0:0:0:
320,192,138671,1,8,0:0:0:0:
64,192,138885,1,8,0:0:0:0:
192,192,138885,1,4,0:0:0:0:
320,192,139099,1,4,0:0:0:0:
448,192,139099,1,8,0:0:0:0:
64,192,139314,1,8,0:0:0:0:
192,192,139314,1,4,0:0:0:0:
448,192,139528,1,8,0:0:0:0:
320,192,139528,1,4,0:0:0:0:
448,192,139742,1,8,0:0:0:0:
64,192,139742,1,4,0:0:0:0:
192,192,139849,1,0,0:0:0:0:
320,192,139957,1,8,0:0:0:0:
448,192,140064,1,0,0:0:0:0:
192,192,140171,1,8,0:0:0:0:
320,192,140278,1,0,0:0:0:0:
64,192,140385,1,8,0:0:0:0:
448,192,140492,1,0,0:0:0:0:
192,192,140599,1,8,0:0:0:0:
64,192,140707,1,0,0:0:0:0:
320,192,140814,1,8,0:0:0:0:
448,192,140921,1,0,0:0:0:0:
64,192,141028,1,8,0:0:0:0:
320,192,141135,1,0,0:0:0:0:
192,192,141242,1,8,0:0:0:0:
448,192,141349,1,0,0:0:0:0:
64,192,141457,1,8,0:0:0:0:
192,192,141564,1,0,0:0:0:0:
448,192,141671,1,8,0:0:0:0:
320,192,141778,1,0,0:0:0:0:
64,192,141885,1,8,0:0:0:0:
320,192,141992,1,0,0:0:0:0:
192,192,142099,1,8,0:0:0:0:
448,192,142207,1,0,0:0:0:0:
64,192,142314,1,8,0:0:0:0:
192,192,142421,1,0,0:0:0:0:
320,192,142528,1,8,0:0:0:0:
448,192,142635,1,0,0:0:0:0:
64,192,142742,1,8,0:0:0:0:
320,192,142849,1,0,0:0:0:0:
192,192,142957,1,8,0:0:0:0:
448,192,143064,1,0,0:0:0:0:
64,192,143171,1,8,0:0:0:0:
192,192,143278,1,0,0:0:0:0:
448,192,143385,1,8,0:0:0:0:
320,192,143492,1,0,0:0:0:0:
192,192,143599,1,8,0:0:0:0:
64,192,143707,1,0,0:0:0:0:
320,192,143814,1,8,0:0:0:0:
192,192,143921,1,0,0:0:0:0:
64,192,144028,128,8,144885:0:0:0:0:
448,192,144028,1,8,0:0:0:0:
320,192,144242,1,8,0:0:0:0:
192,192,144457,1,8,0:0:0:0:
320,192,144671,1,8,0:0:0:0:
192,192,144885,1,4,0:0:0:0:
448,192,144885,1,8,0:0:0:0:
448,192,146599,1,4,0:0:0:0:
320,192,146599,1,8,0:0:0:0:
64,192,146814,1,0,0:0:0:0:
192,192,146921,1,0,0:0:0:0:
448,192,147028,1,8,0:0:0:0:
320,192,147135,1,0,0:0:0:0:
64,192,147349,1,0,0:0:0:0:
192,192,147457,1,8,0:0:0:0:
448,192,147564,1,0,0:0:0:0:
320,192,147671,1,0,0:0:0:0:
64,192,147885,1,8,0:0:0:0:
192,192,148099,1,0,0:0:0:0:
320,192,148314,1,8,0:0:0:0:
448,192,148528,1,0,0:0:0:0:
192,192,148635,1,0,0:0:0:0:
320,192,148742,1,8,0:0:0:0:
64,192,148849,1,0,0:0:0:0:
448,192,149064,1,0,0:0:0:0:
320,192,149171,1,8,0:0:0:0:
64,192,149278,1,0,0:0:0:0:
192,192,149385,1,0,0:0:0:0:
448,192,149599,1,8,0:0:0:0:
64,192,149814,1,0,0:0:0:0:
192,192,150028,1,8,0:0:0:0:
448,192,150242,1,0,0:0:0:0:
192,192,150349,1,0,0:0:0:0:
320,192,150457,1,8,0:0:0:0:
64,192,150564,1,0,0:0:0:0:
448,192,150778,1,0,0:0:0:0:
320,192,150885,1,8,0:0:0:0:
64,192,150992,1,0,0:0:0:0:
192,192,151099,1,0,0:0:0:0:
64,192,151314,1,8,0:0:0:0:
192,192,151528,1,0,0:0:0:0:
320,192,151742,1,8,0:0:0:0:
448,192,151957,1,0,0:0:0:0:
320,192,152064,1,0,0:0:0:0:
64,192,152171,1,8,0:0:0:0:
320,192,152278,1,0,0:0:0:0:
448,192,152492,1,0,0:0:0:0:
320,192,152599,1,8,0:0:0:0:
64,192,152707,1,0,0:0:0:0:
192,192,152814,1,0,0:0:0:0:
448,192,153028,1,8,0:0:0:0:
64,192,153242,1,0,0:0:0:0:
448,192,153457,1,8,0:0:0:0:
192,192,153457,1,4,0:0:0:0:
64,192,153671,1,0,0:0:0:0:
192,192,153778,1,0,0:0:0:0:
448,192,153885,1,8,0:0:0:0:
320,192,153992,1,0,0:0:0:0:
192,192,154207,1,0,0:0:0:0:
448,192,154314,1,8,0:0:0:0:
64,192,154421,1,0,0:0:0:0:
192,192,154528,1,0,0:0:0:0:
448,192,154742,1,8,0:0:0:0:
320,192,154957,1,0,0:0:0:0:
192,192,155171,1,8,0:0:0:0:
64,192,155385,1,0,0:0:0:0:
320,192,155492,1,0,0:0:0:0:
192,192,155599,1,8,0:0:0:0:
448,192,155707,1,0,0:0:0:0:
192,192,155921,1,0,0:0:0:0:
448,192,156028,1,8,0:0:0:0:
320,192,156135,1,0,0:0:0:0:
64,192,156242,1,0,0:0:0:0:
192,192,156457,1,8,0:0:0:0:
320,192,156671,1,0,0:0:0:0:
64,192,156885,1,4,0:0:0:0:
448,192,156885,1,8,0:0:0:0:
448,192,160099,128,8,160314:0:0:0:0:
64,192,160314,1,4,0:0:0:0:
320,192,160314,1,8,0:0:0:0:
192,192,160421,1,0,0:0:0:0:
320,192,160528,1,8,0:0:0:0:
448,192,160635,1,0,0:0:0:0:
64,192,160849,1,0,0:0:0:0:
192,192,160957,1,8,0:0:0:0:
448,192,161171,1,8,0:0:0:0:
320,192,161278,1,0,0:0:0:0:
192,192,161385,1,8,0:0:0:0:
448,192,161492,1,0,0:0:0:0:
64,192,161707,1,0,0:0:0:0:
192,192,161814,1,8,0:0:0:0:
448,192,162028,1,8,0:0:0:0:
320,192,162135,1,0,0:0:0:0:
64,192,162242,1,8,0:0:0:0:
192,192,162349,1,0,0:0:0:0:
448,192,162564,1,0,0:0:0:0:
320,192,162671,1,8,0:0:0:0:
192,192,162885,1,8,0:0:0:0:
64,192,162992,1,0,0:0:0:0:
320,192,163099,1,8,0:0:0:0:
448,192,163207,1,0,0:0:0:0:
64,192,163421,1,0,0:0:0:0:
192,192,163528,1,8,0:0:0:0:
448,192,163742,1,8,0:0:0:0:
320,192,163849,1,0,0:0:0:0:
192,192,163957,1,8,0:0:0:0:
448,192,164064,1,0,0:0:0:0:
64,192,164278,1,0,0:0:0:0:
320,192,164385,1,8,0:0:0:0:
192,192,164599,1,8,0:0:0:0:
320,192,164707,1,0,0:0:0:0:
448,192,164814,1,8,0:0:0:0:
64,192,164921,1,0,0:0:0:0:
320,192,165135,1,0,0:0:0:0:
192,192,165242,1,8,0:0:0:0:
448,192,165457,1,8,0:0:0:0:
320,192,165564,1,0,0:0:0:0:
192,192,165671,1,8,0:0:0:0:
64,192,165778,1,0,0:0:0:0:
448,192,165992,1,0,0:0:0:0:
320,192,166099,1,8,0:0:0:0:
64,192,166314,1,8,0:0:0:0:
192,192,166421,1,8,0:0:0:0:
320,192,166528,1,8,0:0:0:0:
64,192,166635,1,8,0:0:0:0:
448,192,166849,1,8,0:0:0:0:
320,192,166957,1,8,0:0:0:0:
448,192,167171,1,8,0:0:0:0:
64,192,167171,1,4,0:0:0:0:
192,192,167278,1,0,0:0:0:0:
320,192,167385,1,8,0:0:0:0:
64,192,167492,1,0,0:0:0:0:
192,192,167707,1,0,0:0:0:0:
320,192,167814,1,8,0:0:0:0:
64,192,168028,1,8,0:0:0:0:
320,192,168135,1,0,0:0:0:0:
192,192,168242,1,8,0:0:0:0:
448,192,168349,1,0,0:0:0:0:
320,192,168564,1,0,0:0:0:0:
192,192,168671,1,8,0:0:0:0:
448,192,168885,1,8,0:0:0:0:
320,192,168992,1,0,0:0:0:0:
192,192,169099,1,8,0:0:0:0:
448,192,169207,1,0,0:0:0:0:
192,192,169421,1,0,0:0:0:0:
64,192,169528,1,8,0:0:0:0:
320,192,169742,1,8,0:0:0:0:
448,192,169849,1,0,0:0:0:0:
192,192,169957,1,8,0:0:0:0:
64,192,170064,1,0,0:0:0:0:
320,192,170278,1,0,0:0:0:0:
192,192,170385,1,8,0:0:0:0:
64,192,170599,1,8,0:0:0:0:
192,192,170707,1,0,0:0:0:0:
320,192,170814,1,8,0:0:0:0:
448,192,170921,1,0,0:0:0:0:
192,192,171135,1,0,0:0:0:0:
320,192,171242,1,8,0:0:0:0:
448,192,171457,1,8,0:0:0:0:
320,192,171564,1,0,0:0:0:0:
192,192,171671,1,8,0:0:0:0:
64,192,171778,1,0,0:0:0:0:
320,192,171992,1,0,0:0:0:0:
192,192,172099,1,8,0:0:0:0:
64,192,172314,1,4,0:0:0:0:
448,192,172314,1,0,0:0:0:0:
64,192,174028,1,0,0:0:0:0:
448,192,174028,1,4,0:0:0:0:
