osu file format v14

[General]
AudioFilename: 12. The Quick Brown Fox - Big Money.mp3
AudioLeadIn: 0
PreviewTime: -1
Countdown: 1
SampleSet: None
StackLeniency: 0.7
Mode: 0
LetterboxInBreaks: 1
WidescreenStoryboard: 0

[Editor]
Bookmarks: 13695,37029,44527,56525,58239,68523,71951,80745,83949,85663,97673,99387,113102,116530,129387,130245,142245,143959,154265,157693,169693,171300
DistanceSpacing: 1.2
BeatDivisor: 4
GridSize: 4
TimelineZoom: 1

[Metadata]
Title:Big Money
TitleUnicode:Big Money
Artist:The Quick Brown Fox
ArtistUnicode:The Quick Brown Fox
Creator:Blue Dragon
Version:Extreme
Source:
Tags:
BeatmapID:660594
BeatmapSetID:293705

[Difficulty]
HPDrainRate:6
CircleSize:4
OverallDifficulty:8
ApproachRate:9
SliderMultiplier:2
SliderTickRate:1

[Events]
//Background and Video events
0,0,"77377-1024x768.jpg",0,0
//Break Periods
2,24697,26808
2,41321,43522
2,56750,57665
2,68750,85093
2,97893,98808
2,113322,143379
2,155804,169093
//Storyboard Layer 0 (Background)
//Storyboard Layer 1 (Fail)
//Storyboard Layer 2 (Pass)
//Storyboard Layer 3 (Foreground)
//Storyboard Sound Samples

[TimingPoints]
-16,214.094558429973,4,1,0,100,1,0
13686,-100,4,1,0,100,0,0
13695,-200,4,3,0,100,0,0
23962,-200,4,1,0,100,0,0
24497,-200,4,2,0,5,0,0
27408,214.285714285714,4,2,0,100,1,0
27408,-200,4,2,0,100,0,0
44122,-133.333333333333,4,2,0,100,0,0
58245,-200,4,2,0,100,0,0
71959,-133.333333333333,4,2,0,100,0,0
85673,-200,4,2,0,100,0,0
116530,-133.333333333333,4,2,0,100,0,0
141387,-133.333333333333,4,2,0,20,0,0
141602,-133.333333333333,4,2,0,40,0,0
141816,-133.333333333333,4,2,0,60,0,0
142030,-133.333333333333,4,2,0,80,0,0
143979,-200,4,2,0,80,0,0
157693,-133.333333333333,4,2,0,80,0,0
169800,-133.333333333333,4,2,0,5,0,0
171407,-133.333333333333,4,2,0,80,0,0

[Colours]
Combo1 : 254,198,80
Combo2 : 217,163,0
Combo3 : 192,192,192
Combo4 : 164,120,19

[HitObjects]
60,72,13686,1,0,0:0:0:0:
136,104,13900,1,0,0:0:0:0:
212,72,14114,1,8,0:0:0:0:
448,296,14542,5,8,0:0:0:0:
356,334,14756,1,0,0:0:0:0:
291,258,14970,1,2,0:0:0:0:
343,174,15184,2,0,P|400:152|384:32,1,200,8|0,0:0|0:0,0:0:0:0:
328,88,15826,5,8,0:0:0:0:
260,24,16041,1,0,0:0:0:0:
248,60,16148,1,8,0:0:0:0:
236,96,16255,1,0,0:0:0:0:
168,36,16469,1,0,0:0:0:0:
120,128,16683,1,8,0:0:0:0:
24,76,16897,1,0,0:0:0:0:
60,336,17111,5,2,0:0:0:0:
456,268,17539,1,8,0:0:0:0:
60,196,17967,1,2,0:0:0:0:
116,139,18182,1,0,0:0:0:0:
116,245,18396,1,8,0:0:0:0:
172,192,18610,2,0,P|258:129|226:58,1,200,8|0,0:0|0:0,0:0:0:0:
184,120,19252,5,2,0:0:0:0:
328,120,19466,1,0,0:0:0:0:
340,136,19573,1,0,0:0:0:0:
352,152,19680,1,0,0:0:0:0:
364,168,19787,1,0,0:0:0:0:
376,184,19894,1,0,0:0:0:0:
136,200,20108,1,2,0:0:0:0:
268,352,20322,1,0,0:0:0:0:
184,120,20537,6,0,P|108:108|44:204,1,200,8|2,0:0|0:0,0:0:0:0:
132,332,21179,1,0,0:0:0:0:
304,192,21393,1,8,0:0:0:0:
380,332,21607,1,0,0:0:0:0:
208,192,21821,1,2,0:0:0:0:
256,40,22035,6,0,P|352:68|448:40,1,200,8|0,0:0|0:0,0:0:0:0:
392,192,22678,1,2,0:0:0:0:
256,276,22892,1,0,0:0:0:0:
236,280,22999,1,0,0:0:0:0:
216,284,23106,1,4,0:0:0:0:
196,288,23213,1,0,0:0:0:0:
176,292,23320,6,0,P|136:308|104:356,2,100,0|2|0,0:0|0:0|0:0,0:0:0:0:
184,376,23962,6,4,B|187:384|187:384|192:372|192:372|196:381|196:381|201:368|201:368|205:377|205:377|212:369|212:369|216:378|216:378|221:365|221:365|225:374|225:374|230:361|230:361|234:370|234:370|241:362|241:362|245:371|245:371|250:358|250:358|254:367|254:367|259:354|259:354|262:363|262:363|323:369,1,250,4|0,0:0|0:0,0:0:0:0:
256,32,27408,5,8,0:0:0:0:
312,88,27622,1,8,0:0:0:0:
368,31,27836,1,8,0:0:0:0:
424,87,28050,1,8,0:0:0:0:
480,143,28265,6,8,L|480:243,1,100
423,299,28693,1,8,0:0:0:0:
348,268,28907,1,8,0:0:0:0:
328,272,29015,1,8,0:0:0:0:
308,276,29122,1,8,0:0:0:0:
272,348,29336,1,8,0:0:0:0:
212,296,29550,1,8,0:0:0:0:
172,364,29765,1,8,0:0:0:0:
112,312,29979,6,8,L|88:208,1,100
8,60,30407,2,8,L|32:164,1,100
52,152,30729,1,8,0:0:0:0:
72,148,30836,1,12,0:0:0:0:
108,76,31050,5,8,0:0:0:0:
180,44,31265,1,8,0:0:0:0:
260,40,31479,1,8,0:0:0:0:
336,56,31693,1,8,0:0:0:0:
404,96,31907,1,8,0:0:0:0:
452,160,32122,1,8,0:0:0:0:
472,236,32336,1,8,0:0:0:0:
452,232,32443,1,8,0:0:0:0:
432,228,32550,1,8,0:0:0:0:
420,308,32765,5,8,0:0:0:0:
361,362,32979,1,8,0:0:0:0:
289,389,33193,1,8,0:0:0:0:
209,387,33407,1,8,0:0:0:0:
140,356,33622,1,8,0:0:0:0:
85,297,33836,1,8,0:0:0:0:
58,225,34050,1,8,0:0:0:0:
48,184,34157,1,8,0:0:0:0:
60,145,34265,5,4,0:0:0:0:
451,238,34907,1,8,0:0:0:0:
60,145,35550,5,4,0:0:0:0:
60,145,37050,5,4,0:0:0:0:
451,238,37479,5,0,0:0:0:0:
451,238,37586,1,0,0:0:0:0:
451,238,37693,1,4,0:0:0:0:
60,145,38550,5,4,0:0:0:0:
451,238,39407,5,4,0:0:0:0:
60,145,39836,5,4,0:0:0:0:
60,145,40265,5,4,0:0:0:0:
451,238,40479,5,4,0:0:0:0:
60,145,40693,5,4,0:0:0:0:
167,197,40800,1,0,0:0:0:0:
273,145,40907,2,4,L|274:91,2,50
40,212,44122,6,0,L|72:240,7,37.5000014305115
100,260,44550,6,0,P|148:276|176:272,1,75.0000028610231,2|0,0:0|0:0,0:0:0:0:
232,152,44765,2,0,P|184:136|156:140,1,75.0000028610231,2|0,0:0|0:0,0:0:0:0:
76,116,44979,1,0,0:0:0:0:
132,44,45086,1,2,0:0:0:0:
194,228,45193,2,0,B|267:254|267:201|340:228,1,150.000005722046,2|0,0:0|0:0,0:0:0:0:
404,292,45515,1,2,0:0:0:0:
352,368,45622,1,0,0:0:0:0:
264,344,45729,2,0,P|224:336|192:344,2,75.0000028610231
352,368,46050,6,0,P|328:296|352:228,1,150.000005722046,2|0,0:0|0:0,0:0:0:0:
436,192,46372,1,2,0:0:0:0:
500,256,46479,2,0,P|508:296|500:336,1,75.0000028610231,0|2,0:0|0:0,0:0:0:0:
436,192,46693,2,0,P|428:152|436:112,1,75.0000028610231,0|2,0:0|0:0,0:0:0:0:
504,64,46907,2,0,L|352:24,1,150.000005722046,0|2,0:0|0:0,0:0:0:0:
268,28,47229,5,0,0:0:0:0:
188,68,47336,2,0,P|164:96|160:144,1,75.0000028610231
272,228,47550,1,0,0:0:0:0:
136,280,47657,1,2,0:0:0:0:
158,133,47765,2,0,B|200:112|240:132|240:132|304:96,1,150.000005722046
428,32,48086,5,2,0:0:0:0:
404,160,48193,2,2,P|404:204|420:236,1,75.0000028610231
380,344,48407,1,0,0:0:0:0:
380,344,48515,1,2,0:0:0:0:
484,168,48622,2,0,L|344:80,1,150.000005722046
288,28,48943,5,2,0:0:0:0:
232,144,49050,1,0,0:0:0:0:
112,100,49157,1,2,0:0:0:0:
60,224,49265,2,0,P|56:264|68:300,1,75.0000028610231,0|2,0:0|0:0,0:0:0:0:
160,352,49479,2,0,B|212:356|212:356|252:328|252:328|304:332,1,150.000005722046
412,176,49800,5,2,0:0:0:0:
472,336,49907,1,2,0:0:0:0:
316,232,50015,2,0,P|280:220|240:220,2,75.0000028610231,0|2|0,0:0|0:0|0:0,0:0:0:0:
480,228,50336,2,0,B|508:192|496:144|484:128|484:128|496:80,1,150.000005722046,2|0,0:0|0:0,0:0:0:0:
428,24,50657,1,0,0:0:0:0:
328,120,50765,5,8,0:0:0:0:
328,120,50818,1,0,0:0:0:0:
328,120,50872,1,8,0:0:0:0:
328,120,50925,1,8,0:0:0:0:
328,120,50979,2,0,P|292:152|260:160,1,75.0000028610231,8|0,0:0|0:0,0:0:0:0:
168,292,51193,2,0,P|132:260|100:252,1,75.0000028610231,2|0,0:0|0:0,0:0:0:0:
96,340,51407,5,4,0:0:0:0:
248,252,51515,1,0,0:0:0:0:
112,168,51622,2,0,P|104:128|108:88,1,75.0000028610231,2|0,0:0|0:0,0:0:0:0:
240,12,51836,2,0,P|248:52|244:92,1,75.0000028610231,0|2,0:0|0:0,0:0:0:0:
308,204,52050,2,0,B|296:248|296:248|316:300|316:300|300:348,1,150.000005722046
216,296,52372,1,2,0:0:0:0:
388,248,52479,2,0,P|399:211|392:168,1,75.0000028610231,0|2,0:0|0:0,0:0:0:0:
224,100,52693,2,0,P|213:137|220:180,2,75.0000028610231,0|2|0,0:0|0:0|0:0,0:0:0:0:
324,48,53015,1,0,0:0:0:0:
444,92,53122,5,0,0:0:0:0:
388,248,53229,1,2,0:0:0:0:
348,120,53336,2,2,P|300:120|272:104,1,75.0000028610231,2|2,0:0|0:0,0:0:0:0:
460,228,53550,2,0,P|460:276|444:304,1,75.0000028610231,0|2,0:0|0:0,0:0:0:0:
352,352,53765,2,0,B|279:378|279:325|206:352,1,150.000005722046,2|0,0:0|0:0,0:0:0:0:
72,376,54086,1,0,0:0:0:0:
112,264,54193,2,0,P|112:224|100:184,1,75.0000028610231,0|2,0:0|0:0,0:0:0:0:
212,48,54407,2,0,P|212:88|224:128,2,75.0000028610231,0|2|0,0:0|0:0|0:0,0:0:0:0:
316,20,54729,1,0,0:0:0:0:
432,60,54836,6,0,L|484:128,1,75.0000028610231,2|0,0:0|0:0,0:0:0:0:
384,236,55050,2,0,L|436:304,1,75.0000028610231,2|0,0:0|0:0,0:0:0:0:
504,244,55265,1,0,0:0:0:0:
324,304,55372,1,2,0:0:0:0:
352,116,55479,2,0,P|328:68|280:32,1,112.500004291535,2|0,0:0|0:0,0:0:0:0:
240,52,55693,6,0,P|200:64|160:60,1,75.0000028610231,0|2,0:0|0:0,0:0:0:0:
8,188,55907,2,0,P|48:200|88:196,1,75.0000028610231,0|2,0:0|0:0,0:0:0:0:
168,320,56122,1,0,0:0:0:0:
252,192,56229,1,0,0:0:0:0:
404,168,56336,2,0,L|500:160,1,75.0000028610231,2|0,0:0|0:0,0:0:0:0:
240,52,56550,5,4,0:0:0:0:
300,320,58265,6,4,P|345:337|390:320,1,100,4|0,0:0|0:0,0:0:0:0:
212,280,58586,2,4,P|166:262|121:280,1,100,8|0,0:0|0:0,0:0:0:0:
168,332,58907,1,0,0:0:0:0:
72,224,59015,2,0,L|56:172,1,50,0|2,0:0|0:0,0:0:0:0:
104,64,59229,2,0,L|120:116,1,50,0|2,0:0|0:0,0:0:0:0:
188,168,59443,1,0,0:0:0:0:
276,148,59550,2,0,B|324:128|324:168|372:148,1,100,2|0,0:0|0:0,0:0:0:0:
432,80,59872,1,0,0:0:0:0:
460,164,59979,6,0,P|452:220|472:256,1,100,2|0,0:0|0:0,0:0:0:0:
392,368,60300,2,0,P|400:312|380:276,1,100,2|0,0:0|0:0,0:0:0:0:
296,240,60622,1,0,0:0:0:0:
236,308,60729,2,2,L|132:324,1,100,2|0,0:0|0:0,0:0:0:0:
80,252,61050,1,2,0:0:0:0:
132,180,61157,1,0,0:0:0:0:
48,144,61265,1,2,0:0:0:0:
100,72,61372,1,0,0:0:0:0:
100,72,61479,1,0,0:0:0:0:
412,72,61693,6,0,P|400:128|368:156,1,100,2|0,0:0|0:0,0:0:0:0:
412,312,62015,2,0,P|400:256|369:228,1,100,2|0,0:0|0:0,0:0:0:0:
288,192,62336,1,0,0:0:0:0:
256,108,62443,1,2,0:0:0:0:
256,276,62657,1,0,0:0:0:0:
256,276,62765,6,0,P|204:272|152:296,2,100,2|2|0,0:0|0:0|0:0,0:0:0:0:
292,360,63300,1,0,0:0:0:0:
144,208,63407,6,2,P|100:225|48:221,1,100,2|0,0:0|0:0,0:0:0:0:
84,136,63729,2,0,P|66:92|70:40,1,100,2|0,0:0|0:0,0:0:0:0:
428,136,64157,2,0,P|445:92|441:40,1,100,2|0,0:0|0:0,0:0:0:0:
368,208,64479,2,2,P|411:225|463:221,2,100,0|2|0,0:0|0:0|0:0,0:0:0:0:
304,144,65015,1,0,0:0:0:0:
256,68,65122,5,4,0:0:0:0:
400,328,65336,1,0,0:0:0:0:
400,328,65443,1,2,0:0:0:0:
112,328,65657,1,0,0:0:0:0:
256,192,65872,2,0,L|256:292,1,100
172,256,66193,1,2,0:0:0:0:
340,256,66407,1,2,0:0:0:0:
256,376,66622,1,0,0:0:0:0:
212,40,66836,6,0,P|256:20|300:40,1,100,2|0,0:0|0:0,0:0:0:0:
300,130,67157,2,0,P|256:150|212:130,1,100,2|0,0:0|0:0,0:0:0:0:
340,256,67586,2,2,L|320:356,1,100,2|0,0:0|0:0,0:0:0:0:
191,354,67907,2,2,L|172:256,2,100,2|2|0,0:0|0:0|0:0,0:0:0:0:
256,184,68550,5,4,0:0:0:0:
304,328,85693,6,0,L|408:312,1,100,4|0,0:0|0:0,0:0:0:0:
472,356,86015,1,0,0:0:0:0:
492,280,86122,1,8,0:0:0:0:
368,32,86336,1,0,0:0:0:0:
116,48,86550,1,2,0:0:0:0:
42,64,86658,1,0,0:0:0:0:
36,139,86765,1,0,0:0:0:0:
105,168,86872,1,0,0:0:0:0:
154,112,86979,6,8,L|260:92,1,100,8|0,0:0|0:0,0:0:0:0:
352,192,87300,1,0,0:0:0:0:
352,192,87408,6,8,L|246:172,1,100,2|0,0:0|0:0,0:0:0:0:
372,272,87729,1,0,0:0:0:0:
372,272,87836,6,8,L|266:252,1,100,2|0,0:0|0:0,0:0:0:0:
396,352,88158,1,0,0:0:0:0:
396,352,88265,6,8,L|290:332,1,100,2|0,0:0|0:0,0:0:0:0:
212,308,88586,1,0,0:0:0:0:
132,352,88693,2,0,P|104:356|80:352,1,50,2|0,0:0|0:0,0:0:0:0:
48,264,88908,2,0,P|76:260|100:264,1,50,2|0,0:0|0:0,0:0:0:0:
156,192,89122,6,4,P|152:144|120:104,1,100,4|0,0:0|0:0,0:0:0:0:
180,36,89443,1,0,0:0:0:0:
236,108,89550,2,0,L|288:132,1,50,8|0,0:0|0:0,0:0:0:0:
328,64,89765,2,0,L|380:88,1,50,0|8,0:0|0:0,0:0:0:0:
440,144,89979,2,0,P|440:192|480:232,1,100,2|0,0:0|0:0,0:0:0:0:
428,364,90300,1,0,0:0:0:0:
428,364,90408,2,0,P|428:316|388:276,1,100,2|0,0:0|0:0,0:0:0:0:
344,352,90729,1,0,0:0:0:0:
272,300,90836,6,4,L|172:316,1,100,4|0,0:0|0:0,0:0:0:0:
240,84,91265,2,4,L|340:68,1,100,4|0,0:0|0:0,0:0:0:0:
416,116,91586,1,0,0:0:0:0:
464,192,91693,2,0,L|488:236,1,50,2|0,0:0|0:0,0:0:0:0:
384,224,91908,2,0,L|360:180,1,50,2|0,0:0|0:0,0:0:0:0:
304,260,92122,2,0,L|328:304,1,50,2|0,0:0|0:0,0:0:0:0:
228,292,92336,2,0,L|204:248,1,50,2|0,0:0|0:0,0:0:0:0:
176,348,92550,6,4,P|134:318|84:315,1,100,4|0,0:0|0:0,0:0:0:0:
8,364,92872,1,0,0:0:0:0:
20,276,92979,1,8,0:0:0:0:
8,188,93086,1,0,0:0:0:0:
20,100,93193,1,0,0:0:0:0:
8,12,93300,1,0,0:0:0:0:
92,44,93408,6,2,P|168:76|232:56,1,150,2|0,0:0|0:0,0:0:0:0:
364,168,93836,2,2,P|288:136|224:156,1,150,2|0,0:0|0:0,0:0:0:0:
144,192,94265,2,2,L|96:280,1,100,2|0,0:0|0:0,0:0:0:0:
208,260,94586,1,0,0:0:0:0:
208,260,94693,2,2,L|198:359,1,100,2|0,0:0|0:0,0:0:0:0:
312,360,95015,1,0,0:0:0:0:
313,359,95122,2,2,L|304:260,1,100,2|0,0:0|0:0,0:0:0:0:
368,192,95443,1,0,0:0:0:0:
368,192,95550,2,2,L|416:280,2,100,2|0|4,0:0|0:0|0:0,0:0:0:0:
312,24,96193,6,0,L|356:56,1,50,2|0,0:0|0:0,0:0:0:0:
256,68,96408,2,0,L|256:124,1,50,8|0,0:0|0:0,0:0:0:0:
200,24,96622,2,0,L|156:56,1,50,2|0,0:0|0:0,0:0:0:0:
256,68,96836,6,0,B|239:116|272:116|256:164,1,100,4|0,0:0|0:0,0:0:0:0:
256,256,97158,1,0,0:0:0:0:
180,208,97265,1,8,0:0:0:0:
332,208,97479,1,0,0:0:0:0:
256,372,97693,1,4,0:0:0:0:
452,92,99408,5,12,0:0:0:0:
492,160,99622,1,8,0:0:0:0:
492,240,99836,1,8,0:0:0:0:
452,308,100050,1,8,0:0:0:0:
384,348,100265,1,8,0:0:0:0:
305,348,100479,1,8,0:0:0:0:
235,308,100693,1,8,0:0:0:0:
196,240,100908,1,8,0:0:0:0:
196,240,101015,1,8,0:0:0:0:
196,240,101122,5,8,0:0:0:0:
196,160,101336,1,8,0:0:0:0:
235,91,101550,1,8,0:0:0:0:
305,50,101765,1,8,0:0:0:0:
383,51,101979,1,8,0:0:0:0:
452,92,102193,1,8,0:0:0:0:
492,160,102408,1,8,0:0:0:0:
492,240,102622,1,8,0:0:0:0:
492,240,102729,1,8,0:0:0:0:
492,240,102836,1,4,0:0:0:0:
440,328,103050,5,8,0:0:0:0:
368,260,103265,1,8,0:0:0:0:
312,340,103479,1,8,0:0:0:0:
256,256,103693,1,8,0:0:0:0:
200,340,103908,1,8,0:0:0:0:
144,260,104122,1,8,0:0:0:0:
72,328,104336,1,8,0:0:0:0:
72,328,104443,1,8,0:0:0:0:
72,328,104550,6,8,P|32:288|28:244,1,100
27,146,104979,2,8,P|67:106|111:102,1,100,8|8,0:0|0:0,0:0:0:0:
208,101,105408,2,8,P|248:141|252:185,1,100
253,283,105836,2,8,P|213:323|169:327,1,100,8|8,0:0|0:0,0:0:0:0:
171,327,106158,1,8,0:0:0:0:
171,327,106265,5,4,0:0:0:0:
471,327,106908,1,8,0:0:0:0:
328,64,107336,5,8,0:0:0:0:
328,64,107443,1,0,0:0:0:0:
328,64,107550,1,4,0:0:0:0:
184,64,107765,5,8,0:0:0:0:
184,64,107872,1,8,0:0:0:0:
184,64,107979,1,8,0:0:0:0:
96,180,108193,5,8,0:0:0:0:
160,256,108408,1,8,0:0:0:0:
256,280,108622,1,8,0:0:0:0:
352,256,108836,1,8,0:0:0:0:
416,180,109050,1,12,0:0:0:0:
96,180,109479,5,0,0:0:0:0:
96,180,109586,1,0,0:0:0:0:
96,180,109693,1,4,0:0:0:0:
160,256,109908,1,8,0:0:0:0:
256,280,110122,1,8,0:0:0:0:
352,256,110336,1,8,0:0:0:0:
416,180,110550,5,4,0:0:0:0:
352,256,110765,1,8,0:0:0:0:
256,280,110979,1,8,0:0:0:0:
160,256,111193,1,8,0:0:0:0:
160,256,111300,1,8,0:0:0:0:
160,256,111408,5,4,0:0:0:0:
256,280,111622,1,8,0:0:0:0:
352,256,111836,5,4,0:0:0:0:
256,280,112050,1,8,0:0:0:0:
160,256,112265,5,4,0:0:0:0:
352,256,112479,5,4,0:0:0:0:
160,256,112693,5,4,0:0:0:0:
352,256,112800,5,4,0:0:0:0:
160,256,112908,5,4,0:0:0:0:
352,256,113015,5,4,0:0:0:0:
160,256,113122,5,4,0:0:0:0:
476,48,143979,6,4,L|456:152,1,100,4|0,0:0|0:0,0:0:0:0:
400,208,144300,2,0,P|408:264|440:292,1,100,2|0,0:0|0:0,0:0:0:0:
476,220,144622,1,0,0:0:0:0:
428,364,144729,2,2,P|380:344|348:308,1,100,2|0,0:0|0:0,0:0:0:0:
324,240,145050,2,2,P|324:188|345:144,2,100,0|2|0,0:0|0:0|0:0,0:0:0:0:
268,300,145586,1,0,0:0:0:0:
204,348,145693,6,0,L|104:336,1,100,2|0,0:0|0:0,0:0:0:0:
32,176,146015,2,0,L|84:184,1,50,2|0,0:0|0:0,0:0:0:0:
176,104,146229,2,0,L|124:112,1,50,2|0,0:0|0:0,0:0:0:0:
36,40,146443,2,0,L|144:16,1,100,2|0,0:0|0:0,0:0:0:0:
264,176,146765,2,0,L|156:200,2,100,2|2|0,0:0|0:0|0:0,0:0:0:0:
344,188,147300,1,0,0:0:0:0:
412,228,147407,6,0,P|432:272|424:324,1,100,2|0,0:0|0:0,0:0:0:0:
412,152,147729,2,0,P|392:108|400:56,2,100,0|2|0,0:0|0:0|0:0,0:0:0:0:
480,192,148265,1,0,0:0:0:0:
344,188,148372,2,0,L|316:236,1,50,0|2,0:0|0:0,0:0:0:0:
324,312,148586,1,0,0:0:0:0:
244,224,148693,2,0,P|204:192|152:196,1,100,2|0,0:0|0:0,0:0:0:0:
180,272,149015,1,0,0:0:0:0:
124,328,149122,6,0,B|92:292|92:292|92:240,1,100,2|0,0:0|0:0,0:0:0:0:
16,96,149443,2,0,B|48:132|48:132|48:184,2,100,2|0|2,0:0|0:0|0:0,0:0:0:0:
64,32,149979,1,0,0:0:0:0:
136,64,150086,2,0,L|188:56,1,50,0|2,0:0|0:0,0:0:0:0:
256,168,150300,1,0,0:0:0:0:
376,64,150407,2,0,L|324:56,1,50,2|0,0:0|0:0,0:0:0:0:
256,168,150622,2,0,L|256:272,1,100,0|4,0:0|0:0,0:0:0:0:
404,328,151050,5,0,0:0:0:0:
404,328,151157,2,0,P|404:256|388:232,2,100,2|0|2,0:0|0:0|0:0,0:0:0:0:
108,56,151800,1,0,0:0:0:0:
108,56,151907,2,0,P|108:128|124:152,1,100,2|2,0:0|0:0,0:0:0:0:
192,192,152229,1,0,0:0:0:0:
140,252,152336,2,0,L|104:288,1,50
264,164,152550,6,2,B|312:180|312:180|360:164,1,100,2|0,0:0|0:0,0:0:0:0:
480,60,152872,2,2,B|432:44|432:44|384:60,1,100,2|0,0:0|0:0,0:0:0:0:
310,88,153193,1,0,0:0:0:0:
432,128,153300,2,0,L|432:228,1,100,2|0,0:0|0:0,0:0:0:0:
476,296,153622,1,2,0:0:0:0:
256,252,153836,1,0,0:0:0:0:
36,296,154050,1,2,0:0:0:0:
256,28,154265,5,4,0:0:0:0:
184,60,154693,1,4,0:0:0:0:
112,92,155122,1,4,0:0:0:0:
40,124,155604,1,2,0:0:0:0:
256,200,169693,6,4,B|248:208|248:208|264:208|264:208|248:208|248:208|264:208|264:208|248:208|248:208|264:208|264:208|248:208|248:208|264:208|264:208|248:208|248:208|264:208|264:208|248:208|248:208|264:208|264:208|248:208|248:208|264:208|264:208|248:208|248:208|264:208|264:208|248:208|248:208|264:208|264:208|248:208|248:208|264:208|264:208|248:208|248:208|264:208|264:208|248:208|248:208|264:208|264:208|248:208|248:208|264:208|264:208|248:208|248:208|264:208|264:208|248:208|248:208|264:208|264:208|248:208|248:208|264:208|264:208|248:208|248:208|264:208|264:208|248:208|248:208|264:208|264:208|248:208|248:208|264:208|264:208|248:208|248:208|264:208|264:208|248:208|248:208|264:208|264:208|248:208|248:208|264:208|264:208|248:208|248:208|264:208|264:208|248:208|248:208|264:208|264:208|248:208|248:208|264:208|264:208|248:208|248:208|264:208|264:208|248:208|248:208|264:208|264:208|248:208|248:208|264:208|264:208|248:208|248:208|264:208|264:208|248:208|248:208|264:208|264:208|248:208|248:208|264:208|264:208|248:208|248:208|264:208|264:208|248:208|248:208|264:208|264:208|248:208|248:208|264:208|264:208|248:208|248:208|264:208|264:208|248:208|248:208|264:208|264:208|248:208|248:208|264:208|264:208|248:208|248:208|264:208|264:208|248:208|248:208|264:208|264:208|248:208|248:208|264:208|264:208|248:208|248:208|264:208|264:208|248:208|248:208|264:208|264:208|248:208|248:208|264:208|264:208|248:208|248:208|264:208|264:208|248:208|248:208|264:208|264:208|248:208|248:208|256:208|256:208|236:272|276:272|256:348,1,1600
