osu file format v14

[General]
AudioFilename: 12. The Quick Brown Fox - Big Money.mp3
AudioLeadIn: 0
PreviewTime: -1
Countdown: 1
SampleSet: Soft
StackLeniency: 0.7
Mode: 0
LetterboxInBreaks: 1
WidescreenStoryboard: 0

[Editor]
Bookmarks: 13695,37029,44527,56525,58239,68523,71951,80745,83949,85663,97673,99387,113102,116530,129387,130245,142245,143959,154265,157693,169693,171300
DistanceSpacing: 1.2
BeatDivisor: 4
GridSize: 4
TimelineZoom: 1

[Metadata]
Title:Big Money
TitleUnicode:Big Money
Artist:The Quick Brown Fox
ArtistUnicode:The Quick Brown Fox
Creator:Blue Dragon
Version:BIG MONEY BIG PRIZES
Source:
Tags:
BeatmapID:660593
BeatmapSetID:293705

[Difficulty]
HPDrainRate:6
CircleSize:4
OverallDifficulty:8
ApproachRate:10
SliderMultiplier:2
SliderTickRate:1

[Events]
//Background and Video events
0,0,"77377-1024x768.jpg",0,0
//Break Periods
2,24697,26958
2,41321,43672
2,56750,57815
2,68750,71315
2,84179,85243
2,97893,98958
2,113322,115672
2,142465,143529
2,155964,157029
//Storyboard Layer 0 (Background)
//Storyboard Layer 1 (Fail)
//Storyboard Layer 2 (Pass)
//Storyboard Layer 3 (Foreground)
//Storyboard Sound Samples

[TimingPoints]
-16,214.094558429973,4,1,0,100,1,0
13686,-100,4,1,0,100,0,0
13695,-200,4,3,0,100,0,0
23962,-200,4,1,0,100,0,0
24497,-200,4,2,0,5,0,0
27408,214.285714285714,4,2,0,100,1,0
27408,-200,4,2,0,100,0,0
44527,-100,4,2,0,100,0,0
58245,-200,4,2,0,100,0,0
71959,-100,4,2,0,100,0,0
85673,-200,4,2,0,100,0,0
116530,-100,4,2,0,100,0,0
141387,-100,4,2,0,20,0,0
141602,-100,4,2,0,40,0,0
141816,-100,4,2,0,60,0,0
142030,-100,4,2,0,80,0,0
143979,-200,4,2,0,80,0,0
157693,-100,4,2,0,80,0,0
169800,-100,4,2,0,5,0,0
171407,-100,4,2,0,80,0,0

[Colours]
Combo1 : 254,198,80
Combo2 : 217,163,0
Combo3 : 192,192,192
Combo4 : 164,120,19

[HitObjects]
60,72,13686,5,0,0:0:0:0:
136,104,13900,1,0,0:0:0:0:
212,72,14114,1,8,0:0:0:0:
448,296,14542,5,8,0:0:0:0:
356,334,14756,1,0,0:0:0:0:
291,258,14970,1,2,0:0:0:0:
343,174,15184,2,0,P|400:152|384:32,1,200,8|0,0:0|0:0,0:0:0:0:
328,88,15826,5,8,0:0:0:0:
260,24,16041,1,0,0:0:0:0:
248,60,16148,1,8,0:0:0:0:
236,96,16255,1,0,0:0:0:0:
168,36,16469,1,0,0:0:0:0:
120,128,16683,1,8,0:0:0:0:
24,76,16897,1,0,0:0:0:0:
60,336,17111,5,2,0:0:0:0:
456,268,17539,1,8,0:0:0:0:
60,196,17967,1,2,0:0:0:0:
116,139,18182,1,0,0:0:0:0:
116,245,18396,1,8,0:0:0:0:
172,192,18610,2,0,P|258:129|226:58,1,200,8|0,0:0|0:0,0:0:0:0:
184,120,19252,5,2,0:0:0:0:
328,120,19466,1,0,0:0:0:0:
340,136,19573,1,0,0:0:0:0:
352,152,19680,1,0,0:0:0:0:
364,168,19787,1,0,0:0:0:0:
376,184,19894,1,0,0:0:0:0:
136,200,20108,1,2,0:0:0:0:
268,352,20322,1,0,0:0:0:0:
184,120,20537,6,0,P|108:108|44:204,1,200,8|2,0:0|0:0,0:0:0:0:
132,332,21179,1,0,0:0:0:0:
304,192,21393,1,8,0:0:0:0:
380,332,21607,1,0,0:0:0:0:
208,192,21821,1,2,0:0:0:0:
256,40,22035,6,0,P|352:68|448:40,1,200,8|0,0:0|0:0,0:0:0:0:
392,192,22678,1,2,0:0:0:0:
256,276,22892,1,0,0:0:0:0:
236,280,22999,1,0,0:0:0:0:
216,284,23106,1,4,0:0:0:0:
196,288,23213,1,0,0:0:0:0:
176,292,23320,6,0,P|136:308|104:356,2,100,0|2|0,0:0|0:0|0:0,0:0:0:0:
184,376,23962,6,4,B|187:384|187:384|192:372|192:372|196:381|196:381|201:368|201:368|205:377|205:377|212:369|212:369|216:378|216:378|221:365|221:365|225:374|225:374|230:361|230:361|234:370|234:370|241:362|241:362|245:371|245:371|250:358|250:358|254:367|254:367|259:354|259:354|262:363|262:363|323:369,1,250,4|0,0:0|0:0,0:0:0:0:
256,32,27408,5,8,0:0:0:0:
312,88,27622,1,8,0:0:0:0:
368,31,27836,1,8,0:0:0:0:
424,87,28050,1,8,0:0:0:0:
480,143,28265,6,8,L|480:243,1,100
423,299,28693,1,8,0:0:0:0:
348,268,28907,1,8,0:0:0:0:
328,272,29015,1,8,0:0:0:0:
308,276,29122,1,8,0:0:0:0:
272,348,29336,1,8,0:0:0:0:
212,296,29550,1,8,0:0:0:0:
172,364,29765,1,8,0:0:0:0:
112,312,29979,6,8,L|88:208,1,100
8,60,30407,2,8,L|32:164,1,100
52,152,30729,1,8,0:0:0:0:
72,148,30836,1,12,0:0:0:0:
108,76,31050,5,8,0:0:0:0:
180,44,31265,1,8,0:0:0:0:
260,40,31479,1,8,0:0:0:0:
336,56,31693,1,8,0:0:0:0:
404,96,31907,1,8,0:0:0:0:
452,160,32122,1,8,0:0:0:0:
472,236,32336,1,8,0:0:0:0:
452,232,32443,1,8,0:0:0:0:
432,228,32550,1,8,0:0:0:0:
420,308,32765,5,8,0:0:0:0:
361,362,32979,1,8,0:0:0:0:
289,389,33193,1,8,0:0:0:0:
209,387,33407,1,8,0:0:0:0:
140,356,33622,1,8,0:0:0:0:
85,297,33836,1,8,0:0:0:0:
58,225,34050,1,8,0:0:0:0:
48,184,34157,1,8,0:0:0:0:
60,145,34265,5,4,0:0:0:0:
451,238,34907,1,8,0:0:0:0:
60,145,35550,5,4,0:0:0:0:
60,145,37050,5,4,0:0:0:0:
451,238,37479,5,0,0:0:0:0:
451,238,37586,1,0,0:0:0:0:
451,238,37693,1,4,0:0:0:0:
60,145,38550,5,4,0:0:0:0:
451,238,39407,5,4,0:0:0:0:
60,145,39836,5,4,0:0:0:0:
60,145,40265,5,4,0:0:0:0:
451,238,40479,5,4,0:0:0:0:
60,145,40693,5,4,0:0:0:0:
256,192,40800,1,0,0:0:0:0:
451,238,40907,2,4,L|452:184,2,50
100,280,44122,5,0,0:0:0:0:
100,280,44175,1,0,0:0:0:0:
100,280,44229,1,0,0:0:0:0:
100,280,44282,1,0,0:0:0:0:
100,280,44336,1,0,0:0:0:0:
100,280,44390,1,0,0:0:0:0:
100,280,44443,1,0,0:0:0:0:
100,280,44497,1,0,0:0:0:0:
100,280,44550,6,0,P|144:264|192:280,1,100,2|0,0:0|0:0,0:0:0:0:
412,284,44765,2,0,P|364:300|320:284,1,100,2|0,0:0|0:0,0:0:0:0:
256,192,44979,1,0,0:0:0:0:
136,32,45086,1,2,0:0:0:0:
376,32,45193,1,8,0:0:0:0:
256,112,45300,1,0,0:0:0:0:
128,152,45407,6,0,B|128:208|128:208|92:240,1,100,0|2,0:0|0:0,0:0:0:0:
384,232,45622,2,0,B|384:176|384:176|420:144,1,100,0|2,0:0|0:0,0:0:0:0:
328,124,45836,1,0,0:0:0:0:
184,260,45943,1,2,0:0:0:0:
372,302,46050,1,8,0:0:0:0:
139,81,46157,1,0,0:0:0:0:
276,32,46265,6,0,B|328:40|328:40|376:32,1,100,0|2,0:0|0:0,0:0:0:0:
236,352,46479,2,0,B|184:344|184:344|136:352,1,100,0|2,0:0|0:0,0:0:0:0:
96,172,46693,2,0,B|104:120|104:120|96:72,1,100,0|2,0:0|0:0,0:0:0:0:
416,212,46907,2,0,B|408:264|408:264|416:312,1,100,8|0,0:0|0:0,0:0:0:0:
200,192,47122,5,8,0:0:0:0:
316,64,47229,1,0,0:0:0:0:
312,192,47336,1,0,0:0:0:0:
196,64,47443,1,8,0:0:0:0:
374,304,47550,5,8,0:0:0:0:
137,304,47657,1,2,0:0:0:0:
256,124,47765,1,0,0:0:0:0:
256,124,47872,1,0,0:0:0:0:
176,268,47979,6,0,P|128:280|80:268,1,100,0|2,0:0|0:0,0:0:0:0:
176,116,48193,2,0,P|164:68|176:20,1,100,0|2,0:0|0:0,0:0:0:0:
336,116,48407,2,0,P|384:104|432:116,1,100,0|2,0:0|0:0,0:0:0:0:
336,268,48622,1,8,0:0:0:0:
336,268,48675,1,0,0:0:0:0:
336,268,48729,1,0,0:0:0:0:
236,168,48836,5,0,0:0:0:0:
428,168,48943,1,2,0:0:0:0:
263,235,49050,1,0,0:0:0:0:
399,99,49157,1,2,0:0:0:0:
336,268,49265,2,0,P|328:320|340:368,1,100,0|2,0:0|0:0,0:0:0:0:
512,216,49479,2,0,P|520:164|508:116,1,100,8|0,0:0|0:0,0:0:0:0:
336,268,49693,5,0,0:0:0:0:
192,256,49800,1,2,0:0:0:0:
192,128,49907,1,0,0:0:0:0:
320,128,50015,1,2,0:0:0:0:
372,64,50122,5,0,0:0:0:0:
258,302,50229,1,2,0:0:0:0:
140,64,50336,1,8,0:0:0:0:
256,192,50443,1,0,0:0:0:0:
40,340,50550,5,8,0:0:0:0:
88,276,50657,1,0,0:0:0:0:
40,212,50765,1,8,0:0:0:0:
36,192,50818,1,0,0:0:0:0:
32,172,50872,1,8,0:0:0:0:
28,152,50925,1,0,0:0:0:0:
24,132,50979,1,8,0:0:0:0:
64,64,51086,1,8,0:0:0:0:
120,120,51193,2,8,P|176:112|208:80,1,100
272,36,51407,5,4,0:0:0:0:
324,152,51515,1,0,0:0:0:0:
412,44,51622,1,2,0:0:0:0:
464,172,51729,1,0,0:0:0:0:
384,288,51836,6,0,B|424:316|424:316|480:316,1,100,0|2,0:0|0:0,0:0:0:0:
272,356,52050,2,0,B|232:328|232:328|176:328,1,100,8|0,0:0|0:0,0:0:0:0:
15,268,52265,5,0,0:0:0:0:
120,165,52372,1,2,0:0:0:0:
94,310,52479,1,0,0:0:0:0:
30,179,52586,1,2,0:0:0:0:
160,248,52693,1,0,0:0:0:0:
84,234,52800,5,0,0:0:0:0:
84,234,52907,1,8,0:0:0:0:
84,234,53015,1,0,0:0:0:0:
64,80,53122,6,0,P|112:92|160:80,1,100,0|2,0:0|0:0,0:0:0:0:
292,184,53336,2,0,P|244:172|196:184,1,100,0|2,0:0|0:0,0:0:0:0:
160,248,53550,1,0,0:0:0:0:
352,136,53657,1,2,0:0:0:0:
260,292,53765,1,8,0:0:0:0:
252,92,53872,1,0,0:0:0:0:
368,252,53979,6,0,L|452:308,1,100,2|0,0:0|0:0,0:0:0:0:
352,136,54193,2,0,L|268:80,1,100,2|0,0:0|0:0,0:0:0:0:
164,48,54407,1,0,0:0:0:0:
240,184,54515,1,2,0:0:0:0:
92,152,54622,1,8,0:0:0:0:
92,152,54729,1,8,0:0:0:0:
104,328,54836,6,0,P|152:336|212:320,1,100,0|2,0:0|0:0,0:0:0:0:
256,192,55050,1,0,0:0:0:0:
310,58,55157,2,0,P|360:48|408:56,2,100,2|0|2,0:0|0:0|0:0,0:0:0:0:
344,164,55479,1,8,0:0:0:0:
168,220,55586,1,0,0:0:0:0:
120,40,55693,6,0,P|112:88|128:148,1,100,0|2,0:0|0:0,0:0:0:0:
256,192,55907,1,0,0:0:0:0:
389,246,56015,2,0,P|400:296|392:344,2,100,2|0|2,0:0|0:0|0:0,0:0:0:0:
284,280,56336,1,8,0:0:0:0:
228,104,56443,1,0,0:0:0:0:
256,192,56550,5,4,0:0:0:0:
300,320,58265,6,4,P|345:337|390:320,1,100,4|0,0:0|0:0,0:0:0:0:
212,280,58586,2,4,P|166:262|121:280,1,100,8|0,0:0|0:0,0:0:0:0:
168,332,58907,1,0,0:0:0:0:
72,224,59015,2,0,L|56:172,1,50,0|2,0:0|0:0,0:0:0:0:
104,64,59229,2,0,L|120:116,1,50,0|2,0:0|0:0,0:0:0:0:
188,168,59443,1,0,0:0:0:0:
276,148,59550,2,0,B|324:128|324:168|372:148,1,100,2|0,0:0|0:0,0:0:0:0:
432,80,59872,1,0,0:0:0:0:
460,164,59979,6,0,P|452:220|472:256,1,100,2|0,0:0|0:0,0:0:0:0:
392,368,60300,2,0,P|400:312|380:276,1,100,2|0,0:0|0:0,0:0:0:0:
296,240,60622,1,0,0:0:0:0:
236,308,60729,2,2,L|132:324,1,100,2|0,0:0|0:0,0:0:0:0:
80,252,61050,1,2,0:0:0:0:
132,180,61157,1,0,0:0:0:0:
48,144,61265,1,2,0:0:0:0:
100,72,61372,1,0,0:0:0:0:
100,72,61479,1,0,0:0:0:0:
412,72,61693,6,0,P|400:128|368:156,1,100,2|0,0:0|0:0,0:0:0:0:
412,312,62015,2,0,P|400:256|369:228,1,100,2|0,0:0|0:0,0:0:0:0:
288,192,62336,1,0,0:0:0:0:
256,108,62443,1,2,0:0:0:0:
256,276,62657,1,0,0:0:0:0:
256,276,62765,6,0,P|204:272|152:296,2,100,2|2|0,0:0|0:0|0:0,0:0:0:0:
292,360,63300,1,0,0:0:0:0:
144,208,63407,6,2,P|100:225|48:221,1,100,2|0,0:0|0:0,0:0:0:0:
84,136,63729,2,0,P|66:92|70:40,1,100,2|0,0:0|0:0,0:0:0:0:
428,136,64157,2,0,P|445:92|441:40,1,100,2|0,0:0|0:0,0:0:0:0:
368,208,64479,2,2,P|411:225|463:221,2,100,0|2|0,0:0|0:0|0:0,0:0:0:0:
304,144,65015,1,0,0:0:0:0:
256,68,65122,5,4,0:0:0:0:
400,328,65336,1,0,0:0:0:0:
400,328,65443,1,2,0:0:0:0:
112,328,65657,1,0,0:0:0:0:
256,192,65872,2,0,L|256:292,1,100
172,256,66193,1,2,0:0:0:0:
340,256,66407,1,2,0:0:0:0:
256,376,66622,1,0,0:0:0:0:
212,40,66836,6,0,P|256:20|300:40,1,100,2|0,0:0|0:0,0:0:0:0:
300,130,67157,2,0,P|256:150|212:130,1,100,2|0,0:0|0:0,0:0:0:0:
340,256,67586,2,2,L|320:356,1,100,2|0,0:0|0:0,0:0:0:0:
191,354,67907,2,2,L|172:256,2,100,2|2|0,0:0|0:0|0:0,0:0:0:0:
256,184,68550,5,4,0:0:0:0:
100,80,71765,5,0,0:0:0:0:
100,80,71818,1,0,0:0:0:0:
100,80,71872,1,0,0:0:0:0:
100,80,71925,1,0,0:0:0:0:
100,80,71979,6,2,L|204:68,1,100
412,304,72193,2,2,L|308:316,1,100
164,316,72408,1,0,0:0:0:0:
192,168,72515,1,2,0:0:0:0:
348,68,72622,1,8,0:0:0:0:
320,216,72729,1,0,0:0:0:0:
164,316,72836,6,0,P|216:312|260:336,1,100,0|2,0:0|0:0,0:0:0:0:
413,233,73050,2,0,P|361:237|317:213,1,100,0|2,0:0|0:0,0:0:0:0:
248,84,73265,1,0,0:0:0:0:
384,144,73372,1,0,0:0:0:0:
236,176,73479,1,8,0:0:0:0:
340,68,73586,1,0,0:0:0:0:
164,40,73693,6,0,P|116:64|72:60,1,100,0|2,0:0|0:0,0:0:0:0:
164,344,73908,2,0,P|116:320|72:324,1,100,0|2,0:0|0:0,0:0:0:0:
28,144,74122,1,0,0:0:0:0:
96,244,74229,1,2,0:0:0:0:
164,96,74336,1,8,0:0:0:0:
240,292,74443,1,0,0:0:0:0:
352,360,74550,5,2,0:0:0:0:
472,268,74658,1,0,0:0:0:0:
472,120,74765,1,0,0:0:0:0:
352,24,74872,1,2,0:0:0:0:
160,24,74979,5,2,0:0:0:0:
40,116,75086,1,0,0:0:0:0:
40,264,75193,1,0,0:0:0:0:
160,360,75300,1,2,0:0:0:0:
312,288,75408,6,0,P|336:244|380:228,1,100,2|0,0:0|0:0,0:0:0:0:
200,96,75622,2,0,P|176:140|132:156,1,100,2|0,0:0|0:0,0:0:0:0:
328,116,75836,1,0,0:0:0:0:
184,268,75943,1,2,0:0:0:0:
328,116,76050,1,8,0:0:0:0:
184,268,76158,1,0,0:0:0:0:
352,136,76265,6,0,P|308:112|292:68,1,100,2|0,0:0|0:0,0:0:0:0:
160,248,76479,2,0,P|204:272|220:316,1,100,2|0,0:0|0:0,0:0:0:0:
180,120,76693,1,0,0:0:0:0:
332,264,76800,1,2,0:0:0:0:
180,120,76908,1,8,0:0:0:0:
332,264,77015,1,0,0:0:0:0:
456,348,77122,6,0,P|428:300|420:248,1,100,0|2,0:0|0:0,0:0:0:0:
440,36,77336,2,0,P|468:84|476:136,1,100,0|2,0:0|0:0,0:0:0:0:
328,144,77550,1,0,0:0:0:0:
222,38,77658,1,2,0:0:0:0:
152,172,77765,1,8,0:0:0:0:
260,276,77872,1,0,0:0:0:0:
72,352,77979,5,8,0:0:0:0:
156,268,78086,1,8,0:0:0:0:
228,364,78193,1,8,0:0:0:0:
256,356,78247,1,0,0:0:0:0:
284,348,78300,1,8,0:0:0:0:
312,340,78354,1,0,0:0:0:0:
340,332,78408,2,8,B|392:332|392:332|436:356,1,100
260,276,78622,2,8,B|208:276|208:276|164:252,1,100
56,208,78836,5,4,0:0:0:0:
88,112,78943,1,0,0:0:0:0:
164,180,79050,1,2,0:0:0:0:
196,84,79158,1,0,0:0:0:0:
316,84,79265,5,0,0:0:0:0:
348,180,79372,1,2,0:0:0:0:
424,112,79479,1,8,0:0:0:0:
456,208,79586,1,0,0:0:0:0:
364,276,79693,6,0,L|324:368,1,100,0|2,0:0|0:0,0:0:0:0:
188,368,79908,2,0,L|148:276,1,100,0|2,0:0|0:0,0:0:0:0:
164,180,80122,1,0,0:0:0:0:
316,84,80229,1,2,0:0:0:0:
196,84,80336,1,8,0:0:0:0:
348,180,80443,1,0,0:0:0:0:
456,208,80550,5,0,0:0:0:0:
88,112,80658,1,2,0:0:0:0:
424,112,80765,1,0,0:0:0:0:
56,208,80872,1,2,0:0:0:0:
120,284,80979,5,0,0:0:0:0:
200,340,81086,1,0,0:0:0:0:
312,340,81193,1,8,0:0:0:0:
392,284,81300,1,0,0:0:0:0:
388,24,81408,6,0,P|344:40|316:88,1,100,2|0,0:0|0:0,0:0:0:0:
276,240,81622,2,0,P|320:224|348:176,1,100,2|0,0:0|0:0,0:0:0:0:
196,84,81836,1,0,0:0:0:0:
56,208,81943,1,2,0:0:0:0:
88,112,82050,1,8,0:0:0:0:
120,284,82158,1,8,0:0:0:0:
312,340,82265,6,0,L|416:368,1,100,0|2,0:0|0:0,0:0:0:0:
200,44,82479,2,0,L|96:16,1,100,0|2,0:0|0:0,0:0:0:0:
316,112,82693,5,0,0:0:0:0:
336,252,82800,1,0,0:0:0:0:
196,272,82908,1,8,0:0:0:0:
176,132,83015,1,0,0:0:0:0:
312,44,83122,6,0,L|416:16,1,100,0|2,0:0|0:0,0:0:0:0:
200,340,83336,2,0,L|96:368,1,100,0|2,0:0|0:0,0:0:0:0:
370,142,83550,5,0,0:0:0:0:
305,306,83658,1,0,0:0:0:0:
141,241,83765,1,8,0:0:0:0:
206,77,83872,1,0,0:0:0:0:
256,192,83979,5,4,0:0:0:0:
304,328,85693,6,0,L|408:312,1,100,4|0,0:0|0:0,0:0:0:0:
472,356,86015,1,0,0:0:0:0:
492,280,86122,1,8,0:0:0:0:
368,32,86336,1,0,0:0:0:0:
116,48,86550,1,2,0:0:0:0:
42,64,86658,1,0,0:0:0:0:
36,139,86765,1,0,0:0:0:0:
105,168,86872,1,0,0:0:0:0:
154,112,86979,6,8,L|260:92,1,100,8|0,0:0|0:0,0:0:0:0:
352,192,87300,1,0,0:0:0:0:
352,192,87408,2,8,L|246:172,1,100,2|0,0:0|0:0,0:0:0:0:
372,272,87729,1,0,0:0:0:0:
372,272,87836,2,8,L|266:252,1,100,2|0,0:0|0:0,0:0:0:0:
396,352,88158,1,0,0:0:0:0:
396,352,88265,6,8,L|290:332,1,100,2|0,0:0|0:0,0:0:0:0:
212,308,88586,1,0,0:0:0:0:
132,352,88693,2,0,P|104:356|80:352,1,50,2|0,0:0|0:0,0:0:0:0:
48,264,88908,2,0,P|76:260|100:264,1,50,2|0,0:0|0:0,0:0:0:0:
156,192,89122,6,4,P|152:144|120:104,1,100,4|0,0:0|0:0,0:0:0:0:
180,36,89443,1,0,0:0:0:0:
236,108,89550,2,0,L|288:132,1,50,8|0,0:0|0:0,0:0:0:0:
328,64,89765,2,0,L|380:88,1,50,0|8,0:0|0:0,0:0:0:0:
440,144,89979,2,0,P|440:192|480:232,1,100,2|0,0:0|0:0,0:0:0:0:
428,364,90300,1,0,0:0:0:0:
428,364,90408,2,0,P|428:316|388:276,1,100,2|0,0:0|0:0,0:0:0:0:
344,352,90729,1,0,0:0:0:0:
272,300,90836,6,4,L|172:316,1,100,4|0,0:0|0:0,0:0:0:0:
240,84,91265,2,4,L|340:68,1,100,4|0,0:0|0:0,0:0:0:0:
416,116,91586,1,0,0:0:0:0:
464,192,91693,2,0,L|488:236,1,50,2|0,0:0|0:0,0:0:0:0:
384,224,91908,2,0,L|360:180,1,50,2|0,0:0|0:0,0:0:0:0:
304,260,92122,2,0,L|328:304,1,50,2|0,0:0|0:0,0:0:0:0:
228,292,92336,2,0,L|204:248,1,50,2|0,0:0|0:0,0:0:0:0:
176,348,92550,6,4,P|134:318|84:315,1,100,4|0,0:0|0:0,0:0:0:0:
8,364,92872,1,0,0:0:0:0:
20,276,92979,1,8,0:0:0:0:
8,188,93086,1,0,0:0:0:0:
20,100,93193,1,0,0:0:0:0:
8,12,93300,1,0,0:0:0:0:
92,44,93408,6,2,P|168:76|232:56,1,150,2|0,0:0|0:0,0:0:0:0:
364,168,93836,2,2,P|288:136|224:156,1,150,2|0,0:0|0:0,0:0:0:0:
144,192,94265,2,2,L|96:280,1,100,2|0,0:0|0:0,0:0:0:0:
208,260,94586,1,0,0:0:0:0:
208,260,94693,2,2,L|198:359,1,100,2|0,0:0|0:0,0:0:0:0:
312,360,95015,1,0,0:0:0:0:
313,359,95122,2,2,L|304:260,1,100,2|0,0:0|0:0,0:0:0:0:
368,192,95443,1,0,0:0:0:0:
368,192,95550,2,2,L|416:280,2,100,2|0|4,0:0|0:0|0:0,0:0:0:0:
312,24,96193,6,0,L|356:56,1,50,2|0,0:0|0:0,0:0:0:0:
256,68,96408,2,0,L|256:124,1,50,8|0,0:0|0:0,0:0:0:0:
200,24,96622,2,0,L|156:56,1,50,2|0,0:0|0:0,0:0:0:0:
256,68,96836,6,0,B|239:116|272:116|256:164,1,100,4|0,0:0|0:0,0:0:0:0:
256,256,97158,1,0,0:0:0:0:
180,208,97265,1,8,0:0:0:0:
332,208,97479,1,0,0:0:0:0:
256,372,97693,1,4,0:0:0:0:
452,92,99408,5,12,0:0:0:0:
492,160,99622,1,8,0:0:0:0:
492,240,99836,1,8,0:0:0:0:
452,308,100050,1,8,0:0:0:0:
384,348,100265,1,8,0:0:0:0:
305,348,100479,1,8,0:0:0:0:
235,308,100693,1,8,0:0:0:0:
196,240,100908,1,8,0:0:0:0:
196,240,101015,1,8,0:0:0:0:
196,240,101122,5,8,0:0:0:0:
196,160,101336,1,8,0:0:0:0:
235,91,101550,1,8,0:0:0:0:
305,50,101765,1,8,0:0:0:0:
383,51,101979,1,8,0:0:0:0:
452,92,102193,1,8,0:0:0:0:
492,160,102408,1,8,0:0:0:0:
492,240,102622,1,8,0:0:0:0:
492,240,102729,1,8,0:0:0:0:
492,240,102836,1,4,0:0:0:0:
440,328,103050,5,8,0:0:0:0:
368,260,103265,1,8,0:0:0:0:
312,340,103479,1,8,0:0:0:0:
256,256,103693,1,8,0:0:0:0:
200,340,103908,1,8,0:0:0:0:
144,260,104122,1,8,0:0:0:0:
72,328,104336,1,8,0:0:0:0:
72,328,104443,1,8,0:0:0:0:
72,328,104550,6,8,P|32:288|28:244,1,100
27,146,104979,2,8,P|67:106|111:102,1,100,8|8,0:0|0:0,0:0:0:0:
208,101,105408,2,8,P|248:141|252:185,1,100
253,283,105836,2,8,P|213:323|169:327,1,100,8|8,0:0|0:0,0:0:0:0:
171,327,106158,1,8,0:0:0:0:
171,327,106265,5,4,0:0:0:0:
471,327,106908,1,8,0:0:0:0:
328,64,107336,5,8,0:0:0:0:
328,64,107443,1,0,0:0:0:0:
328,64,107550,1,4,0:0:0:0:
184,64,107765,5,8,0:0:0:0:
184,64,107872,1,8,0:0:0:0:
184,64,107979,1,8,0:0:0:0:
96,180,108193,5,8,0:0:0:0:
160,256,108408,1,8,0:0:0:0:
256,280,108622,1,8,0:0:0:0:
352,256,108836,1,8,0:0:0:0:
416,180,109050,1,12,0:0:0:0:
96,180,109479,5,0,0:0:0:0:
96,180,109586,1,0,0:0:0:0:
96,180,109693,1,4,0:0:0:0:
160,256,109908,1,8,0:0:0:0:
256,280,110122,1,8,0:0:0:0:
352,256,110336,1,8,0:0:0:0:
416,180,110550,5,4,0:0:0:0:
352,256,110765,1,8,0:0:0:0:
256,280,110979,1,8,0:0:0:0:
160,256,111193,1,8,0:0:0:0:
160,256,111300,1,8,0:0:0:0:
160,256,111408,5,4,0:0:0:0:
256,280,111622,1,8,0:0:0:0:
352,256,111836,5,4,0:0:0:0:
256,280,112050,1,8,0:0:0:0:
160,256,112265,5,4,0:0:0:0:
352,256,112479,5,4,0:0:0:0:
160,256,112693,5,4,0:0:0:0:
352,256,112800,5,4,0:0:0:0:
160,256,112908,5,4,0:0:0:0:
352,256,113015,5,4,0:0:0:0:
160,256,113122,5,4,0:0:0:0:
388,64,116122,5,0,0:0:0:0:
388,64,116175,1,0,0:0:0:0:
388,64,116229,1,0,0:0:0:0:
388,64,116283,1,0,0:0:0:0:
388,64,116336,1,0,0:0:0:0:
388,64,116390,1,0,0:0:0:0:
388,64,116443,1,0,0:0:0:0:
388,64,116497,1,0,0:0:0:0:
388,64,116550,6,0,P|404:116|392:164,1,100,2|0,0:0|0:0,0:0:0:0:
124,320,116765,2,0,P|108:268|120:220,1,100,2|0,0:0|0:0,0:0:0:0:
144,128,116979,1,2,0:0:0:0:
320,80,117086,1,0,0:0:0:0:
368,256,117193,1,2,0:0:0:0:
192,304,117300,6,0,P|268:356|376:352,1,200,2|0,0:0|0:0,0:0:0:0:
320,80,117622,2,0,P|244:28|136:32,1,200,2|8,0:0|0:0,0:0:0:0:
52,112,117943,1,0,0:0:0:0:
40,232,118050,1,8,0:0:0:0:
124,320,118158,1,0,0:0:0:0:
240,356,118265,6,2,P|288:364|336:348,1,100,2|0,0:0|0:0,0:0:0:0:
264,184,118479,2,2,P|216:176|168:192,1,100,2|0,0:0|0:0,0:0:0:0:
368,256,118693,1,8,0:0:0:0:
368,256,118800,1,8,0:0:0:0:
368,256,118908,1,8,0:0:0:0:
368,256,119015,6,2,L|416:152,1,100
102,165,119229,1,0,0:0:0:0:
102,165,119336,2,2,L|144:256,1,100,2|0,0:0|0:0,0:0:0:0:
96,364,119550,1,8,0:0:0:0:
416,364,119658,1,0,0:0:0:0:
96,364,119765,1,8,0:0:0:0:
416,364,119872,1,0,0:0:0:0:
448,192,119979,6,4,P|436:136|404:108,1,100,4|0,0:0|0:0,0:0:0:0:
176,272,120193,2,4,P|188:328|220:356,1,100,2|0,0:0|0:0,0:0:0:0:
416,300,120408,1,8,0:0:0:0:
102,165,120515,1,0,0:0:0:0:
416,84,120622,1,8,0:0:0:0:
416,84,120729,2,8,P|364:96|320:84,1,100,8|0,0:0|0:0,0:0:0:0:
96,84,120943,2,8,P|148:96|192:84,1,100,8|0,0:0|0:0,0:0:0:0:
260,184,121158,1,0,0:0:0:0:
364,244,121265,5,8,0:0:0:0:
148,268,121372,1,0,0:0:0:0:
364,268,121479,1,8,0:0:0:0:
148,244,121586,1,0,0:0:0:0:
92,348,121693,6,0,P|40:328|24:288,2,100,2|0|8,0:0|0:0|0:0,0:0:0:0:
256,192,122015,1,0,0:0:0:0:
420,36,122122,2,0,P|472:56|488:96,2,100,2|0|8,0:0|0:0|0:0,0:0:0:0:
256,192,122443,1,0,0:0:0:0:
216,52,122550,1,2,0:0:0:0:
236,44,122604,1,0,0:0:0:0:
256,40,122658,1,0,0:0:0:0:
276,44,122711,1,0,0:0:0:0:
296,52,122765,1,8,0:0:0:0:
380,152,122872,5,2,0:0:0:0:
364,268,122979,1,0,0:0:0:0:
256,304,123086,1,0,0:0:0:0:
148,268,123193,1,8,0:0:0:0:
132,152,123300,1,8,0:0:0:0:
364,268,123408,6,0,P|400:300|452:300,1,100,4|0,0:0|0:0,0:0:0:0:
148,116,123622,2,0,P|112:84|60:84,1,100,2|0,0:0|0:0,0:0:0:0:
52,292,123836,1,8,0:0:0:0:
52,312,123943,1,8,0:0:0:0:
52,332,124050,1,8,0:0:0:0:
148,268,124158,6,0,L|148:368,1,100,2|0,0:0|0:0,0:0:0:0:
364,116,124372,1,2,0:0:0:0:
364,116,124479,6,0,L|364:16,1,100,2|0,0:0|0:0,0:0:0:0:
364,268,124693,1,8,0:0:0:0:
148,116,124800,1,0,0:0:0:0:
364,268,124908,1,8,0:0:0:0:
148,116,125015,1,0,0:0:0:0:
52,192,125122,6,2,P|40:144|52:96,1,100,2|0,0:0|0:0,0:0:0:0:
148,268,125336,2,2,P|160:316|148:364,1,100,2|0,0:0|0:0,0:0:0:0:
148,116,125550,1,8,0:0:0:0:
256,20,125658,1,0,0:0:0:0:
364,116,125765,1,8,0:0:0:0:
452,32,125872,6,0,L|480:128,1,100,2|0,0:0|0:0,0:0:0:0:
60,32,126086,1,2,0:0:0:0:
60,32,126193,6,0,L|32:128,1,100,2|0,0:0|0:0,0:0:0:0:
68,324,126408,5,8,0:0:0:0:
148,116,126515,1,0,0:0:0:0:
364,116,126622,1,8,0:0:0:0:
444,324,126729,1,0,0:0:0:0:
356,264,126836,6,0,P|336:312|344:360,1,100,2|0,0:0|0:0,0:0:0:0:
168,25,127050,2,0,P|176:72|156:120,1,100,2|0,0:0|0:0,0:0:0:0:
88,220,127265,1,8,0:0:0:0:
364,116,127372,1,0,0:0:0:0:
224,360,127479,1,0,0:0:0:0:
288,16,127586,2,2,P|400:40|488:20,1,200
448,136,127908,2,2,L|484:236,1,100,2|0,0:0|0:0,0:0:0:0:
356,264,128122,5,8,0:0:0:0:
236,280,128229,1,0,0:0:0:0:
156,120,128336,5,8,0:0:0:0:
276,104,128443,1,0,0:0:0:0:
52,40,128550,6,0,L|52:140,2,100,2|0|8,0:0|0:0|0:0,0:0:0:0:
148,112,128872,1,0,0:0:0:0:
460,344,128979,2,0,L|460:244,2,100,2|0|8,0:0|0:0|0:0,0:0:0:0:
256,356,129300,1,0,0:0:0:0:
256,28,129408,1,4,0:0:0:0:
139,274,130265,5,2,0:0:0:0:
139,274,130372,1,2,0:0:0:0:
256,104,130479,1,8,0:0:0:0:
373,274,130586,1,2,0:0:0:0:
373,274,130693,1,2,0:0:0:0:
256,104,130800,1,8,0:0:0:0:
256,368,130907,2,0,L|256:244,1,100,2|8,0:0|0:0,0:0:0:0:
256,24,131122,5,2,0:0:0:0:
256,192,131229,1,2,0:0:0:0:
344,94,131336,1,2,0:0:0:0:
167,289,131443,1,8,0:0:0:0:
400,140,131550,2,8,L|500:140,1,100,8|0,0:0|0:0,0:0:0:0:
112,244,131765,2,8,L|12:244,1,100,8|0,0:0|0:0,0:0:0:0:
60,324,131979,5,2,0:0:0:0:
60,324,132086,1,2,0:0:0:0:
112,64,132193,1,8,0:0:0:0:
400,64,132300,5,2,0:0:0:0:
400,64,132408,1,2,0:0:0:0:
452,324,132515,1,8,0:0:0:0:
252,372,132622,5,2,0:0:0:0:
260,12,132729,1,8,0:0:0:0:
140,192,132836,5,0,0:0:0:0:
371,192,132943,1,0,0:0:0:0:
140,192,133050,1,0,0:0:0:0:
371,192,133157,1,0,0:0:0:0:
140,192,133265,1,8,0:0:0:0:
371,192,133372,1,0,0:0:0:0:
256,8,133479,2,0,L|256:108,1,100,2|0,0:0|0:0,0:0:0:0:
272,296,133693,5,2,0:0:0:0:
360,176,133800,1,2,0:0:0:0:
240,88,133908,1,8,0:0:0:0:
152,208,134015,1,0,0:0:0:0:
314,285,134122,5,2,0:0:0:0:
349,133,134229,1,2,0:0:0:0:
197,98,134337,1,8,0:0:0:0:
162,250,134444,1,0,0:0:0:0:
350,258,134550,5,2,0:0:0:0:
322,97,134657,1,2,0:0:0:0:
161,125,134765,1,2,0:0:0:0:
189,286,134872,1,2,0:0:0:0:
374,217,134979,5,2,0:0:0:0:
281,73,135086,1,2,0:0:0:0:
137,166,135194,1,8,0:0:0:0:
230,310,135301,1,0,0:0:0:0:
381,168,135407,5,2,0:0:0:0:
232,66,135514,1,2,0:0:0:0:
130,215,135622,1,8,0:0:0:0:
279,317,135729,1,0,0:0:0:0:
367,117,135836,5,2,0:0:0:0:
181,80,135943,1,2,0:0:0:0:
144,266,136051,1,8,0:0:0:0:
330,303,136158,1,0,0:0:0:0:
375,10,136265,5,4,0:0:0:0:
136,373,136479,1,4,0:0:0:0:
74,72,136693,1,4,0:0:0:0:
437,311,136907,1,4,0:0:0:0:
452,192,137122,5,2,0:0:0:0:
428,192,137175,1,0,0:0:0:0:
404,188,137229,1,0,0:0:0:0:
380,180,137283,1,0,0:0:0:0:
360,164,137336,1,0,0:0:0:0:
344,144,137390,1,0,0:0:0:0:
336,120,137443,1,0,0:0:0:0:
332,96,137497,1,0,0:0:0:0:
332,72,137550,2,0,L|344:24,7,50,8|0|0|0|0|0|0|0,0:0|0:0|0:0|0:0|0:0|0:0|0:0|0:0,0:0:0:0:
308,76,137979,5,2,0:0:0:0:
284,72,138033,1,0,0:0:0:0:
260,72,138086,1,0,0:0:0:0:
236,80,138140,1,0,0:0:0:0:
216,96,138193,1,0,0:0:0:0:
204,116,138247,1,0,0:0:0:0:
196,140,138300,1,0,0:0:0:0:
196,164,138354,1,0,0:0:0:0:
200,188,138408,2,0,L|216:240,7,50,8|0|0|0|0|0|0|0,0:0|0:0|0:0|0:0|0:0|0:0|0:0|0:0,0:0:0:0:
180,184,138836,5,2,0:0:0:0:
156,180,138890,1,0,0:0:0:0:
132,180,138943,1,0,0:0:0:0:
108,188,138997,1,0,0:0:0:0:
88,204,139050,1,0,0:0:0:0:
76,224,139104,1,0,0:0:0:0:
68,248,139158,1,0,0:0:0:0:
68,272,139211,1,0,0:0:0:0:
72,296,139265,2,0,L|88:348,7,50,8|0|0|0|0|0|0|0,0:0|0:0|0:0|0:0|0:0|0:0|0:0|0:0,0:0:0:0:
108,356,139693,6,0,L|212:356,1,100,4|0,0:0|0:0,0:0:0:0:
404,28,139908,2,0,L|300:28,1,100,4|0,0:0|0:0,0:0:0:0:
408,336,140122,2,4,L|372:240,1,100
104,48,140336,2,4,L|140:144,1,100
304,312,140550,5,2,0:0:0:0:
292,292,140604,1,0,0:0:0:0:
284,268,140658,1,0,0:0:0:0:
284,244,140711,1,0,0:0:0:0:
288,220,140765,1,0,0:0:0:0:
288,196,140818,1,0,0:0:0:0:
280,172,140872,1,0,0:0:0:0:
268,152,140925,1,0,0:0:0:0:
252,132,140979,5,2,0:0:0:0:
232,120,141033,1,0,0:0:0:0:
208,112,141086,1,0,0:0:0:0:
184,112,141140,1,0,0:0:0:0:
160,116,141193,1,0,0:0:0:0:
136,116,141247,1,0,0:0:0:0:
112,108,141300,1,0,0:0:0:0:
92,96,141354,1,0,0:0:0:0:
76,80,141408,2,2,L|56:48,24,33.3333333333333,2|2|2|2|2|2|2|2|2|2|2|2|2|2|2|2|2|2|2|2|2|2|2|2|4,0:0|0:0|0:0|0:0|0:0|0:0|0:0|0:0|0:0|0:0|0:0|0:0|0:0|0:0|0:0|0:0|0:0|0:0|0:0|0:0|0:0|0:0|0:0|0:0|0:0,0:0:0:0:
476,48,143979,6,4,L|456:152,1,100,4|0,0:0|0:0,0:0:0:0:
400,208,144300,2,0,P|408:264|440:292,1,100,2|0,0:0|0:0,0:0:0:0:
476,220,144622,1,0,0:0:0:0:
428,364,144729,2,2,P|380:344|348:308,1,100,2|0,0:0|0:0,0:0:0:0:
324,240,145050,2,2,P|324:188|345:144,2,100,0|2|0,0:0|0:0|0:0,0:0:0:0:
268,300,145586,1,0,0:0:0:0:
204,348,145693,6,0,L|104:336,1,100,2|0,0:0|0:0,0:0:0:0:
32,176,146015,2,0,L|84:184,1,50,2|0,0:0|0:0,0:0:0:0:
176,104,146229,2,0,L|124:112,1,50,2|0,0:0|0:0,0:0:0:0:
36,40,146443,2,0,L|144:16,1,100,2|0,0:0|0:0,0:0:0:0:
264,176,146765,2,0,L|156:200,2,100,2|2|0,0:0|0:0|0:0,0:0:0:0:
344,188,147300,1,0,0:0:0:0:
412,228,147407,6,0,P|432:272|424:324,1,100,2|0,0:0|0:0,0:0:0:0:
412,152,147729,2,0,P|392:108|400:56,2,100,0|2|0,0:0|0:0|0:0,0:0:0:0:
480,192,148265,1,0,0:0:0:0:
344,188,148372,2,0,L|316:236,1,50,0|2,0:0|0:0,0:0:0:0:
324,312,148586,1,0,0:0:0:0:
244,224,148693,2,0,P|204:192|152:196,1,100,2|0,0:0|0:0,0:0:0:0:
180,272,149015,1,0,0:0:0:0:
124,328,149122,6,0,B|92:292|92:292|92:240,1,100,2|0,0:0|0:0,0:0:0:0:
16,96,149443,2,0,B|48:132|48:132|48:184,2,100,2|0|2,0:0|0:0|0:0,0:0:0:0:
64,32,149979,1,0,0:0:0:0:
136,64,150086,2,0,L|188:56,1,50,0|2,0:0|0:0,0:0:0:0:
256,168,150300,1,0,0:0:0:0:
376,64,150407,2,0,L|324:56,1,50,2|0,0:0|0:0,0:0:0:0:
256,168,150622,2,0,L|256:272,1,100,0|4,0:0|0:0,0:0:0:0:
404,328,151050,5,0,0:0:0:0:
404,328,151157,2,0,P|404:256|388:232,2,100,2|0|2,0:0|0:0|0:0,0:0:0:0:
108,56,151800,1,0,0:0:0:0:
108,56,151907,2,0,P|108:128|124:152,1,100,2|2,0:0|0:0,0:0:0:0:
192,192,152229,1,0,0:0:0:0:
140,252,152336,2,0,L|104:288,1,50
264,164,152550,6,2,B|312:180|312:180|360:164,1,100,2|0,0:0|0:0,0:0:0:0:
480,60,152872,2,2,B|432:44|432:44|384:60,1,100,2|0,0:0|0:0,0:0:0:0:
310,88,153193,1,0,0:0:0:0:
432,128,153300,2,0,L|432:228,1,100,2|0,0:0|0:0,0:0:0:0:
476,296,153622,1,2,0:0:0:0:
256,252,153836,1,0,0:0:0:0:
36,296,154050,1,2,0:0:0:0:
256,28,154265,5,4,0:0:0:0:
184,60,154693,1,4,0:0:0:0:
112,92,155122,1,4,0:0:0:0:
40,124,155604,2,2,P|24:164|28:208,1,75
400,36,157479,5,0,0:0:0:0:
412,52,157532,1,0,0:0:0:0:
424,68,157586,1,0,0:0:0:0:
436,84,157640,1,0,0:0:0:0:
448,100,157693,6,0,P|468:152|456:200,1,100,0|2,0:0|0:0,0:0:0:0:
320,360,157907,2,0,P|300:308|312:260,1,100,0|2,0:0|0:0,0:0:0:0:
348,152,158122,1,0,0:0:0:0:
156,88,158229,1,2,0:0:0:0:
292,12,158336,1,0,0:0:0:0:
224,220,158443,1,0,0:0:0:0:
116,344,158550,6,0,P|72:340|32:304,1,100,0|2,0:0|0:0,0:0:0:0:
396,40,158765,2,0,P|440:44|480:80,1,100,0|2,0:0|0:0,0:0:0:0:
104,96,158979,2,0,P|108:52|144:12,1,100,0|2,0:0|0:0,0:0:0:0:
408,288,159193,2,0,P|404:332|368:372,1,100,0|2,0:0|0:0,0:0:0:0:
308,268,159407,5,0,0:0:0:0:
180,244,159515,1,2,0:0:0:0:
204,116,159622,1,0,0:0:0:0:
332,140,159730,1,2,0:0:0:0:
239,282,159836,5,0,0:0:0:0:
165,175,159944,1,2,0:0:0:0:
272,101,160051,1,0,0:0:0:0:
346,208,160159,1,2,0:0:0:0:
396,40,160265,5,2,0:0:0:0:
496,104,160372,1,0,0:0:0:0:
416,192,160479,1,0,0:0:0:0:
496,280,160586,1,2,0:0:0:0:
396,344,160693,1,0,0:0:0:0:
116,344,160800,5,2,0:0:0:0:
96,192,160907,1,0,0:0:0:0:
116,40,161015,1,0,0:0:0:0:
272,101,161122,6,0,L|372:132,1,100,0|2,0:0|0:0,0:0:0:0:
239,282,161336,2,0,L|140:252,1,100,0|2,0:0|0:0,0:0:0:0:
124,136,161550,1,0,0:0:0:0:
256,192,161657,1,2,0:0:0:0:
388,248,161765,2,0,P|404:296|396:344,1,100
239,282,161979,6,0,L|140:252,1,100,0|2,0:0|0:0,0:0:0:0:
272,101,162193,2,0,L|372:132,1,100,0|2,0:0|0:0,0:0:0:0:
388,248,162407,1,0,0:0:0:0:
256,192,162514,1,2,0:0:0:0:
124,136,162622,2,0,P|108:88|116:40,1,100
32,128,162836,5,0,0:0:0:0:
88,232,162943,1,2,0:0:0:0:
256,192,163050,1,0,0:0:0:0:
200,88,163157,1,2,0:0:0:0:
188,264,163265,5,0,0:0:0:0:
244,368,163372,1,2,0:0:0:0:
412,328,163479,1,8,0:0:0:0:
356,224,163586,1,0,0:0:0:0:
156,380,163693,6,8,L|56:380,1,100,8|0,0:0|0:0,0:0:0:0:
28,256,163907,1,8,0:0:0:0:
16,236,163961,1,0,0:0:0:0:
8,212,164015,1,8,0:0:0:0:
8,188,164068,1,0,0:0:0:0:
12,164,164122,2,8,B|44:124|44:124|44:76,1,100
172,28,164336,2,8,B|140:68|140:68|140:116,1,100
256,192,164550,5,12,0:0:0:0:
396,292,164765,1,2,0:0:0:0:
460,192,164872,1,0,0:0:0:0:
396,92,164979,1,0,0:0:0:0:
116,92,165193,1,2,0:0:0:0:
52,192,165300,1,0,0:0:0:0:
116,292,165407,1,0,0:0:0:0:
409,302,165622,5,2,0:0:0:0:
480,192,165729,1,0,0:0:0:0:
409,82,165836,1,0,0:0:0:0:
101,82,166050,1,2,0:0:0:0:
31,192,166157,1,0,0:0:0:0:
101,302,166264,1,0,0:0:0:0:
425,313,166479,5,2,0:0:0:0:
502,192,166586,1,0,0:0:0:0:
425,71,166693,1,0,0:0:0:0:
86,71,166907,1,2,0:0:0:0:
9,192,167014,1,0,0:0:0:0:
86,313,167121,1,0,0:0:0:0:
431,317,167336,5,2,0:0:0:0:
511,192,167443,1,0,0:0:0:0:
431,66,167550,1,0,0:0:0:0:
80,66,167764,1,2,0:0:0:0:
0,192,167871,1,0,0:0:0:0:
80,317,167978,5,8,0:0:0:0:
200,340,168086,1,0,0:0:0:0:
312,340,168193,1,8,0:0:0:0:
431,317,168301,1,0,0:0:0:0:
431,66,168407,6,0,L|368:148,1,100,8|0,0:0|0:0,0:0:0:0:
81,66,168622,2,0,L|144:148,1,100,8|0,0:0|0:0,0:0:0:0:
432,268,168836,5,8,0:0:0:0:
80,268,168943,1,0,0:0:0:0:
432,192,169050,1,8,0:0:0:0:
80,192,169157,1,0,0:0:0:0:
432,116,169265,1,8,0:0:0:0:
80,116,169372,1,0,0:0:0:0:
432,40,169479,1,8,0:0:0:0:
80,40,169586,1,0,0:0:0:0:
256,200,169693,6,4,B|248:208|248:208|264:208|264:208|248:208|248:208|264:208|264:208|248:208|248:208|264:208|264:208|248:208|248:208|264:208|264:208|248:208|248:208|264:208|264:208|248:208|248:208|264:208|264:208|248:208|248:208|264:208|264:208|248:208|248:208|264:208|264:208|248:208|248:208|264:208|264:208|248:208|248:208|264:208|264:208|248:208|248:208|264:208|264:208|248:208|248:208|264:208|264:208|248:208|248:208|264:208|264:208|248:208|248:208|264:208|264:208|248:208|248:208|264:208|264:208|248:208|248:208|264:208|264:208|248:208|248:208|264:208|264:208|248:208|248:208|264:208|264:208|248:208|248:208|264:208|264:208|248:208|248:208|264:208|264:208|248:208|248:208|264:208|264:208|248:208|248:208|264:208|264:208|248:208|248:208|264:208|264:208|248:208|248:208|264:208|264:208|248:208|248:208|264:208|264:208|248:208|248:208|264:208|264:208|248:208|248:208|264:208|264:208|248:208|248:208|264:208|264:208|248:208|248:208|264:208|264:208|248:208|248:208|264:208|264:208|248:208|248:208|264:208|264:208|248:208|248:208|264:208|264:208|248:208|248:208|264:208|264:208|248:208|248:208|264:208|264:208|248:208|248:208|264:208|264:208|248:208|248:208|264:208|264:208|248:208|248:208|264:208|264:208|248:208|248:208|264:208|264:208|248:208|248:208|264:208|264:208|248:208|248:208|264:208|264:208|248:208|248:208|264:208|264:208|248:208|248:208|264:208|264:208|248:208|248:208|264:208|264:208|248:208|248:208|264:208|264:208|248:208|248:208|264:208|264:208|248:208|248:208|256:208|256:208|236:272|276:272|256:348,1,1600
