osu file format v12

[General]
AudioFilename: NOTAFRAID.mp3
AudioLeadIn: 0
PreviewTime: -1
Countdown: 1
SampleSet: None
StackLeniency: 0.7
Mode: 0
LetterboxInBreaks: 1

[Editor]
Bookmarks: 14954,15621,16287,16621,16954,17287
DistanceSpacing: 0.8
BeatDivisor: 16
GridSize: 4

[Metadata]
Title:Not Afraid of Your Big Black
TitleUnicode:Not Afraid of Your Big Black
Artist:The Quick Black Jesus feat. JAKACHAN
ArtistUnicode:The Quick Black Jesus feat. JAKACHAN
Creator:Charles445
Version:Biggest
Source:
Tags:
BeatmapID:235732
BeatmapSetID:85932

[Difficulty]
HPDrainRate:4
CircleSize:4
OverallDifficulty:8
ApproachRate:9
SliderMultiplier:2.7
SliderTickRate:1

[Events]
//Background and Video events
//Break Periods
//Storyboard Layer 0 (Background)
//Storyboard Layer 1 (Fail)
//Storyboard Layer 2 (Pass)
//Storyboard Layer 3 (Foreground)
//Storyboard Sound Samples
//Background Colour Transformations
3,100,0,0,0

[TimingPoints]
6954.39344262295,333.333333333333,4,2,2,100,1,0
17579,-100,4,2,1,100,0,0
18246,-100,4,2,3,100,0,0
22579,-100,4,2,2,100,0,0
22662,-100,4,2,3,100,0,0
22746,-100,4,2,2,100,0,0
22829,-100,4,2,3,100,0,0
22912,-100,4,2,2,100,0,0
24204,-100,4,2,3,100,0,0
27933,-100,4,2,2,100,0,0
27975,-100,4,2,3,100,0,0
28100,-100,4,2,2,100,0,0
28141,-100,4,2,3,100,0,0
28266,-100,4,2,2,100,0,0
28308,-100,4,2,3,100,0,0
28433,-100,4,2,2,100,0,0
28475,-100,4,2,3,100,0,0
28516,-100,4,2,2,100,0,0
28558,-100,4,2,3,100,0,0
28600,-100,4,2,2,100,0,0
28641,-100,4,2,3,100,0,0
28766,-100,4,2,2,100,0,0
28808,-100,4,2,3,100,0,0
28850,-100,4,2,2,100,0,0
28891,-100,4,2,3,100,0,0
28933,-100,4,2,2,100,0,0
28975,-100,4,2,3,100,0,0
29100,-100,4,2,2,100,0,0
29141,-100,4,2,3,100,0,0
29579,-100,4,2,1,100,0,0

[Colours]
Combo1 : 255,98,251
Combo2 : 81,251,81
Combo3 : 118,118,252

[HitObjects]
80,180,6960,5,8,0:0:0:0:
108,236,7037,1,0,0:0:0:0:
156,276,7121,1,0,0:0:0:0:
216,288,7204,1,0,0:0:0:0:
276,276,7287,2,0,P|336:256|440:284,1,135
428,156,7537,1,0,0:0:0:0:
396,104,7621,2,0,P|332:56|264:48,1,135
36,288,7954,2,0,P|100:336|168:344,1,135
132,52,8287,6,0,L|48:44,1,67.5
156,136,8454,2,0,L|72:164,1,67.5
208,200,8621,2,0,P|276:232|384:224,1,135
440,232,8871,1,0,0:0:0:0:
436,280,8954,2,0,P|384:324|308:336,1,135
204,340,9204,1,0,0:0:0:0:
152,336,9288,2,0,P|84:292|52:228,1,135
288,40,9621,5,0,0:0:0:0:
348,48,9704,1,0,0:0:0:0:
396,84,9787,2,0,P|428:152|409:204,1,135
120,120,10121,2,0,L|60:168,1,67.5
112,180,10287,2,0,L|108:328,1,135
404,176,10621,2,0,L|407:310,1,135
32,44,10954,5,0,0:0:0:0:
92,28,11037,1,0,0:0:0:0:
152,36,11121,1,0,0:0:0:0:
200,72,11204,1,0,0:0:0:0:
216,128,11287,1,0,0:0:0:0:
212,188,11371,1,0,0:0:0:0:
184,240,11454,1,0,0:0:0:0:
208,296,11537,1,0,0:0:0:0:
264,320,11621,1,0,0:0:0:0:
324,308,11704,1,0,0:0:0:0:
348,252,11787,1,0,0:0:0:0:
324,196,11871,1,0,0:0:0:0:
308,136,11954,1,0,0:0:0:0:
320,76,12037,1,0,0:0:0:0:
376,48,12121,1,0,0:0:0:0:
436,60,12204,1,0,0:0:0:0:
476,104,12287,6,0,P|488:180|476:240,1,135,8|0,0:0|0:0,0:0:0:0:
400,316,12537,1,0,0:0:0:0:
356,360,12621,2,0,L|204:368,1,135
136,340,12871,1,0,0:0:0:0:
104,312,12954,2,0,P|72:252|80:188,1,135
80,40,13204,1,0,0:0:0:0:
136,16,13287,2,0,P|160:88|168:180,1,135
376,48,13621,6,0,L|448:36,1,67.5
296,116,13787,2,0,L|224:144,1,67.5
384,168,13954,2,0,P|452:212|476:296,1,135
348,280,14204,1,0,0:0:0:0:
320,320,14287,2,0,P|252:348|160:288,1,135
248,232,14537,1,0,0:0:0:0:
208,208,14621,2,0,P|124:192|80:212,1,135
69,26,14954,5,8,0:0:0:0:
115,52,15037,1,0,0:0:0:0:
168,61,15121,1,0,0:0:0:0:
353,33,15287,2,0,P|409:82|437:149,1,135
444,175,15537,1,0,0:0:0:0:
435,230,15621,6,0,L|381:290,1,67.5,8|0,0:0|0:0,0:0:0:0:
337,216,15787,1,0,0:0:0:0:
48,259,15954,2,0,P|76:321|150:348,1,135
181,342,16204,1,0,0:0:0:0:
232,324,16287,5,8,0:0:0:0:
256,276,16371,1,0,0:0:0:0:
232,228,16454,1,0,0:0:0:0:
260,184,16537,1,0,0:0:0:0:
240,132,16621,1,0,0:0:0:0:
272,88,16704,1,0,0:0:0:0:
316,60,16787,1,0,0:0:0:0:
372,60,16871,1,0,0:0:0:0:
420,88,16954,5,8,0:0:0:0:
444,136,17037,1,0,0:0:0:0:
432,188,17121,1,0,0:0:0:0:
424,240,17204,1,0,0:0:0:0:
400,288,17287,5,0,0:0:0:0:
252,192,17621,5,0,0:0:0:0:
252,192,18287,5,0,0:0:0:0:
252,192,18621,5,0,0:0:0:0:
252,192,18704,1,0,0:0:0:0:
252,192,18787,1,0,0:0:0:0:
275,323,18954,5,0,0:0:0:0:
294,350,19037,1,0,0:0:0:0:
322,369,19121,1,0,0:0:0:0:
355,372,19204,1,0,0:0:0:0:
384,356,19287,1,0,0:0:0:0:
410,334,19371,1,0,0:0:0:0:
427,305,19454,1,0,0:0:0:0:
428,271,19537,1,0,0:0:0:0:
424,237,19621,1,0,0:0:0:0:
410,206,19704,1,0,0:0:0:0:
390,178,19787,1,0,0:0:0:0:
362,157,19871,1,0,0:0:0:0:
330,146,19954,1,0,0:0:0:0:
296,141,20037,1,0,0:0:0:0:
262,145,20121,1,0,0:0:0:0:
229,154,20204,1,0,0:0:0:0:
201,172,20287,5,0,0:0:0:0:
179,198,20371,1,0,0:0:0:0:
171,230,20454,1,0,0:0:0:0:
158,261,20537,1,0,0:0:0:0:
132,283,20621,1,0,0:0:0:0:
98,287,20704,1,0,0:0:0:0:
67,273,20787,1,0,0:0:0:0:
49,243,20871,1,0,0:0:0:0:
40,210,20954,1,0,0:0:0:0:
43,176,21037,1,0,0:0:0:0:
51,143,21121,1,0,0:0:0:0:
67,113,21204,1,0,0:0:0:0:
87,86,21287,2,0,L|115:41,4,33.75
198,34,21621,5,0,0:0:0:0:
245,59,21704,1,0,0:0:0:0:
298,62,21787,1,0,0:0:0:0:
346,37,21871,1,0,0:0:0:0:
397,52,21954,1,0,0:0:0:0:
430,93,22037,1,0,0:0:0:0:
445,145,22121,1,0,0:0:0:0:
448,198,22204,1,0,0:0:0:0:
439,251,22287,1,0,0:0:0:0:
414,299,22371,1,0,0:0:0:0:
371,331,22454,1,0,0:0:0:0:
317,339,22537,1,0,0:0:0:0:
262,343,22621,2,0,L|189:347,1,67.5
220,277,22787,2,0,L|148:244,1,67.5
208,186,22954,5,0,0:0:0:0:
70,120,23121,1,0,0:0:0:0:
71,157,23204,1,0,0:0:0:0:
75,198,23287,1,0,0:0:0:0:
162,48,23454,1,0,0:0:0:0:
163,84,23537,1,0,0:0:0:0:
166,124,23621,1,0,0:0:0:0:
312,59,23787,1,0,0:0:0:0:
327,197,23954,1,0,0:0:0:0:
356,59,24121,1,0,0:0:0:0:
384,192,24287,5,0,0:0:0:0:
407,240,24371,1,0,0:0:0:0:
423,291,24454,1,0,0:0:0:0:
393,335,24537,1,0,0:0:0:0:
342,356,24621,1,0,0:0:0:0:
288,350,24704,1,0,0:0:0:0:
248,313,24787,1,0,0:0:0:0:
198,289,24871,1,0,0:0:0:0:
145,278,24954,2,0,L|100:281,2,33.75
119,230,25121,1,0,0:0:0:0:
100,179,25204,1,0,0:0:0:0:
85,127,25287,2,0,L|40:130,2,33.75
102,75,25454,1,0,0:0:0:0:
148,48,25537,1,0,0:0:0:0:
201,40,25621,5,0,0:0:0:0:
254,38,25704,1,0,0:0:0:0:
307,36,25787,1,0,0:0:0:0:
360,46,25871,1,0,0:0:0:0:
406,73,25954,1,0,0:0:0:0:
439,115,26037,1,0,0:0:0:0:
459,165,26121,1,0,0:0:0:0:
464,218,26204,1,0,0:0:0:0:
475,270,26287,2,0,L|430:273,2,33.75
449,317,26454,2,0,L|404:320,2,33.75
418,362,26621,2,0,L|373:365,6,33.75
379,323,26954,5,0,0:0:0:0:
331,297,27037,1,0,0:0:0:0:
276,301,27121,1,0,0:0:0:0:
224,315,27204,1,0,0:0:0:0:
170,313,27287,1,0,0:0:0:0:
123,284,27371,1,0,0:0:0:0:
91,240,27454,1,0,0:0:0:0:
91,186,27537,1,0,0:0:0:0:
115,137,27621,1,0,0:0:0:0:
161,110,27704,1,0,0:0:0:0:
213,119,27787,1,0,0:0:0:0:
255,153,27871,1,0,0:0:0:0:
290,193,27954,2,0,L|312:247,2,33.75
343,184,28121,2,0,L|377:211,2,33.75
390,159,28287,6,0,L|441:164,2,33.75
408,107,28454,2,0,L|457:90,4,33.75
369,68,28704,1,0,0:0:0:0:
321,43,28787,2,0,L|284:19,4,33.75
272,67,29037,1,0,0:0:0:0:
223,42,29121,2,0,L|178:45,2,33.75
192,86,29287,5,0,0:0:0:0:
256,192,29621,5,0,0:0:0:0:
