osu file format v8

[General]
AudioFilename: 01 Our Special Place.mp3
AudioLeadIn: 0
PreviewTime: 42772
Countdown: 0
SampleSet: Soft
StackLeniency: 0.5
Mode: 0
LetterboxInBreaks: 1
EpilepsyWarning: 1

[Editor]
Bookmarks: 14538,60418,183947,233355,247473
DistanceSpacing: 1.8
BeatDivisor: 6
GridSize: 8

[Metadata]
Title:Our Special Place
Artist:The Queenstons
Creator:Blue Dragon
Version:Not So Special
Source:
Tags:renard lapfox trax

[Difficulty]
HPDrainRate:2
CircleSize:4
OverallDifficulty:2
ApproachRate:2
SliderMultiplier:0.400000005960464
SliderTickRate:1

[Events]
//Background and Video events
0,37,"BackGround.png"
0,37,"BackGround.png"
//Break Periods
2,85361,93748
2,170067,182425
//Storyboard Layer 0 (Background)
//Storyboard Layer 1 (Fail)
//Storyboard Layer 2 (Pass)
//Storyboard Layer 3 (Foreground)
//Storyboard Sound Samples
//Background Colour Transformations
3,100,0,0,0

[TimingPoints]
456,441.176470588235,4,2,1,54,1,0
31007,-100,4,1,1,54,0,0
31228,-100,4,2,1,54,0,0
32220,-200,4,2,1,54,0,0
33984,-200,4,2,1,54,0,0
34645,-100,4,1,1,54,0,0
35086,-100,4,2,1,54,0,0
43028,-200,4,2,1,54,0,0
56042,-50,4,2,1,54,0,0
84939,-50,4,1,1,54,0,0
94865,-100,4,2,1,54,0,0
107659,-100,4,1,1,54,0,0
112733,-100,4,2,1,54,0,0
113725,-100,4,1,1,54,0,0
127512,-200,4,2,1,54,0,0
140747,-50,4,2,1,54,0,0
159386,-50,4,2,2,54,0,0
183980,-100,4,2,1,54,0,0
197655,-200,4,2,1,20,0,0
210669,-50,4,2,1,54,0,0
212214,-50,4,2,2,54,0,1
226184,-50,4,2,1,54,0,0
226331,-50,4,2,2,54,0,1
240302,-50,4,2,1,54,0,0
240449,-50,4,2,2,54,0,1
254566,-50,4,2,1,54,0,0

[Colours]
Combo1 : 250,118,95
Combo2 : 30,136,215
Combo3 : 242,179,230
Combo4 : 173,133,222

[HitObjects]
256,192,14573,5,4
256,192,15014,2,0,B|304:192,1,40,0|2
368,192,15897,1,0
368,120,16338,2,2,B|320:120,2,40
368,11,17882,6,0,B|345:11,2,20,0|2|0
348,82,18764,2,0,B|301:82,3,40,2|0|2|0
308,190,20750,5,8
308,333,21632,6,0,B|336:333,2,20,0|2|0
236,333,22514,1,2
236,188,23397,2,0,B|236:257,1,60,2|8
344,248,24720,5,0
344,176,25161,2,2,B|406:176,1,60
404,103,26264,1,0
332,103,26706,1,8
259,103,27147,1,2
259,210,27808,5,8
259,210,28691,1,4
259,281,29132,5,0
330,281,29573,2,0,B|356:281,1,20,2|0
458,281,30456,2,0,B|458:217,1,60,2|8
458,112,31779,6,0,B|480:112,2,20,0|0|8
328,112,33103,2,0,B|284:112,1,40,0|2
202,112,34867,1,4
125,188,35529,6,0,B|99:188,1,20,0|2
105,259,36191,2,0,B|130:259,1,20,0|2
197,259,36853,2,0,B|246:259,2,40,0|2|0
197,259,38397,1,8
377,259,39500,6,0,B|351:259,1,20,0|2
357,186,40161,2,0,B|383:186,1,20,2|0
449,186,40823,1,4
268,186,41926,1,8
248,40,42808,1,4
199,117,43250,6,0,B|168:117,1,20,2|2
180,186,44132,1,2
180,254,44573,2,0,B|199:254,1,10,2|0
258,254,45235,2,0,B|287:254,2,20,2|0|6
258,354,47220,5,2
337,354,48103,2,0,B|358:354,1,20,2|8
425,354,49205,1,4
425,253,50308,6,2,B|400:253,1,20
337,253,51191,1,0
269,253,51632,2,0,B|235:253,1,30,0|2
171,253,52735,1,0
103,253,53176,1,2
103,152,54279,5,4
182,152,55161,2,2,B|208:152,1,20
256,72,56044,6,8,B|256:128,2,40,8|0|8
351,72,56926,6,12,B|432:72,1,80
431,167,57808,2,12,B|431:258,2,80,12|8|12
334,167,59132,1,12
334,262,59573,2,12,B|252:262,2,80,12|8|12
334,357,60897,1,12
237,357,61338,2,12,B|152:357,2,80
237,261,62661,1,12
141,261,63103,1,12
45,261,63544,1,12
45,164,63985,6,12,B|129:164,3,80
125,68,65750,2,12,B|41:68,3,80,12|12|12|12
45,164,67514,2,12,B|129:164,3,80
125,260,69279,2,12,B|41:260,3,80
45,355,71044,5,12
141,355,71485,2,12,B|222:355,1,80
221,259,72367,1,8
316,259,72808,2,12,B|316:340,3,80
412,339,74573,2,12,B|412:258,3,80
412,162,76338,2,12,B|331:162,3,80
332,66,78103,5,12
236,66,78544,1,12
139,66,78985,1,12
43,66,79426,1,12
43,161,79867,2,12,B|130:161,1,80
218,161,80750,2,12,B|305:161,1,80
298,257,81632,2,12,B|214:257,3,80
122,257,83397,2,12,B|38:257,3,80
42,353,85161,1,4
56,192,95308,6,2,B|104:192,1,40
168,192,96191,1,0
168,120,96632,2,0,B|120:120,1,40,2|0
56,120,97514,2,2,B|56:75,3,40
107,28,99279,5,12
178,28,99720,1,0
249,28,100161,2,0,B|249:76,1,40,2|0
320,68,101044,2,0,B|366:68,3,40,2|0|2|0
360,140,102808,5,2
360,140,103029,1,0
360,211,103470,2,0,B|406:211,3,40,2|0|2|0
291,211,105456,1,8
291,355,106338,6,0,B|291:326,2,20,2|0|0
219,355,107220,1,2
75,355,108103,2,0,B|137:355,1,60,0|8
135,355,109206,1,2
135,246,109867,6,0,B|72:246,1,60
75,173,110970,1,0
146,173,111411,2,8,B|146:129,1,40,8|2
254,133,112514,1,0
254,276,113397,5,4
362,276,114058,2,0,B|404:276,3,40,8|0|8|0
402,167,116044,1,2
402,167,116264,1,0
293,167,116926,6,0,B|293:101,1,60,0|8
365,107,118029,2,0,B|365:82,2,20,0|0|2
184,107,119573,1,0
112,107,120014,6,0,B|111:81,2,20,0|0|2
112,178,120897,2,0,B|68:178,3,40,0|2|0|0
216,178,123103,1,8
287,178,123544,6,0,B|287:204,2,20,2|0|2
359,178,124426,1,0
359,178,124867,1,2
430,178,125308,1,0
430,178,125750,1,2
430,322,126632,1,4
286,322,127514,1,12
218,321,127956,6,2,B|218:286,1,20
218,233,128838,1,0
286,233,129279,2,0,B|286:215,1,10,2|0
354,223,129941,2,2,B|379:223,2,20
354,122,131926,5,2
274,122,132808,2,2,B|248:122,1,20,2|0
186,122,133911,1,12
186,222,135014,6,2,B|156:222,1,20
98,222,135897,1,0
98,290,136338,2,0,B|98:308,1,10,2|0
166,300,137000,2,0,B|196:300,2,20,2|0|2
266,300,138985,5,8
345,300,139867,2,2,B|369:300,1,20
366,192,140750,6,8,B|419:192,2,40,8|0|8
365,107,141632,6,12,B|365:24,1,80
269,27,142514,2,12,B|269:110,1,80,12|12
172,107,143397,2,12,B|172:24,3,80
76,27,145161,6,12,B|76:110,1,80,12|12
76,203,146044,2,12,B|159:203,1,80,12|12
156,107,146926,2,12,B|156:24,1,80,12|12
251,27,147808,2,12,B|251:110,1,80,12|12
347,107,148691,5,12
347,11,149132,1,12
442,11,149573,1,12
442,106,150014,1,12
442,201,150455,6,12,B|353:201,3,80
362,297,152220,1,8
266,297,152661,6,8,B|266:214,1,80,8|12
169,217,153544,2,8,B|169:300,1,80,8|12
73,297,154426,1,8
73,201,154867,1,12
73,105,155308,1,12
169,105,155750,6,12,B|169:24,1,80
264,25,156632,2,12,B|264:106,1,80,12|12
359,105,157514,1,12
454,105,157955,1,12
359,105,158397,1,12
454,105,158838,1,12
488,192,159279,6,12,B|480:279|467:348|336:360|256:375|176:360|54:347|32:288|24:189,1,640
24,192,163250,2,12,B|32:105|45:36|176:24|256:9|336:24|458:37|469:107,1,560
468,103,166779,2,12,B|460:188|447:257|316:269|236:284|156:269|34:256|23:190,1,560
256,312,183985,5,12
320,280,184426,2,2,B|320:232,1,40
256,208,185308,1,0
184,184,185750,2,2,B|136:184,1,40,2|0
144,184,186411,1,2
144,75,187073,5,0
215,75,187514,1,4
286,75,187955,1,0
358,75,188397,1,2
429,75,188838,1,0
429,75,189279,1,8
429,146,189720,6,0,B|479:146,1,40,0|2
469,217,190603,2,0,B|419:217,1,40,2|8
429,289,191485,1,0
357,289,191926,2,0,B|357:247,2,40,2|0|8
285,289,193250,1,0
285,289,193691,1,8
285,217,194132,5,2
213,217,194573,2,0,B|213:265,1,40,2|0
213,257,195235,1,2
104,257,195897,1,2
72,192,196338,5,4
72,192,196779,1,4
72,192,197220,1,4
112,128,198103,6,0,B|142:123,1,20,4|0
171,69,198985,2,0,B|201:74,1,20,2|0
223,133,199867,2,0,B|253:128,1,20
282,74,200750,2,0,B|312:79,1,20,2|0
356,126,201632,1,2
424,182,202367,2,0,B|448:182,3,20
444,321,205161,5,0
375,321,205603,1,0
305,321,206044,2,2,B|305:298,2,20
176,320,207808,1,0
176,184,208691,1,0
256,48,209573,5,2
256,48,210455,1,2
256,240,211338,5,8
256,312,211632,2,0,B|256:328,2,13.3333333333333,0|0|8
352,312,212220,6,12,B|352:216,1,80
256,232,213103,2,12,B|256:328,1,80
160,312,213985,2,12,B|144:120|392:152,3,320
372,53,219720,5,12
276,53,220161,1,12
180,53,220603,1,12
84,53,221044,5,12
84,148,221485,1,12
179,148,221926,1,12
275,148,222367,1,12
370,148,222808,5,12
368,240,223250,1,12
312,328,223691,1,12
200,328,224132,1,12
144,240,224573,1,12
256,240,225014,1,12
312,144,225455,1,12
200,144,225897,1,12
192,256,226338,6,12,B|200:432|312:432|320:256|320:256|336:216|368:240|368:240|376:224|376:224|392:240|392:240|424:184|408:104|384:80|384:80|384:16|384:16|304:80|304:80|256:48|208:80|208:80|128:16|128:16|128:80|128:80|104:104|88:184|120:240|120:240|136:224|136:224|144:240|144:240|168:224|168:224|184:240|184:240|192:248,1,1280,12|12
88,296,233838,5,12
40,192,234279,1,12
40,80,234720,1,12
152,80,235161,1,12
152,192,235603,1,12
152,304,236044,1,12
256,272,236485,1,12
248,168,236926,2,12,C|344:168,7,80
296,112,240455,6,0,B|208:-16|40:-32|-24:151|48:344|192:208|256:368|256:368|320:208|464:344|534:150|472:-32|304:-16|216:112|216:112|208:120,1,1280,12|12
256,192,247955,12,12,254573
