osu file format v5

[General]
AudioFilename: the_punkk_-_mansikka.mp3
AudioLeadIn: 0
PreviewTime: -1
Countdown: 3
SampleSet: Normal
StackLeniency: 0.7
Mode: 0
LetterboxInBreaks: 1

[Metadata]
Title:Mansikka
Artist:The Punkk
Creator:ollypolly
Version:Normal
Source:
Tags:

[Difficulty]
HPDrainRate:2
CircleSize:3
OverallDifficulty:2
SliderMultiplier:1.4
SliderTickRate:1

[Events]
//Background and Video events
0,0,"01mansikka.jpg"
//Break Periods
//Storyboard Layer 0 (Background)
//Storyboard Layer 1 (Failing)
//Storyboard Layer 2 (Passing)
//Storyboard Layer 3 (Foreground)
//Storyboard Sound Samples
//Background Colour Transformations
3,100,163,162,255

[TimingPoints]
2145.15018128272,305.033045246568,4,1,0,100,1,0

[HitObjects]
128,64,2145,1,0
224,64,2450,1,0
320,128,2755,5,0
416,192,3060,1,0
320,256,3365,5,0
224,256,3670,1,0
128,192,3975,5,0
224,128,4280,1,0
320,128,4585,5,0
416,192,4890,1,0
352,288,5195,5,0
224,288,5500,1,0
128,224,5805,5,0
192,128,6110,1,0
256,224,6415,5,0
352,160,6720,1,0
256,96,7025,5,0
352,96,7330,1,0
288,192,7635,5,0
256,288,7940,1,0
352,256,8245,5,0
416,192,8550,1,0
416,64,8855,5,0
288,64,9160,1,0
288,160,9465,5,0
192,128,9770,1,0
192,224,10076,5,0
288,256,10381,1,0
384,224,10686,5,0
448,128,10991,1,0
320,128,11296,5,0
192,128,11601,1,0
192,224,11906,5,0
288,256,12211,1,0
384,224,12516,5,0
416,128,12821,1,0
288,128,13126,5,0
160,128,13431,1,0
224,224,13736,5,0
320,256,14041,1,0
416,288,14346,5,0
416,160,14651,1,0
320,128,14956,5,0
224,160,15261,1,0
320,224,15566,5,0
416,288,15871,1,0
288,288,16176,5,0
160,288,16481,1,0
224,192,16786,5,0
320,160,17091,1,0
416,96,17396,5,0
320,64,17701,1,0
192,64,18006,5,0
96,96,18311,1,0
96,192,18616,5,0
192,192,18921,1,0
288,160,19227,5,0
384,96,19532,1,0
416,192,19837,5,0
320,256,20142,1,0
288,160,20447,5,0
256,64,20752,1,0
160,96,21057,5,0
64,160,21362,1,0
96,256,21667,5,0
192,256,21972,1,0
288,224,22277,6,0,B|384:96|384:96|320:192|384:128,1,140
384,224,22887,6,0,B|288:352,1,140
480,224,23497,6,0,B|416:96,1,140
320,96,24107,6,0,B|128:160,1,140
128,224,24717,6,0,B|256:288,1,140
352,256,25327,6,0,B|448:128,1,140
320,160,25937,6,0,B|160:128,1,140
128,224,26547,6,0,B|32:96,1,140
160,128,27157,6,0,B|320:64,1,140
384,160,27767,6,0,B|320:288,1,140
224,256,28377,6,0,B|224:96,1,140
288,224,28988,6,0,B|448:320,1,140
320,352,29598,6,0,B|192:224,1,140
64,288,30208,6,0,B|160:160,1,140
256,128,30818,6,0,B|384:64,1,140
384,160,31428,6,0,B|448:288,1,140
320,256,32038,5,0
224,320,32343,1,0
160,224,32648,5,0
224,128,32953,1,0
320,128,33258,5,0
416,128,33563,1,0
448,224,33868,5,0
384,320,34173,1,0
288,288,34478,5,0
192,224,34783,1,0
192,96,35088,5,0
288,96,35393,1,0
384,128,35698,5,0
288,192,36003,1,0
160,192,36308,5,0
64,128,36613,1,0
32,224,36918,5,0
128,288,37223,1,0
128,96,37528,5,0
224,32,37834,1,0
320,96,38139,5,0
320,192,38444,1,0
224,224,38749,5,0
128,288,39054,1,0
224,320,39359,5,0
320,352,39664,1,0
352,256,39969,5,0
416,160,40274,1,0
320,128,40579,5,0
224,96,40884,1,0
128,64,41189,5,0
64,160,41494,1,0
128,224,41799,5,0
224,288,42104,1,0
256,192,42409,5,0
288,96,42714,1,0
384,128,43019,5,0
384,224,43324,1,0
288,288,43629,5,0
192,224,43934,1,0
96,160,44239,5,0
64,256,44544,1,0
160,320,44849,5,0
256,320,45154,1,0
320,224,45459,5,0
256,128,45764,1,0
352,128,46069,5,0
448,192,46374,1,0
384,288,46679,5,0
288,320,46985,1,0
192,288,47290,5,0
96,320,47595,1,0
32,224,47900,5,0
96,128,48205,1,0
32,32,48510,5,0
128,64,48815,1,0
224,128,49120,5,0
256,32,49425,1,0
320,96,49730,5,0
352,192,50035,1,0
256,224,50340,5,0
256,320,50645,1,0
352,288,50950,5,0
448,224,51255,1,0
416,128,51560,6,0,B|288:32,1,140
192,64,52170,6,0,B|64:160,1,140
160,224,52780,6,0,B|96:352,1,140
192,320,53390,6,0,B|320:256,1,140
416,288,54000,6,0,B|352:128,1,140
256,128,54610,6,0,B|128:64,1,140
160,160,55220,6,0,B|64:288,1,140
192,288,55830,6,0,B|352:224,1,140
384,320,56441,6,0,B|448:192,1,140
352,160,57051,6,0,B|480:32,1,140
352,64,57661,6,0,B|224:160,1,140
128,96,58271,6,0,B|192:256|192:224,1,140
96,288,58881,6,0,B|32:128|32:160,1,140
160,192,59491,6,0,B|320:256,1,140
352,320,60101,6,0,B|352:128,1,140
480,256,60711,6,0,B|480:96,1,140
384,64,61321,5,0
256,64,61626,1,0
128,64,61931,5,0
64,160,62236,1,0
160,192,62541,5,0
256,224,62846,1,0
160,256,63151,5,0
64,320,63456,1,0
160,320,63761,5,0
256,320,64066,1,0
352,320,64371,5,0
384,224,64676,1,0
448,320,64981,5,0
480,224,65286,1,0
448,128,65592,5,0
352,64,65897,1,0
256,32,66202,5,0
128,32,66507,1,0
128,128,66812,5,0
224,160,67117,1,0
320,128,67422,5,0
288,224,67727,1,0
192,256,68032,5,0
96,224,68337,1,0
160,128,68642,5,0
64,64,68947,1,0
160,64,69252,5,0
256,64,69557,1,0
320,160,69862,5,0
192,160,70167,1,0
256,192,70777,12,0,78708
