osu file format v6

[General]
AudioFilename: The Prodigy - We Are The Ruffest (Short Ver.).mp3
AudioLeadIn: 0
PreviewTime: 99480
Countdown: 0
SampleSet: Normal
StackLeniency: 1
Mode: 0
LetterboxInBreaks: 1
SkinPreference:Default

[Editor]
Bookmarks: 324,13565,26806,43358,48324,59910,68186,74806,94668,101289,112875,127772,141013,154255,167496,180737
DistanceSpacing: 1.10000002384186
BeatDivisor: 8
GridSize: 8

[Metadata]
Title:We Are The Ruffest
Artist:The Prodigy
Creator:whymeman
Version:Tough
Source:
Tags:The Prodigy We Are The Ruffest NachoPiggy Shinde

[Difficulty]
HPDrainRate:4
CircleSize:5
OverallDifficulty:7
SliderMultiplier:1
SliderTickRate:1

[Events]
//Background and Video events
0,0,"[Tough].jpg"
//Break Periods
2,43558,47424
2,68386,73906
2,94868,100389
2,141213,153355
//Storyboard Layer 0 (Background)
Sprite,Background,Centre,"Warning SB\Kiai Dynamic Screen1.PNG",320,240 F,0,99427,99634,0,1 F,0,99634,127358,1 M,0,99427,127772,320,240 S,0,99427,127772,1 F,0,127358,127772,1,0
Sprite,Background,Centre,"Warning SB\Kiai Dynamic Screen1.PNG",320,240 M,0,152392,,320,240 F,0,152392,152599,0,1 F,0,152599,167082,1 M,0,152392,167496,320,240 F,0,167082,167496,1,0
Sprite,Background,Centre,"Warning SB\Kiai Dynamic Screen1 (Flash).PNG",320,240 F,0,99427,99634,0,1 M,0,99427,100048,320,240 S,0,99427,100048,1,1.264 F,0,99634,100048,1,0
Sprite,Background,Centre,"Warning SB\Kiai Dynamic Screen1 (Flash).PNG",320,240 F,0,99427,99634,0,1 M,0,99427,100048,320,240 S,0,99427,100048,1,1.128 F,0,99634,100048,1,0
Sprite,Background,Centre,"Warning SB\Kiai Dynamic Screen1 (Flash).PNG",320,240 F,0,152392,152599,0,1 M,0,152392,153013,320,240 S,0,152392,153013,1,1.128 F,0,152599,153013,1,0
Sprite,Background,Centre,"Warning SB\Kiai Dynamic Screen1 (Flash).PNG",320,240 F,0,152392,152599,0,1 M,0,152392,153013,320,240 S,0,152392,153013,1,1.264 F,0,152599,153013,1,0
Sprite,Background,Centre,"SB Objects\Dynamic Shade Screen.PNG",320,240 M,0,73151,,320,240 F,0,73151,74392,0,1 F,0,74392,99427,1 F,0,99427,,1 F,0,99427,,1 M,0,73151,99841,320,240 F,0,99427,99841,1,0
//Storyboard Layer 1 (Fail)
Animation,Fail,Centre,"Warning SB\Taking Damage Warning-.png",320,240,8,500,LoopForever F,0,13151,13565,0,1 F,0,13565,43306,1 F,0,43306,43358,1,0 F,0,43358,48272,0,0.03576966 F,0,48272,48324,0.03576966,1 F,0,48324,68134,1 F,0,68134,68186,1,0 F,0,68186,74755,0,0.05836465 F,0,74755,74806,0.05836465,1 F,0,74806,94617,1 F,0,94617,94668,1,0 F,0,94668,101237,0 F,0,101237,101289,0,1 F,0,101289,140961,1 F,0,140961,141013,1,0 F,0,141013,154203,0 F,0,154203,154255,0,1 M,0,13151,180737,204,14 F,0,154255,180737,1
//Storyboard Layer 2 (Pass)
//Storyboard Layer 3 (Foreground)
Sprite,Foreground,Centre,"Warning SB\SpeedUp.png",320,240 M,0,99427,99634,94,242,249,243 F,0,99427,99737,0,1 M,0,99634,100668,249,243,346,243 F,0,99737,100668,1 M,0,100668,,346,243 F,0,100668,,1 M,0,100668,100979,346,243,637,243 F,0,100668,100979,1,0
Sprite,Foreground,Centre,"Warning SB\SpeedUp.png",320,240 M,0,152392,152599,145,243,286,244 F,0,152392,152703,0,1 M,0,152599,153635,286,244,382,244 F,0,152703,153635,1 F,0,153635,,1 M,0,153635,153841,382,244,603,244 F,0,153635,153841,1,0.03199997 M,0,153841,,603,244
Sprite,Foreground,Centre,"Warning SB\Slow Down.png",320,240 F,0,165427,165790,0,1 F,0,165790,167032,1 M,0,165427,167289,193,264,429,264 F,0,167032,167289,1,0 M,0,167289,,429,264
//Storyboard Sound Samples
//Background Colour Transformations
3,100,242,242,242

[TimingPoints]
324,413.793103448276,4,2,0,80,1,0
41703,-100,4,1,0,0,0,0
43358,-100,4,2,0,30,0,0
47496,-100,4,1,0,80,0,0
74392,-100,4,2,0,80,0,0
99634,-50,4,1,0,80,0,1
127772,-50,4,1,0,80,0,0
141019,-100,4,1,0,80,0,0
152599,-50,4,1,0,80,0,1
167496,-100,4,1,0,80,0,0

[Colours]
Combo1 : 255,221,196
Combo2 : 0,255,255
Combo3 : 170,170,255
Combo4 : 186,222,165
Combo5 : 231,194,52

[HitObjects]
48,80,13565,2,0,L|168:80|168:80,1,100,4|2
200,80,14186,1,0
312,80,14599,1,0
368,80,14806,2,0,L|424:80|424:128|424:144,1,100,2|0
424,232,15634,1,2
424,288,15841,1,0
312,288,16255,5,0
256,296,16461,1,2
200,304,16668,1,0
144,312,16875,1,2
88,320,17082,1,0
88,208,17496,1,2
88,96,17910,5,0
144,104,18117,1,2
256,120,18530,1,2
312,128,18737,1,0
424,144,19151,6,0,L|424:312|424:312,1,150,2|6
312,296,20186,5,0
200,296,20599,1,2
256,296,20806,1,0
256,184,21220,1,0
256,240,21427,1,2
144,240,21841,1,0
144,352,22255,1,2
144,296,22461,1,0
32,296,22875,6,0,L|32:224|32:224|32:224,1,50,0|2
32,192,23289,1,0
32,136,23496,2,0,L|32:56|112:56|112:56,1,150,2|2
208,56,24530,1,0
264,56,24737,1,2
320,56,24944,1,0
376,56,25151,1,2
488,56,25565,1,0
488,112,25772,5,2
488,224,26186,1,2
376,224,26599,1,2
320,224,26806,6,0,L|304:224|296:200|280:200|280:200,1,50
256,200,27117,1,0
224,200,27220,1,2
168,200,27427,1,0
112,200,27634,1,0
112,312,28048,2,0,L|112:336|128:344|128:376|128:376,1,50,2|0
184,352,28461,5,0
240,352,28668,1,0
264,352,28772,1,0
288,352,28875,1,2
344,352,29082,1,0
400,352,29289,2,0,L|400:288|400:288,1,50,2|0
400,248,29703,1,2
456,248,29910,1,0
456,192,30117,5,0
456,136,30324,1,0
432,120,30427,1,0
408,104,30530,1,2
360,136,30737,1,0
336,120,30841,1,0
312,104,30944,1,0
272,144,31151,1,0
232,104,31358,1,2
120,104,31772,6,0,L|120:64|120:64,3,25
120,104,32186,2,0,L|120:144|120:144,3,25,2|0|0|0
120,104,32599,1,0
120,216,33013,1,2
120,328,33427,6,0,L|192:328|192:328,1,50
224,328,33841,1,2
280,328,34048,1,0
304,328,34151,1,0
328,328,34255,1,0
384,328,34461,1,0
440,328,34668,1,2
440,216,35082,5,0
440,160,35289,2,0,L|440:96|440:96,1,50,0|2
440,56,35703,1,0
408,56,35806,1,0
376,56,35910,1,0
264,56,36324,1,2
320,56,36530,1,0
320,112,36737,5,0
320,168,36944,1,0
296,184,37048,1,0
272,200,37151,2,0,L|224:232|224:232,1,50,2|0
208,240,37461,1,0
184,256,37565,1,0
136,288,37772,1,0
80,288,37979,1,2
80,176,38392,6,0,L|80:144|80:144,3,25
80,176,38806,2,0,L|80:208|80:208,3,25,2|0|0|0
80,176,39220,2,0,L|128:176|160:152|184:152|184:152,1,100,0|2
280,152,40048,5,0
336,152,40255,1,0
448,152,40668,2,0,L|448:272|448:280,1,100
392,248,41289,1,0
336,248,41496,1,0
256,192,41703,12,8,43358
56,104,48324,5,4
168,104,48737,1,0
112,104,48944,1,0
112,208,49358,1,0
168,208,49565,1,0
112,288,49875,1,0
112,288,49979,6,0,L|152:288|176:320|216:320|216:320,1,100
248,320,50599,2,0,L|288:320|304:352|336:352|336:352,1,100
384,352,51220,1,0
440,352,51427,1,0
440,296,51634,5,4
440,184,52048,1,0
384,184,52255,1,0
384,184,52358,2,0,L|288:184|288:184,1,75
256,184,52875,1,0
176,184,53186,1,0
176,184,53289,6,0,L|128:184|112:152|72:152|72:112|72:112,1,150
72,16,54324,1,0
72,72,54530,1,0
128,72,54737,1,0
184,72,54944,5,4
256,136,55358,1,0
312,136,55565,2,0,B|352:136|352:136,1,25
376,208,55979,1,0
320,208,56186,2,0,B|280:208|280:208,1,25
240,208,56496,1,0
240,208,56599,6,0,B|88:208|88:208,2,150,0|0|0
256,256,58048,1,0
272,312,58255,6,0,B|120:312|120:312,2,150,4|0|0
328,312,59703,1,0
384,312,59910,5,4
376,256,60117,1,0
368,200,60324,1,0
312,200,60530,1,0
312,200,60634,1,4
256,200,60841,1,0
208,168,61048,1,0
184,152,61151,1,0
160,136,61255,1,0
136,120,61358,1,0
112,104,61461,1,0
88,88,61565,5,4
200,88,61979,1,0
256,88,62186,2,0,B|376:88|376:88,1,100,4|0
408,88,62806,1,0
488,88,63117,1,0
480,112,63220,1,0
464,160,63427,1,0
440,208,63634,1,0
384,208,63841,2,0,B|216:208|216:208,1,150,4|0
240,264,64668,1,0
256,320,64875,6,0,B|84:320|84:320,1,150,4|4
72,216,65910,1,0
56,160,66117,1,0
136,160,66427,1,0
160,160,66530,1,0
216,160,66737,1,0
272,160,66944,1,0
256,192,67151,12,4,68186
72,40,74806,6,0,B|240:40|240:40,1,150,4|2
328,40,75841,1,0
384,40,76048,1,2
384,96,76255,1,0
384,152,76461,6,0,B|216:152|216:152,1,150,2|2
120,152,77496,1,0
64,152,77703,1,2
64,208,77910,1,0
64,264,78117,6,2,B|232:264|232:264,1,150
272,264,78944,1,0
328,264,79151,1,0
384,264,79358,1,2
384,152,79772,6,0,B|216:152|216:152,2,150,2|2|2
384,96,81220,1,0
384,208,81427,5,4
384,320,81841,1,0
440,320,82048,1,2
328,320,82461,2,0,B|256:320|256:320,1,50,0|2
224,320,82875,1,0
168,320,83082,5,2
168,208,83496,2,0,B|240:208|240:208,1,50,0|2
224,152,83910,1,0
232,96,84117,2,0,B|304:96|304:96,1,50,0|2
392,96,84737,5,2
392,208,85151,1,0
392,152,85358,1,2
280,152,85772,1,0
336,152,85979,1,2
336,40,86392,6,0,B|224:40|224:40,1,100,2|0
224,152,87013,2,0,B|56:152|56:152,1,150,2|2
72,264,88048,5,2
184,264,88461,1,0
128,264,88668,1,2
128,152,89082,1,0
128,208,89289,1,2
240,208,89703,5,2
352,208,90117,1,0
296,208,90323,1,2
296,96,90737,1,0
296,152,90944,1,2
296,264,91358,5,2
408,264,91772,1,0
352,264,91979,1,2
352,152,92392,1,0
296,152,92599,1,2
240,152,92806,1,0
184,152,93013,5,2
184,40,93427,1,0
184,96,93634,1,2
296,96,94048,1,0
240,96,94255,1,2
352,96,94668,1,2
64,352,101289,5,12
176,240,101496,1,0
64,240,101703,1,8
64,128,101910,1,4
176,128,102117,2,0,L|280:128|368:32|440:32|440:32,1,300
432,144,102944,5,12
432,256,103151,1,0
320,256,103358,2,0,L|240:256|240:360|152:360|152:320|152:320,1,300
152,224,104186,1,12
152,112,104392,1,0
264,112,104599,5,12
264,224,104806,1,0
376,224,105013,1,8
376,224,105117,1,0
376,112,105323,1,0
376,112,105427,1,8
264,112,105634,1,0
152,112,105841,2,12,L|80:112|80:144|80:160,1,100,12|0
80,248,106255,6,0,L|80:328|200:328|200:208|200:208,1,300,4|4
200,120,107082,2,8,L|200:32|320:32|320:32,1,200
312,32,107599,1,0
424,32,107806,1,0
424,32,107910,5,12
424,144,108117,1,0
424,248,108323,2,8,L|424:304|368:304|368:304,1,100,0|0
272,304,108737,1,8
272,192,108944,2,0,L|272:144|216:144|216:144,1,100
112,144,109358,1,0
0,144,109565,6,0,L|0:32|112:32|112:32,1,200,4|0
200,32,110186,1,4
200,88,110289,1,0
200,144,110392,2,0,L|200:232|312:232|312:208,1,200
312,344,111013,1,0
368,344,111117,1,0
424,344,111220,5,12
312,344,111427,1,0
200,344,111634,2,0,L|200:288|144:288|144:288,1,100
48,288,112048,1,8
48,176,112255,2,0,L|48:120|112:120|112:120,1,100
92,120,112565,1,0
200,120,112772,1,0
200,120,112875,6,4,L|256:120|256:176|256:176,1,100
256,272,113289,1,12
368,272,113496,2,4,L|424:272|424:328|424:328,2,100
256,272,114117,1,4
368,160,114323,1,4
256,160,114530,6,12,L|256:96|256:56|368:56|368:56|368:56,1,200,12|4
464,56,115151,2,0,L|464:168|464:208|464:272|464:272,1,200,8|0
464,368,115772,1,8
352,368,115979,1,0
352,256,116186,6,4,L|304:256|304:256|280:312|256:368|256:368|208:368,1,200,12|0
112,368,116806,2,0,L|112:312|56:256|56:184|56:184,1,200,12|0
168,192,117427,1,8
168,192,117530,1,0
56,80,117737,1,0
56,80,117841,6,12,L|104:80|128:48|160:48|176:80|224:80|224:80,1,200,12|0
216,192,118461,2,4,L|216:232|248:256|288:256|320:232|320:184|320:184,1,200,12|0
320,80,119082,1,8
320,80,119186,1,0
432,80,119392,1,0
432,80,119496,6,8,L|464:128|408:168|440:208|440:232|440:248|440:248,1,200,12|0
440,344,120117,2,0,L|408:344|384:344|336:296|336:240|336:208|336:208,1,200,12|0
336,168,120634,1,0
336,112,120737,2,4,L|336:64|312:40|280:40|280:40,1,100,12|4
184,40,121151,6,0,L|80:40|32:136|32:136,1,200,12|0
144,128,121772,2,0,L|88:224|88:224|88:328|88:328,1,200,12|4
144,312,122289,1,0
200,312,122392,1,8
312,312,122599,1,0
432,312,122806,6,0,L|432:208|432:208|384:112,1,200,12|0
496,120,123427,2,0,L|456:24|336:24|336:24|336:24,1,200,12|0
248,24,124048,1,8
136,24,124255,1,0
80,24,124358,1,0
24,24,124461,6,0,L|24:80|96:128|96:192|96:192,1,200,12|0
96,296,125082,2,0,L|136:296|160:264|208:264|232:240|272:240|272:240,1,200,12|0
328,240,125599,1,0
384,240,125703,1,8
384,128,125910,1,0
272,128,126117,2,0,L|232:128|208:96|160:96|104:192|32:192|32:192,2,300,12|12|4
272,352,127772,5,4
272,240,127979,1,0
328,240,128082,1,0
384,240,128186,1,0
384,352,128392,2,0,L|440:352|464:312|464:256|496:232|496:184|464:160|464:128,1,300
464,32,129220,1,0
352,32,129427,5,4
352,144,129634,1,0
296,144,129737,1,0
240,144,129841,1,0
240,32,130048,2,4,L|152:32|120:56|120:88|104:120|104:144,1,200,4|0
104,232,130668,1,4
216,232,130875,1,0
272,232,130979,1,0
328,232,131082,6,0,L|328:264|352:280|352:328|256:328|256:328,1,200,4|0
152,328,131703,2,0,L|80:328|32:280|32:208|32:208,1,200,4|0
32,112,132323,1,4
256,192,132737,12,4,134392
344,88,134806,5,0
232,88,135013,1,4
120,88,135220,1,0
80,128,135323,1,0
40,168,135427,1,0
40,280,135634,2,4,L|40:320|72:344|104:344|104:344,1,100
200,344,136048,6,4,L|232:344|248:312|248:312|288:312|288:312,1,100,4|0
392,312,136461,1,0
448,312,136565,1,0
504,312,136668,1,0
392,200,136875,5,4
280,200,137082,1,0
392,88,137289,1,0
280,88,137496,1,4
168,200,137703,5,4
168,88,137910,1,0
112,88,138013,1,0
56,88,138117,1,0
168,200,138323,5,4
56,200,138530,1,0
56,312,138737,1,0
168,312,138944,6,4,L|216:312|240:288|240:264|240:264,1,100,4|0
240,160,139358,1,4
352,272,139565,1,0
352,160,139772,1,4
464,272,139979,1,0
464,160,140186,2,0,L|464:104|464:104,1,50
416,80,140392,1,0
368,48,140496,2,0,L|296:48|296:48,1,50,0|4
208,48,140806,1,4
152,48,140910,1,0
96,48,141013,1,4
333,232,154255,6,12,L|333:290|269:290|213:234|213:234|213:234,1,200,12|4
136,160,154875,2,0,L|80:104|80:40|144:40|144:40,1,200,8|0
192,40,155392,1,0
248,40,155496,1,8
360,40,155703,1,0
472,40,155910,6,4,L|472:88|472:88|416:112|360:136|360:136|360:184,1,200,12|0
416,176,156427,1,0
472,184,156530,2,0,L|472:240|400:272|400:352|400:352,1,200,12|0
288,336,157151,1,8
288,336,157255,1,0
288,224,157461,1,0
288,224,157565,6,12,L|240:224|208:200|208:160|240:136|240:88|240:88,1,200,12|0
128,104,158186,2,4,L|128:144|96:168|56:168|24:192|24:248|24:248,1,200,12|0
136,232,158806,1,8
136,232,158910,1,0
232,176,159117,1,0
232,176,159220,6,8,L|272:152|312:128|312:88|384:56|384:56|384:56,1,200,12|0
480,64,159841,2,0,L|480:112|440:128|440:168|480:184|480:232|480:232,1,200,12|0
480,264,160358,1,0
480,320,160461,2,4,L|432:320|408:296|368:296|368:296,1,100,12|4
336,296,160772,1,0
280,296,160875,6,0,L|232:200|128:200|128:200,1,200,12|0
136,312,161496,2,0,L|48:312|48:312|48:184|48:184,1,200,12|4
48,144,162013,1,0
48,88,162117,1,8
160,88,162324,1,0
272,88,162530,6,0,L|376:88|376:88|464:144,1,200,12|0
456,248,163151,2,0,L|376:304|264:304|264:304|264:304,1,200,12|0
272,192,163772,1,8
216,192,163875,1,0
160,192,163979,1,0
104,192,164082,1,0
48,192,164186,6,0,L|48:264|104:304|168:304|168:304,1,200,12|0
216,304,164703,1,0
272,304,164806,2,0,L|312:304|336:272|384:272|424:272|440:232|440:232,1,200,12|0
448,192,165324,1,0
464,136,165427,1,8
488,24,165634,1,0
376,24,165841,2,0,L|312:24|312:80|240:136|200:120|144:120|144:120,2,300,12|12|4
376,136,167289,1,0
376,192,167392,1,0
376,248,167496,1,4
264,248,167910,6,0,L|248:280|216:280|216:280,1,50,0|4
152,280,168427,1,0
120,280,168530,1,0
64,280,168737,1,4
64,200,169048,5,0
88,192,169151,1,4
136,176,169358,1,0
192,160,169565,1,0
240,144,169772,2,0,L|344:144|352:144,1,100,4|0
392,144,170392,1,4
384,256,170806,6,0,L|368:312|304:312|304:312,1,100,4|0
272,312,171427,2,0,L|240:312|208:336|160:336,1,100,4|0
128,336,172048,1,4
48,336,172358,5,0
48,304,172461,1,4
48,248,172668,1,0
80,200,172875,1,0
112,152,173082,2,0,L|136:120|176:120|200:152|240:152,1,150,4|4
336,152,174117,5,4
392,152,174324,1,0
416,152,174427,1,0
440,152,174530,1,0
496,152,174737,1,4
496,232,175048,1,0
496,256,175151,1,0
440,256,175358,1,4
360,256,175668,5,0
336,248,175772,1,4
280,232,175979,1,0
224,216,176186,1,0
168,200,176392,1,4
256,192,176599,12,4,178668
200,40,179082,5,4
312,40,179496,1,4
256,136,179910,1,4
227,183,180117,1,4
283,183,180324,1,4
256,232,180530,1,4
256,256,180634,1,0
256,280,180737,1,4
