osu file format v6

[General]
AudioFilename: The Prodigy - We Are The Ruffest (Short Ver.).mp3
AudioLeadIn: 0
PreviewTime: 99480
Countdown: 0
SampleSet: Soft
StackLeniency: 1
Mode: 0
LetterboxInBreaks: 1
SkinPreference:Default

[Editor]
Bookmarks: 324,13565,26806,43358,48324,59910,68186,74806,94668,101289,112875,127772,141013,154255,180737
DistanceSpacing: 1.04999995231628
BeatDivisor: 8
GridSize: 8

[Metadata]
Title:We Are The Ruffest
Artist:The Prodigy
Creator:whymeman
Version:Ruffest
Source:
Tags:The Prodigy We Are The Ruffest NachoPiggy Shinde

[Difficulty]
HPDrainRate:6
CircleSize:5
OverallDifficulty:8
SliderMultiplier:1.2
SliderTickRate:1

[Events]
//Background and Video events
0,0,"[Ruffest].jpg"
//Break Periods
2,43558,47574
2,68386,74056
2,94868,100539
2,141212,153505
//Storyboard Layer 0 (Background)
Sprite,Background,Centre,"Warning SB\Kiai Dynamic Screen2.PNG",320,240 F,0,99427,99634,0,1 F,0,99634,127358,1 M,0,99427,127772,320,240 F,0,127358,127772,1,0
Sprite,Background,Centre,"Warning SB\Kiai Dynamic Screen2.PNG",320,240 M,0,152392,,320,240 F,0,152392,152599,0,1 F,0,152599,167082,1 M,0,152392,167496,320,240 F,0,167082,167496,1,0
Sprite,Background,Centre,"Warning SB\Kiai Dynamic Screen2 (Flash).PNG",320,240 F,0,99427,99634,0,1 M,0,99427,100048,320,240 S,0,99427,100048,1,1.264 F,0,99634,100048,1,0
Sprite,Background,Centre,"Warning SB\Kiai Dynamic Screen2 (Flash).PNG",320,240 F,0,99427,99634,0,1 M,0,99427,100048,320,240 S,0,99427,100048,1,1.128 F,0,99634,100048,1,0
Sprite,Background,Centre,"Warning SB\Kiai Dynamic Screen2 (Flash).PNG",320,240 F,0,152392,152599,0,1 M,0,152392,153013,320,240 S,0,152392,153013,1,1.128 F,0,152599,153013,1,0
Sprite,Background,Centre,"Warning SB\Kiai Dynamic Screen2 (Flash).PNG",320,240 F,0,152392,152599,0,1 M,0,152392,153013,320,240 S,0,152392,153013,1,1.264 F,0,152599,153013,1,0
Sprite,Background,Centre,"SB Objects\Dynamic Shade Screen.PNG",320,240 M,0,73151,,320,240 F,0,73151,74392,0,1 F,0,74392,99427,1 F,0,99427,,1 F,0,99427,,1 M,0,73151,99841,320,240 F,0,99427,99841,1,0
//Storyboard Layer 1 (Fail)
Animation,Fail,Centre,"Warning SB\Taking Damage Warning-.png",320,240,8,500,LoopForever F,0,13151,13565,0,1 F,0,13565,43306,1 F,0,43306,43358,1,0 F,0,43358,48272,0,0.03576966 F,0,48272,48324,0.03576966,1 F,0,48324,68134,1 F,0,68134,68186,1,0 F,0,68186,74755,0,0.05836465 F,0,74755,74806,0.05836465,1 F,0,74806,94617,1 F,0,94617,94668,1,0 F,0,94668,101237,0 F,0,101237,101289,0,1 F,0,101289,140961,1 F,0,140961,141013,1,0 F,0,141013,154203,0 F,0,154203,154255,0,1 M,0,13151,180737,204,14 F,0,154255,180737,1
//Storyboard Layer 2 (Pass)
//Storyboard Layer 3 (Foreground)
Sprite,Foreground,Centre,"Warning SB\SpeedUp.png",320,240 M,0,99427,99634,94,242,249,243 F,0,99427,99737,0,1 M,0,99634,100668,249,243,346,243 F,0,99737,100668,1 M,0,100668,,346,243 F,0,100668,,1 M,0,100668,100979,346,243,637,243 F,0,100668,100979,1,0
Sprite,Foreground,Centre,"Warning SB\SpeedUp.png",320,240 M,0,152392,152599,145,243,286,244 F,0,152392,152703,0,1 M,0,152599,153635,286,244,382,244 F,0,152703,153635,1 F,0,153635,,1 M,0,153635,153841,382,244,603,244 F,0,153635,153841,1,0.03199997 M,0,153841,,603,244
Sprite,Foreground,Centre,"Warning SB\Slow Down.png",320,240 F,0,165427,165790,0,1 F,0,165790,167032,1 M,0,165427,167289,193,264,429,264 F,0,167032,167289,1,0 M,0,167289,,429,264
//Storyboard Sound Samples
//Background Colour Transformations
3,100,185,2,16

[TimingPoints]
324,413.793103448276,4,2,0,80,1,0
40048,-100,4,1,0,0,0,0
43358,-100,4,2,0,30,0,0
47496,-100,4,1,0,80,0,0
73151,-100,4,2,0,80,0,0
99634,-50,4,1,0,80,0,1
127772,-50,4,1,0,80,0,0
141018,-100,4,1,0,80,0,0
152599,-50,4,1,0,80,0,1
167496,-100,4,1,0,80,0,0

[Colours]
Combo1 : 210,210,210
Combo2 : 132,255,255
Combo3 : 255,193,164
Combo4 : 2,202,172
Combo5 : 6,131,255

[HitObjects]
48,48,13565,2,0,B|120:48|120:48|120:48,1,60,4|0
176,48,13979,1,2
160,112,14186,1,0
160,112,14289,1,0
224,112,14496,1,0
224,112,14599,1,0
240,48,14806,1,2
240,48,14910,1,0
304,48,15117,1,0
304,48,15220,5,0
288,112,15427,1,0
368,48,15634,1,2
432,48,15841,2,0,B|432:176|432:176,1,120
432,232,16461,1,2
432,296,16668,1,0
376,264,16875,6,2,B|192:264|192:264,2,180,2|2|2
376,168,18427,1,0
376,168,18530,1,2
376,104,18737,1,0
320,136,18944,1,0
256,136,19151,2,0,B|128:136|128:136,1,120,2|0
72,136,19772,1,4
72,200,19979,5,0
72,232,20082,1,0
72,264,20186,1,0
72,296,20289,1,0
136,264,20496,5,0
136,296,20599,1,2
200,264,20806,1,0
200,296,20910,1,0
264,264,21117,1,0
264,296,21220,1,0
328,264,21427,1,2
328,296,21530,1,0
392,296,21737,1,0
392,264,21841,2,0,B|392:192|392:192,2,60,0|0|2
392,136,22461,1,0
264,136,22875,5,0
200,144,23082,1,2
136,152,23289,1,0
72,160,23496,1,2
72,224,23703,2,0,B|200:224|200:224,2,120,0|2|0
72,160,24737,1,2
72,96,24944,1,0
136,96,25151,6,0,B|264:96|264:96,3,120,2|0|2|0
320,96,26599,1,0
384,96,26806,5,2
400,160,27013,1,0
408,192,27117,1,0
416,224,27220,1,2
344,192,27427,1,0
352,224,27530,1,0
360,256,27634,1,0
304,280,27841,1,2
248,304,28048,1,2
248,176,28461,5,2
184,168,28668,1,0
152,160,28772,1,0
120,152,28875,1,0
152,96,29082,1,2
120,88,29185,1,0
88,80,29289,1,0
216,112,29496,1,2
216,48,29703,1,2
344,48,30117,6,0,B|416:48|416:48,1,60,2|0
416,80,30427,1,0
424,112,30530,2,0,B|352:112|352:112,1,60,0|2
360,144,30841,1,0
352,176,30944,2,0,B|424:176|424:176,1,60,0|0
472,176,31358,1,2
472,240,31565,1,0
472,304,31772,5,2
440,304,31875,1,0
408,304,31979,1,2
376,304,32082,1,0
344,304,32186,1,2
312,304,32289,1,0
280,304,32392,1,0
248,304,32496,1,0
216,304,32599,1,2
152,304,32806,1,0
88,304,33013,1,2
88,176,33427,5,2
88,240,33634,1,0
120,240,33737,1,0
152,240,33841,1,0
152,112,34048,1,2
184,112,34151,1,0
216,112,34255,1,0
216,240,34461,1,0
280,112,34668,1,2
280,240,34875,1,0
344,112,35082,5,2
344,240,35289,1,0
376,240,35392,1,0
408,240,35496,1,0
408,112,35703,1,2
440,112,35806,1,0
472,112,35910,1,2
472,240,36117,1,0
472,176,36324,1,2
344,176,36737,6,0,B|272:176|272:176,1,60,2|2
272,208,37047,1,0
256,240,37150,2,0,B|184:240|184:240,1,60,2|0
184,272,37461,1,0
168,304,37564,2,0,B|96:304|96:304,1,60,2|0
88,272,37875,1,0
72,240,37979,2,0,B|144:240|144:240,1,60,2|0
144,208,38289,1,0
152,176,38392,6,0,B|224:176|224:176,1,60,2|0
224,144,38703,1,0
232,112,38806,2,0,B|304:112|304:112,1,60,0|2
419,112,39220,1,0
419,240,39427,1,0
291,240,39634,1,2
256,192,40048,12,8,43358
56,88,48324,5,4
120,152,48531,1,0
152,152,48634,1,0
184,152,48738,1,0
240,88,48944,1,0
272,88,49048,1,0
328,152,49255,1,0
360,152,49358,1,0
416,88,49565,1,0
448,88,49668,1,0
448,152,49875,1,0
448,184,49979,6,0,B|448:312|448:312,1,120,4|0
384,304,50599,2,0,B|256:304|256:304,1,120,4|0
264,240,51220,1,4
264,176,51427,1,0
200,176,51634,5,4
168,176,51737,1,0
168,272,51944,1,0
168,240,52048,1,0
72,240,52255,1,0
104,240,52358,1,0
104,176,52565,1,0
104,144,52668,1,0
8,144,52875,1,0
40,144,52979,1,0
40,80,53186,1,0
40,48,53289,6,0,B|232:48|232:48,1,180,4|4
344,48,54324,1,0
280,48,54530,1,4
344,48,54737,1,0
472,48,54944,6,0,B|432:48|432:48,1,30,4|0
440,112,55255,1,0
408,112,55358,1,0
400,176,55565,2,0,B|360:176|360:176,1,30
360,240,55875,1,0
328,240,55979,1,0
320,304,56186,1,0
288,304,56289,1,0
224,304,56496,1,0
192,304,56599,6,0,B|8:304|8:304,2,180,4|4|4
192,272,57944,1,0
192,240,58048,1,0
192,208,58151,1,0
192,176,58255,6,0,B|8:176|8:176,2,180,4|4|4
192,112,59703,1,0
192,48,59910,5,0
224,56,60013,1,0
256,64,60117,1,0
288,72,60220,1,0
320,80,60324,1,4
288,136,60530,1,0
320,144,60634,1,4
288,200,60841,1,0
320,208,60944,1,0
352,216,61048,1,0
384,224,61151,1,4
416,232,61255,1,0
448,240,61358,1,0
480,248,61461,1,0
512,256,61565,5,4
512,160,61875,1,0
512,128,61979,1,0
512,64,62186,2,0,B|384:64|384:64,1,120,4|0
328,64,62806,1,0
232,64,63117,5,0
200,64,63220,1,0
136,64,63427,1,0
200,128,63634,1,0
136,128,63841,2,0,B|16:144|16:144,1,120,4|0
136,192,64461,2,0,B|62:201|62:201,1,60,0|0
76,264,64875,6,0,B|260:264|260:264,1,180,4|4
256,168,65806,1,0
288,168,65910,1,0
352,168,66117,1,0
448,168,66427,5,0
416,168,66530,1,0
352,168,66737,1,0
352,232,66944,1,0
256,192,67151,12,4,68186
448,64,74806,6,0,B|304:64|304:64,1,120,4|0
264,64,75427,1,2
200,64,75634,1,0
136,64,75841,1,0
200,64,76048,1,2
200,128,76255,1,0
200,192,76461,6,0,B|344:192|344:192,1,120,2|0
384,192,77082,1,2
384,128,77289,1,0
384,192,77496,1,0
384,256,77703,1,2
384,320,77910,1,0
320,320,78117,6,2,B|176:320|176:320,1,120,2|0
136,320,78737,1,2
72,320,78944,1,0
72,256,79151,1,0
72,192,79358,1,2
72,128,79565,1,0
72,192,79772,6,0,B|256:192|256:192,2,180,2|2|2
72,256,81220,1,0
72,128,81427,5,4
136,128,81634,1,0
200,128,81841,1,0
264,128,82048,1,2
392,128,82461,2,0,B|312:128|312:128,1,60,0|2
264,128,82875,1,0
200,128,83082,5,2
200,256,83496,2,0,B|200:184|200:184,1,60,0|2
200,128,83910,1,0
200,64,84117,2,0,B|128:64|128:64,1,60,0|2
16,64,84737,5,2
80,64,84944,1,0
80,128,85151,1,0
80,192,85358,1,2
80,256,85565,1,0
80,320,85772,1,0
80,256,85979,1,2
208,256,86392,6,0,B|336:256|336:256,1,120,2|0
208,64,87013,2,0,B|344:64|344:64,1,120,2|0
392,64,87634,1,2
392,128,87841,1,0
392,192,88048,5,2
328,192,88255,1,0
392,192,88461,1,0
456,192,88668,1,2
392,320,89082,1,0
456,320,89289,1,2
392,320,89496,1,0
328,320,89703,5,2
264,320,89910,1,0
328,320,90117,1,0
328,256,90323,1,2
328,128,90737,1,0
328,192,90944,1,2
200,192,91358,5,2
72,192,91772,1,0
136,192,91979,1,2
264,192,92392,1,0
264,128,92599,1,2
264,64,92806,1,0
328,64,93013,5,2
264,64,93220,1,0
200,64,93427,1,0
136,64,93634,1,2
136,128,93841,1,0
136,192,94048,1,0
136,128,94255,1,2
136,192,94461,1,0
136,256,94668,1,2
448,352,101289,5,12
448,224,101496,1,0
320,352,101703,1,8
320,224,101910,1,0
448,96,102117,1,8
320,96,102323,1,0
192,96,102530,1,8
192,96,102634,1,0
64,96,102841,1,0
64,96,102944,5,12
192,224,103151,1,0
64,224,103358,1,8
64,352,103565,1,0
128,352,103668,1,0
192,352,103772,1,8
320,224,103979,1,0
192,224,104186,1,8
192,224,104289,1,0
320,352,104496,1,0
320,352,104599,5,12
192,352,104806,1,0
256,240,105013,1,8
256,240,105117,1,0
384,240,105323,1,0
384,240,105427,1,8
320,136,105634,1,0
192,136,105841,1,8
192,136,105944,1,0
128,240,106151,1,0
128,240,106255,5,12
192,352,106461,1,0
296,280,106668,1,8
305,215,106772,1,0
246,187,106875,1,0
200,233,106979,1,0
232,292,107082,1,12
320,352,107289,1,0
384,240,107496,1,12
384,240,107599,1,0
320,136,107806,1,0
320,136,107910,5,12
192,136,108117,1,0
128,240,108323,1,8
192,352,108530,1,0
256,240,108737,1,8
168,152,108944,1,0
256,64,109151,1,8
256,64,109255,1,0
344,152,109461,1,0
344,152,109565,5,12
256,240,109772,1,0
160,328,109979,1,8
112,328,110082,1,0
64,328,110186,1,0
112,328,110289,1,0
160,328,110392,1,8
256,240,110599,1,0
352,328,110806,1,8
400,328,110910,1,0
448,328,111013,1,0
400,328,111117,1,0
352,328,111220,5,12
256,240,111427,1,0
320,112,111634,1,8
320,240,111841,1,0
192,112,112048,1,8
192,240,112255,1,0
256,112,112461,1,8
256,112,112565,1,0
256,240,112772,1,0
256,240,112875,5,12
360,144,113082,1,4
152,144,113289,1,12
152,336,113496,1,4
360,336,113703,1,12
256,240,113910,1,4
256,112,114117,1,4
192,112,114220,1,0
224,56,114323,1,4
288,56,114427,1,0
320,112,114530,5,12
288,168,114634,1,0
224,168,114737,1,0
192,296,114944,1,8
192,296,115048,1,0
320,296,115255,1,0
320,296,115358,1,8
368,192,115565,1,0
256,112,115772,1,8
256,112,115875,1,0
144,192,116082,1,0
144,192,116186,5,12
32,128,116392,1,0
32,256,116599,1,8
32,256,116703,1,0
144,192,116910,1,0
144,192,117013,1,8
256,256,117220,1,0
368,192,117427,1,8
368,192,117530,1,0
480,256,117737,1,0
480,256,117841,5,12
480,128,118048,1,0
368,64,118255,1,8
368,64,118358,1,0
256,8,118565,1,0
256,8,118668,1,8
144,64,118875,1,0
256,128,119082,1,8
256,128,119186,1,0
256,256,119392,1,0
256,256,119496,5,12
160,352,119703,1,0
352,352,119910,1,8
352,352,120013,1,0
352,168,120220,1,0
352,168,120323,1,8
160,168,120530,1,0
256,256,120737,1,8
256,128,120944,1,0
320,24,121151,5,12
256,24,121255,1,0
192,24,121358,1,0
160,152,121565,1,8
160,152,121668,1,0
256,248,121875,1,0
256,248,121979,1,8
352,152,122186,1,0
256,56,122392,1,8
256,56,122496,1,0
64,56,122806,5,12
192,56,123013,1,0
144,176,123220,1,8
144,176,123323,1,0
256,120,123530,1,0
256,120,123634,1,8
368,176,123841,1,0
320,56,124048,1,8
320,56,124151,1,0
448,56,124358,1,0
448,56,124461,5,12
448,184,124668,1,0
368,288,124875,1,8
368,288,124979,1,0
256,224,125186,1,0
256,224,125289,1,8
144,288,125496,1,0
64,184,125703,1,8
64,184,125806,1,0
144,88,126013,1,0
144,88,126117,1,12
256,152,126323,1,0
368,88,126530,1,12
368,88,126634,1,0
368,272,126944,5,4
368,272,127048,1,0
312,304,127151,1,0
312,304,127255,1,0
256,336,127358,1,4
200,304,127461,1,0
200,304,127565,1,4
144,272,127668,1,0
144,272,127772,5,4
144,144,127979,1,0
144,80,128082,1,0
144,16,128186,1,0
16,16,128392,5,4
16,144,128599,1,0
16,208,128703,1,0
16,272,128806,1,0
144,272,129013,5,4
256,216,129220,1,0
256,152,129323,1,0
256,88,129427,1,0
360,16,129634,5,4
488,16,129841,1,0
488,80,129944,1,0
488,144,130048,1,0
360,144,130255,5,4
360,208,130358,1,0
424,208,130461,1,0
488,208,130565,1,0
488,272,130668,1,0
488,336,130772,1,0
424,336,130875,1,4
296,336,131082,5,4
216,240,131289,1,0
256,192,131392,1,0
296,144,131496,1,0
216,48,131703,5,4
88,48,131910,1,0
120,104,132013,1,0
152,160,132117,1,0
256,192,132323,12,4,133979
256,152,134186,6,0,B|256:184|256:184,4,30,0|0|0|0|4
136,192,134599,1,0
72,192,134703,1,0
8,192,134806,1,0
8,64,135013,5,4
8,192,135220,1,0
8,256,135323,1,0
8,320,135427,1,0
136,320,135634,5,4
136,192,135841,1,0
136,128,135944,1,0
136,64,136048,1,0
256,112,136255,5,4
376,64,136461,1,0
376,128,136565,1,0
376,192,136668,1,0
504,64,136875,5,4
504,192,137082,1,0
504,256,137186,1,0
504,320,137289,1,0
376,320,137496,1,4
256,352,137703,5,4
256,224,137910,1,0
256,160,138013,1,0
256,96,138117,1,0
136,64,138323,5,4
8,64,138530,1,0
56,104,138634,1,0
104,144,138737,1,0
56,256,138944,5,4
152,336,139151,1,0
200,224,139358,1,4
192,96,139565,1,0
256,96,139668,1,0
320,96,139772,1,4
312,224,139979,1,0
256,256,140082,1,0
200,224,140186,1,4
256,336,140392,1,0
256,208,140599,1,4
256,144,140703,1,0
256,80,140806,2,0,B|256:48|256:48,4,30,0|0|0|0|4
192,48,154255,5,12
320,176,154461,1,0
192,304,154668,1,8
320,304,154875,1,0
192,176,155082,1,8
320,48,155289,1,0
448,176,155496,1,8
448,176,155599,1,0
320,304,155806,1,0
320,304,155910,5,12
192,176,156117,1,0
64,48,156323,1,8
64,176,156530,1,0
64,240,156634,1,0
64,304,156737,1,8
192,304,156944,1,0
320,176,157151,1,8
320,176,157255,1,0
192,176,157461,1,0
192,176,157565,5,12
320,304,157772,1,0
448,304,157979,1,8
448,304,158082,1,0
320,176,158289,1,0
320,176,158392,1,8
448,48,158599,1,0
320,48,158806,1,8
320,48,158910,1,0
192,48,159117,1,0
192,48,159220,5,12
256,176,159427,1,0
208,288,159634,1,8
224,352,159737,1,0
288,352,159841,1,0
304,288,159944,1,0
256,248,160048,1,12
128,304,160255,1,0
64,176,160461,1,12
64,176,160565,1,0
128,304,160772,1,0
128,304,160875,5,12
192,176,161082,1,0
64,48,161289,1,8
192,48,161496,1,0
320,176,161703,1,8
192,176,161910,1,0
320,48,162117,1,8
320,48,162220,1,0
448,48,162427,1,0
448,48,162530,5,12
320,176,162737,1,0
448,304,162944,1,8
392,272,163048,1,0
336,304,163151,1,0
280,336,163255,1,0
224,304,163358,1,12
256,176,163565,1,0
288,48,163772,1,12
232,16,163875,1,0
176,48,163979,1,0
120,80,164082,1,0
64,48,164186,5,12
192,176,164392,1,0
64,304,164599,1,8
192,304,164806,1,0
320,176,165013,1,8
192,176,165220,1,0
320,304,165427,1,8
320,304,165530,1,0
448,304,165737,1,0
448,304,165841,5,12
320,176,166048,1,4
448,48,166255,1,12
320,48,166461,1,4
192,48,166668,1,12
256,176,166875,1,4
208,296,167082,1,8
224,360,167185,1,0
288,360,167289,1,4
304,296,167392,1,0
256,256,167496,1,12
56,104,167910,6,0,L|72:72|112:72|112:72,1,60,0|4
192,72,168427,1,0
224,72,168530,1,0
288,72,168737,1,4
384,72,169048,5,0
368,96,169151,1,4
328,144,169358,1,0
288,192,169565,1,0
248,240,169772,2,0,L|352:240|368:240,1,120,4|0
392,184,170392,1,4
496,256,170806,6,0,L|480:312|416:312|416:312,1,120,4|0
352,312,171427,1,4
256,312,171737,1,0
224,312,171841,1,0
160,312,172048,1,4
64,312,172358,5,0
80,288,172461,1,4
64,216,172668,1,0
96,160,172875,1,0
64,104,173082,2,0,L|88:72|128:72|152:104|168:104,1,120,4|0
216,104,173703,1,4
280,104,173910,1,0
216,104,174117,5,4
216,168,174324,1,0
216,200,174427,1,0
216,232,174530,1,0
280,232,174737,1,4
376,232,175048,1,0
376,264,175151,1,0
440,232,175358,1,4
440,136,175668,5,0
440,104,175772,1,4
376,104,175979,1,0
312,104,176186,1,0
376,104,176392,1,4
256,192,176599,12,4,178668
192,40,179082,5,4
320,40,179289,1,0
192,168,179496,1,4
320,168,179703,1,0
192,296,179910,1,4
320,296,180117,1,4
256,200,180324,1,4
256,232,180427,1,0
256,264,180530,1,4
256,296,180634,1,0
256,328,180737,1,4
