osu file format v9

[General]
AudioFilename: The Prodigy - Voodoo People [Pendulum Remix].mp3
AudioLeadIn: 0
PreviewTime: -1
Countdown: 0
SampleSet: Soft
StackLeniency: 0.5
Mode: 0
LetterboxInBreaks: 1

[Editor]
DistanceSpacing: 1.2
BeatDivisor: 4
GridSize: 4

[Metadata]
Title:Voodoo People [Pendulum Remix]
Artist:The Prodigy
Creator:galvenize
Version:Easy
Source:
Tags:

[Difficulty]
HPDrainRate:2
CircleSize:3
OverallDifficulty:2
ApproachRate:4
SliderMultiplier:0.999999999999999
SliderTickRate:1

[Events]
//Background and Video events
0,0,"pendu.jpg"
//Break Periods
2,77031,86545
//Storyboard Layer 0 (Background)
//Storyboard Layer 1 (Fail)
//Storyboard Layer 2 (Pass)
//Storyboard Layer 3 (Foreground)
//Storyboard Sound Samples
//Background Colour Transformations
3,100,163,162,255

[TimingPoints]
969,344.827586206897,4,1,0,60,1,0
10537,-133.333333333333,4,2,0,40,0,0
54675,-133.333333333333,4,1,0,40,0,0

[Colours]
Combo1 : 168,38,41
Combo2 : 255,255,255

[HitObjects]
256,64,10624,1,0
168,88,10969,1,0
228,156,11313,2,0,B|228:276,1,112.499996647239,2|0
440,192,12693,1,2
328,332,13382,5,0
256,276,13727,1,0
184,332,14072,2,0,B|48:332,1,112.499996647239,2|0
64,152,15451,1,2
132,92,15796,1,0
204,148,16141,6,0,B|368:148,1,149.999995529652,0|2
456,60,17348,1,0
392,276,18210,1,2
232,192,18900,6,0,B|128:192,1,74.9999977648258
68,192,19589,1,2
68,100,19934,2,0,B|136:100,1,37.4999988824129
312,192,20969,1,2
164,292,21658,6,0,B|56:292,2,74.9999977648258,0|0|2
300,292,22865,1,0
256,72,23727,1,2
392,192,24417,5,0
300,192,24762,1,0
212,192,25106,1,2
256,272,25451,2,0,B|256:336,1,37.4999988824129
432,340,26313,2,0,B|432:280,1,37.4999988824129,0|2
432,212,26831,1,0
432,124,27175,6,0,B|356:108|356:108|280:108,1,149.999995529652,0|2
148,112,28382,1,0
256,312,29244,1,2
88,248,29934,6,0,B|184:248,1,74.9999977648258
232,188,30624,1,2
296,124,30969,2,0,B|360:124,1,37.4999988824129
256,48,32693,5,0
256,184,33210,1,2
208,260,33555,1,2
300,260,33900,1,2
76,192,35451,5,0
212,192,35969,2,2,B|288:192,2,74.9999977648258
376,308,38210,5,0
376,216,38555,2,2,B|340:172|340:172|340:84,1,112.499996647239
428,120,39417,1,2
68,304,40969,5,0
68,168,41486,1,2
132,104,41831,1,2
196,44,42175,1,2
256,296,43727,6,0,B|168:272|128:188|160:92,1,224.999993294477,0|2
228,72,45106,2,0,B|316:96|356:180|324:276,1,224.999993294477,0|2
248,216,46486,6,0,B|204:184|132:176|88:216|76:288,1,224.999993294477,0|2
160,312,47865,2,0,B|232:292|232:360|384:328,1,224.999993294477,0|2
400,240,49244,6,0,B|416:104,1,112.499996647239,0|2
324,232,50279,1,2
256,176,50624,6,0,B|256:44,1,112.499996647239,2|2
176,176,51658,1,2
112,240,52003,6,0,B|96:104,1,112.499996647239,2|2
28,244,53037,1,2
256,192,53382,12,0,54417
140,96,54762,5,0
100,176,55106,1,0
188,172,55451,2,0,B|296:172,1,74.9999977648258,2|0
308,248,56141,5,0
380,192,56486,1,0
444,128,56831,2,0,B|396:76|396:76|280:76,1,149.999995529652,2|0
52,116,58210,1,2
212,36,58900,5,0
300,36,59244,1,0
256,116,59589,2,0,B|240:176|240:176|308:244,1,149.999995529652,2|0
376,288,60624,5,0
300,332,60969,1,2
212,332,61313,1,0
120,332,61658,6,0,B|120:232,1,74.9999977648258
32,248,62348,2,0,B|32:88,1,149.999995529652,2|0
204,48,63727,1,2
256,220,64417,2,0,B|256:304,2,74.9999977648258,0|0|2
392,104,65796,5,0
340,176,66141,1,0
428,188,66486,2,0,B|480:240,1,74.9999977648258,2|0
396,272,67175,5,0
304,272,67520,1,0
216,268,67865,2,0,B|160:244|160:244|136:192|136:192|136:136,1,149.999995529652,2|0
180,80,68900,5,0
268,68,69244,2,0,B|324:92|324:92|348:144|348:144|348:200,1,149.999995529652,2|0
348,268,70279,5,0
264,232,70624,2,0,B|212:208|212:208|104:208,1,149.999995529652,2|0
232,68,72003,5,2
140,68,72348,1,0
180,148,72693,2,0,B|284:148,2,74.9999977648258,0|0|2
88,144,73727,1,0
108,232,74072,6,0,B|148:288|148:288|256:288,1,149.999995529652,0|2
320,288,75106,1,0
256,192,75451,12,0,76831
256,296,87865,6,0,B|344:272|384:188|352:92,1,224.999993294477,0|2
284,72,89244,2,0,B|196:96|156:180|188:276,1,224.999993294477,0|2
264,216,90624,6,0,B|308:184|380:176|424:216|436:288,1,224.999993294477,0|2
352,312,92003,2,0,B|280:292|280:360|128:328,1,224.999993294477,0|2
136,240,93382,6,0,B|32:264,2,74.9999977648258,0|0|2
200,176,94417,1,0
256,108,94762,2,0,B|256:12,2,74.9999977648258,0|0|2
312,176,95796,5,0
376,240,96142,2,0,B|449:256,2,74.9999977648258,0|0|2
256,192,97348,12,4,98900
