osu file format v9

[General]
AudioFilename: The Prodigy - Smack My Bitch Up (Short Ver.).mp3
AudioLeadIn: 0
PreviewTime: 137690
Countdown: 0
SampleSet: Normal
StackLeniency: 0.7
Mode: 0
LetterboxInBreaks: 1

[Editor]
Bookmarks: 21335,49529,63631,77723,84771,98868,104154,105916,120013,134110,139397,155256,169352,183449,197546,208119
DistanceSpacing: 0.9
BeatDivisor: 4
GridSize: 4

[Metadata]
Title:Smack My Bitch Up
Artist:The Prodigy
Creator:whymeman
Version:Training
Source:
Tags:The Fat of the Land 1996 2002 Zelos Backfire

[Difficulty]
HPDrainRate:2
CircleSize:3
OverallDifficulty:3
ApproachRate:3
SliderMultiplier:1
SliderTickRate:1

[Events]
//Background and Video events
0,0,"Background.jpg"
//Break Periods
2,42239,48088
2,99068,104476
2,134310,139719
2,169552,182009
//Storyboard Layer 0 (Background)
Sprite,Background,Centre,"Story Board\Kiai Dynamic Screen2.png",320,240 F,0,63626,64066,1,0 S,0,63626,64066,1,1.15
Sprite,Background,Centre,"Story Board\Kiai Dynamic Screen2.png",320,240 F,0,63626,64066,1,0 S,0,63626,64066,1,1.28
Sprite,Background,Centre,"Story Board\Kiai Dynamic Screen2.png",320,240 F,0,105916,106357,1,0 S,0,105916,106357,1,1.15
Sprite,Background,Centre,"Story Board\Kiai Dynamic Screen2.png",320,240 F,0,105916,106357,1,0 S,0,105916,106357,1,1.28
Sprite,Background,Centre,"Story Board\Kiai Dynamic Screen2.png",320,240 F,0,141159,141599,1,0 S,0,141159,141599,1,1.15
Sprite,Background,Centre,"Story Board\Kiai Dynamic Screen2.png",320,240 F,0,141159,141599,1,0 S,0,141159,141599,1,1.28
//Storyboard Layer 1 (Fail)
//Storyboard Layer 2 (Pass)
//Storyboard Layer 3 (Foreground)
Sprite,Foreground,Centre,"Story Board\credits.png",320,240 F,0,-7739,-7078,0,1 F,0,-7078,-1021,1 F,0,-1021,190,1,0
Sprite,Foreground,Centre,"Story Board\Credits (2).png",320,240 M,0,-7078,,215,179 F,0,-7078,-5757,0,1 F,0,-5757,-1021,1 F,0,-1021,190,1,0
//Storyboard Sound Samples
//Background Colour Transformations
3,100,128,0,128

[TimingPoints]
190,440.528634361234,4,2,1,100,1,0
49308,-100,4,1,1,80,0,0
63626,-100,4,1,1,80,0,1
77723,-100,4,1,1,80,0,0
104154,-100,4,1,1,80,0,1
134000,-100,4,2,1,100,0,1
134110,-100,4,2,1,100,0,0
139397,-100,4,1,1,80,0,1
169132,-100,4,2,1,80,0,1
169352,-100,4,2,1,100,0,0
208009,-100,4,2,1,5,0,0
211638,-100,4,2,1,100,0,0

[Colours]
Combo1 : 52,188,148
Combo2 : 170,170,170
Combo3 : 226,87,80
Combo4 : 225,170,115
Combo5 : 170,166,217

[HitObjects]
392,136,21335,1,0
476,100,21775,2,8,B|456:32|388:16|336:40|316:76|316:112,1,200
316,172,23097,1,0
396,216,23538,2,8,B|460:240|456:324|428:364|372:368,1,200
340,288,24859,5,0
264,336,25300,2,8,B|204:360|152:364|112:344|60:308,1,200
100,232,26621,1,0
44,164,27062,2,8,B|88:112|160:136|192:172|184:228,1,200
256,276,28383,5,0
328,220,28823,1,8
256,168,29264,2,0,B|288:112|360:136,1,100,0|8
164,92,30585,1,8
96,32,31027,2,0,B|52:92|84:140|112:148,1,100,0|8
76,216,31908,5,0
24,288,32348,2,0,B|80:336|140:284|144:284|144:284,1,100,8|0
196,252,33229,1,8
268,304,33670,2,0,B|316:256|264:188,1,100,0|8
200,172,34551,2,0,B|152:124|204:56,1,100,0|8
268,120,35432,5,0
324,52,35872,2,8,B|360:84|380:136|360:200|320:240|292:248|292:248|292:248,3,200
408,256,38956,5,0
400,344,39397,2,8,B|344:364|280:340|236:304|212:248|212:248,2,200
488,320,41599,1,0
508,232,42039,1,8
248,200,49528,5,4
220,116,49969,2,0,B|184:80|100:68|68:104|68:104,2,150
288,56,51730,1,0
420,84,52392,1,0
416,220,53052,5,4
340,268,53493,1,0
324,132,54154,2,0,B|288:136|244:156|236:176|208:224,1,150
272,288,55256,1,0
148,344,55916,1,0
28,284,56577,5,4
116,260,57018,2,0,B|112:212|96:156|24:132,1,150
144,52,58339,2,0,B|204:88|236:136|236:200|236:200,1,150
252,300,59661,1,0
320,240,60101,6,4,B|376:240|416:208,1,100,4|8
480,148,60982,1,0
392,128,61423,1,8
460,68,61864,2,0,B|416:20|308:8|256:24|220:44|168:84,1,300,0|4
244,136,63626,5,4
268,224,64066,1,0
268,224,64286,2,8,B|220:244|184:220|172:192,1,100,0|0
178,203,64947,1,8
120,132,65388,5,0
16,216,66049,2,8,B|28:300|88:340|144:324,1,150,0|8
192,328,67150,6,4,B|256:332|308:324|348:308,1,150,4|0
420,268,68251,1,0
420,268,68471,1,8
352,208,68912,5,0
404,136,69352,1,0
404,136,69573,2,8,B|268:72,1,150
232,156,70674,6,4,B|188:140|172:104|164:60|188:28,2,150,4|0|8
288,224,72436,5,0
332,352,73097,1,8
252,308,73537,1,0
252,308,73757,1,8
164,324,74198,5,4
164,324,74419,2,0,B|108:336|68:288,1,100,0|0
144,236,75299,1,0
144,236,75519,1,8
232,212,75960,5,4
316,180,76401,2,0,B|316:232,2,50,0|8|4
400,152,77282,1,8
424,240,77722,5,4
460,324,78163,2,0,B|388:356|316:340,1,100,8|0
272,336,79044,1,0
224,260,79485,6,0,B|212:196|280:156,1,100,0|8
336,124,80366,1,0
396,188,80806,1,0
444,264,81247,6,0,B|504:228|500:136|452:100|408:100,3,200,4|0|0|0
340,80,84330,1,8
252,72,84771,6,4,B|200:72|148:84|128:124,1,100,4|8
84,148,85652,1,0
48,232,86093,1,0
136,216,86533,6,0,B|148:276|204:320,1,100,0|8
252,244,87414,1,0
268,332,87855,1,0
344,280,88295,6,0,B|396:228|440:236|472:232|508:200|492:160|484:128,3,200,4|0|4|4
404,148,91379,1,0
468,84,91819,5,4
380,64,92260,2,0,B|332:40|268:32|236:28|168:40,1,200,8|0
104,76,93582,5,0
28,28,94022,2,0,B|0:96|20:152|48:200|116:220,1,200,8|0
160,244,95344,5,4
212,172,95784,1,8
304,172,96225,1,0
372,112,96665,1,8
456,84,97106,2,4,B|480:160|472:212|452:276|396:320|324:336,1,300,4|8
260,352,98868,1,4
244,48,105916,6,4,B|216:44|164:52|132:100|156:172,2,150,4|0|8
240,136,107678,5,0
360,76,108339,2,0,B|400:140|344:208,1,100,0|0
367,171,109000,1,8
416,248,109441,5,4
496,288,109881,1,0
496,288,110101,2,8,B|472:336|432:352|384:344|360:320|344:296,1,150,0|8
288,280,111203,5,0
208,320,111643,1,0
208,320,111864,1,0
132,276,112304,1,0
132,276,112524,1,8
68,204,112965,6,0,B|132:164|180:176|220:224|224:248|224:248,2,150,4|0|8
40,120,114727,5,0
40,120,114947,1,0
108,60,115388,1,0
184,104,115828,1,0
184,104,116049,1,8
240,32,116489,6,0,B|332:44|404:68|440:152|436:248,1,300,4|8
448,308,118251,5,0
360,320,118692,2,0,B|336:340|304:348,2,50,8|0|4
288,264,119573,1,8
372,232,120013,5,4
304,172,120454,1,0
304,172,120674,2,8,B|248:156|204:216,1,100,0|0
214,202,121335,1,8
200,292,121775,6,8,B|148:356|84:348|40:292,1,150,0|0
28,240,122877,1,0
28,240,123097,1,8
116,252,123538,6,0,B|136:208|100:156|64:160,1,100,4|0
87,165,124198,1,0
12,116,124639,2,0,B|36:88|76:80,1,50,0|8
136,60,125300,5,0
136,60,125520,1,0
224,52,125960,1,0
312,68,126401,1,0
312,68,126621,1,8
256,140,127062,6,0,B|304:180|360:148,1,100,4|4
349,153,127723,1,0
428,116,128163,1,0
428,116,128383,1,8
468,196,128824,5,8
468,196,129044,2,0,B|460:264|420:280|420:280,1,100,0|0
344,328,129925,1,0
344,328,130145,1,8
256,192,130586,12,4,134110
100,212,141159,5,4
180,320,141819,2,8,B|231:353|307:321|315:257,1,150,0|8
228,244,142921,5,0
228,244,143141,1,0
196,160,143582,2,0,B|272:128|308:216,1,100,0|0
286,178,144242,1,8
360,232,144684,5,4
400,312,145124,1,0
400,312,145344,1,0
476,260,145784,1,0
476,260,146004,1,8
444,176,146446,5,0
480,48,147106,1,0
400,88,147547,1,0
400,88,147767,1,8
332,28,148207,6,0,B|288:84|304:140|352:180|376:180|376:180,1,150,4|0
332,252,149308,1,0
332,252,149529,1,8
388,320,149969,6,0,B|368:340|336:340,1,50
260,308,150631,1,0
252,220,151071,2,0,B|268:188|296:176,1,50,0|8
376,184,151732,6,0,B|364:92|264:60|168:100|168:208,1,300,4|8
164,276,153494,5,0
88,328,153934,2,0,B|64:348|32:356,4,50,8|0|4|0|8
40,252,155256,5,4
24,164,155697,1,4
24,164,155917,2,8,B|80:148|124:208,1,100,0|0
114,194,156578,1,8
192,148,157018,6,8,B|244:84|308:92|368:96,1,150,8|0
412,112,158120,1,0
412,112,158340,1,8
392,200,158780,5,4
476,228,159220,2,0,B|492:248|492:280,1,50,0|0
404,284,159882,2,0,B|380:312|340:320,1,50,0|8
312,240,160542,5,8
216,336,161203,1,0
128,316,161644,1,0
128,316,161864,1,8
68,248,162305,6,0,B|116:208|172:240,1,100,4|4
161,235,162966,1,0
224,172,163405,2,0,B|232:140|272:128,1,50,0|8
296,216,164067,5,8
296,216,164286,1,0
339,294,164727,2,0,B|336:296|392:280|384:212,1,100,0|0
384,214,165388,1,8
256,192,165828,12,4,168471
256,188,169352,5,4
52,96,183449,6,0,B|108:136|204:140|168:20|316:0|428:84,1,400
480,248,186093,1,2
300,232,186974,6,0,B|260:200|168:172|128:240|100:268|100:268,3,200,0|2|0|2
276,336,190498,5,0
444,268,191379,1,0
476,92,192260,2,0,B|396:40|268:60|268:60|268:60,1,200,0|2
108,96,194022,5,0
240,216,194903,1,0
60,192,195784,2,0,B|64:248|120:288|144:328|200:336,1,200,0|2
368,320,197546,6,0,B|384:284|480:260|468:204|460:172,1,150
416,84,198868,1,2
336,48,199308,6,0,B|304:64|300:96|260:128|196:156,1,150
136,40,200630,1,2
76,108,201071,5,0
80,244,201731,2,0,B|132:292|140:256|176:216|232:236,1,150,0|2
300,268,202833,6,0,B|328:248|364:240|364:308|416:304|444:272,2,150,0|0|2
284,180,204595,5,0
184,92,205256,1,0
316,64,205916,1,2
388,116,206357,6,0,B|424:180|396:272|344:304|292:324|212:320,1,300,0|2
256,192,208119,12,4,211643
