osu file format v9

[General]
AudioFilename: The Prodigy - Smack My Bitch Up (Short Ver.).mp3
AudioLeadIn: 0
PreviewTime: 137690
Countdown: 0
SampleSet: Normal
StackLeniency: 0.3
Mode: 0
LetterboxInBreaks: 1

[Editor]
Bookmarks: 21335,42040,49529,56577,63631,77723,84771,91819,98868,104154,105916,118251,120013,134110,139397,153493,155256,169352,183449,197546,208119
DistanceSpacing: 1
BeatDivisor: 4
GridSize: 4

[Metadata]
Title:Smack My Bitch Up
Artist:The Prodigy
Creator:whymeman
Version:Fighting
Source:
Tags:The Fat of the Land 1996 2002 Zelos Backfire

[Difficulty]
HPDrainRate:4
CircleSize:5
OverallDifficulty:7
ApproachRate:8
SliderMultiplier:1.5
SliderTickRate:1

[Events]
//Background and Video events
0,0,"Background.jpg"
//Break Periods
2,42243,48778
2,99072,105166
2,134314,140409
2,169556,182699
//Storyboard Layer 0 (Background)
Sprite,Background,Centre,"Story Board\Kiai Dynamic Screen2.png",320,240 F,0,63626,64066,1,0 S,0,63626,64066,1,1.15
Sprite,Background,Centre,"Story Board\Kiai Dynamic Screen2.png",320,240 F,0,63626,64066,1,0 S,0,63626,64066,1,1.28
Sprite,Background,Centre,"Story Board\Kiai Dynamic Screen2.png",320,240 F,0,105916,106357,1,0 S,0,105916,106357,1,1.15
Sprite,Background,Centre,"Story Board\Kiai Dynamic Screen2.png",320,240 F,0,105916,106357,1,0 S,0,105916,106357,1,1.28
Sprite,Background,Centre,"Story Board\Kiai Dynamic Screen2.png",320,240 F,0,141159,141599,1,0 S,0,141159,141599,1,1.15
Sprite,Background,Centre,"Story Board\Kiai Dynamic Screen2.png",320,240 F,0,141159,141599,1,0 S,0,141159,141599,1,1.28
//Storyboard Layer 1 (Fail)
//Storyboard Layer 2 (Pass)
//Storyboard Layer 3 (Foreground)
Sprite,Foreground,Centre,"Story Board\credits.png",320,240 F,0,-7739,-7078,0,1 F,0,-7078,-1021,1 F,0,-1021,190,1,0
Sprite,Foreground,Centre,"Story Board\Credits (2).png",320,240 M,0,-7078,,215,179 F,0,-7078,-5757,0,1 F,0,-5757,-1021,1 F,0,-1021,190,1,0
Sprite,Foreground,Centre,"Story Board\SpeedUp.png",320,240 M,0,62084,62304,339,18,338,232 M,0,62304,63626,338,232,338,271 F,0,63626,63956,1,0 S,0,63626,63956,1,2.28256 S,0,63956,,2.28256
Sprite,Foreground,Centre,"Story Board\SpeedUp.png",320,240 M,0,103934,104154,339,18,338,232 F,0,103934,104154,0,1 M,0,104154,105916,339,232,338,271 F,0,104154,105916,1 F,0,105916,106247,1,0 S,0,105916,106247,1,2.28256 S,0,106247,,2.28256
Sprite,Foreground,Centre,"Story Board\Slow Down.png",320,240 F,0,75960,76181,0,1 M,0,75960,77943,320,240,321,289 F,0,76181,77723,1 F,0,77723,77943,1,0
Sprite,Foreground,Centre,"Story Board\Slow Down.png",320,240 F,0,75960,76181,1,0 S,0,75960,76181,1,1.25
Sprite,Foreground,Centre,"Story Board\SpeedUp.png",320,240 M,0,139176,139397,339,18,338,232 F,0,139176,139397,0,1 M,0,139397,141159,339,232,338,271 F,0,139397,141159,1 F,0,141159,141489,1,0 S,0,141159,141489,1,2.28256
Sprite,Foreground,Centre,"Story Board\Slow Down.png",320,240 F,0,167590,167811,0,1 M,0,167590,169352,320,240,321,289 F,0,167811,169352,1 F,0,169352,169573,1,0
Sprite,Foreground,Centre,"Story Board\Slow Down.png",320,240 F,0,167590,167811,1,0 S,0,167590,167811,1,1.25
//Storyboard Sound Samples
//Background Colour Transformations
3,100,128,0,128

[TimingPoints]
190,440.528634361234,4,2,1,100,1,0
49308,-100,4,1,1,80,0,0
49639,-100,4,2,1,100,0,0
49859,-100,4,1,1,80,0,0
50740,-100,4,2,1,100,0,0
50905,-100,4,1,1,80,0,0
52502,-100,4,2,1,100,0,0
52667,-100,4,1,1,80,0,0
53163,-100,4,2,1,100,0,0
53383,-100,4,1,1,80,0,0
54264,-100,4,2,1,100,0,0
54485,-100,4,1,1,80,0,0
56082,-100,4,2,1,100,0,0
56192,-100,4,1,1,80,0,0
56797,-100,4,2,1,100,0,0
57568,-100,4,1,1,80,0,0
59551,-100,4,2,1,100,0,0
59716,-100,4,1,1,80,0,0
61313,-100,4,2,1,100,0,0
61478,-100,4,1,1,80,0,0
63130,-100,4,2,1,100,0,0
63240,-100,4,1,1,80,0,0
63626,-50,4,1,1,80,0,1
70784,-50,4,2,1,100,0,1
71004,-50,4,1,1,80,0,1
74308,-50,4,2,1,100,0,1
74529,-50,4,1,1,80,0,1
77723,-50,4,1,1,80,0,0
77778,-100,4,1,1,80,0,0
104154,-50,4,1,1,80,0,1
106027,-50,4,2,1,100,0,1
106247,-50,4,1,1,80,0,1
113075,-50,4,2,1,100,0,1
113295,-50,4,1,1,80,0,1
121886,-50,4,2,1,100,0,1
122106,-50,4,1,1,80,0,1
127172,-50,4,2,1,100,0,1
127392,-50,4,1,1,80,0,1
134055,-50,4,2,1,100,0,1
134110,-50,4,2,1,100,0,0
134165,-100,4,1,1,80,0,0
139397,-50,4,1,1,80,0,1
141269,-50,4,2,1,100,0,1
141489,-50,4,1,1,80,0,1
143031,-50,4,2,1,100,0,1
143251,-50,4,1,1,80,0,1
144793,-50,4,2,1,100,0,1
145013,-50,4,1,1,80,0,1
146555,-50,4,2,1,100,0,1
146775,-50,4,1,1,80,0,1
148317,-50,4,2,1,100,0,1
148538,-50,4,1,1,80,0,1
150079,-50,4,2,1,100,0,1
150300,-50,4,1,1,80,0,1
151841,-50,4,2,1,100,0,1
152062,-50,4,1,1,80,0,1
155366,-50,4,2,1,100,0,1
155586,-50,4,1,1,80,0,1
157128,-50,4,2,1,100,0,1
157348,-50,4,1,1,80,0,1
158890,-50,4,2,1,100,0,1
159110,-50,4,1,1,80,0,1
160652,-50,4,2,1,100,0,1
160872,-50,4,1,1,80,0,1
162414,-50,4,2,1,100,0,1
162634,-50,4,1,1,80,0,1
164176,-50,4,2,1,100,0,1
164397,-50,4,1,1,80,0,1
165938,-50,4,2,1,100,0,1
166159,-50,4,1,1,80,0,1
169242,-50,4,2,1,100,0,1
169352,-50,4,2,1,100,0,0
169408,-100,4,1,1,80,0,0
182568,-100,4,2,1,100,0,0
208009,-100,4,1,1,80,0,0
208229,-100,4,2,1,100,0,0
208890,-100,4,1,1,80,0,0
209110,-100,4,2,1,100,0,0
209771,-100,4,1,1,80,0,0
209991,-100,4,2,1,100,0,0
210212,-100,4,1,1,80,0,0
210432,-100,4,2,1,100,0,0
210652,-100,4,1,1,80,0,0
210872,-100,4,2,1,100,0,0
211093,-100,4,1,1,80,0,0
211313,-100,4,2,1,100,0,0
211753,-100,4,1,1,80,0,0

[Colours]
Combo1 : 52,188,148
Combo2 : 170,170,170
Combo3 : 226,87,80
Combo4 : 225,170,115
Combo5 : 170,166,217

[HitObjects]
432,48,21335,1,0
376,100,21555,1,0
392,172,21775,1,8
504,272,22216,2,0,B|472:336|472:336|384:336|384:336,1,150,0|8
244,336,23097,1,0
92,336,23538,2,0,B|108:264|108:264|188:264|188:264,1,150,8|0
260,264,24198,1,0
224,200,24419,1,8
364,144,24859,5,0
344,292,25300,2,0,B|372:292|372:292|396:316|396:316|448:316|448:316|464:268|464:268,1,150,8|0
480,208,25960,1,0
444,140,26181,1,8
320,52,26621,1,0
392,64,26841,1,0
344,124,27062,2,0,B|304:156|304:156|280:156|280:156|264:140|264:140|200:140|200:140,1,150,8|0
60,140,27943,1,8
160,28,28383,5,0
148,176,28823,1,8
28,264,29264,2,0,B|48:300|48:300|88:300|88:300,1,75
156,300,29705,1,8
292,236,30145,1,0
280,312,30366,1,0
352,288,30585,1,8
472,196,31027,2,0,B|444:128|444:128|360:128|360:128,1,150,0|8
216,128,31908,5,0
152,264,32348,2,0,B|236:264|236:264|268:200|268:200,1,150,8|0
292,136,33009,1,0
272,64,33229,1,8
120,64,33670,2,0,B|84:64|84:64|60:100|60:100,1,75
124,136,34110,1,8
124,288,34551,1,0
64,332,34771,2,0,B|92:364|92:364|128:364|128:364,1,75,0|8
276,364,35432,5,0
344,228,35872,2,8,B|304:164|304:164|252:164|252:164|224:196|224:196|140:196|140:196|100:156|100:156,1,300
12,48,37194,1,0
160,48,37634,2,0,B|196:76|196:76|236:76|236:76|268:108|268:108|304:108|304:108,1,150,8|0
364,108,38295,1,0
412,164,38515,1,8
476,28,38956,5,0
480,180,39397,2,0,B|480:224|480:224|456:252|456:252|436:252|436:252|412:280|412:280|380:280|380:280,1,150,8|0
324,280,40057,1,0
360,348,40278,1,8
212,348,40718,1,0
288,348,40938,1,0
252,280,41159,2,0,B|208:232|208:232|120:232|120:232,1,150,8|0
48,232,41819,1,0
84,168,42039,1,8
328,216,49528,5,4
376,156,49749,1,2
304,140,49969,2,0,B|272:84|272:84|224:84|224:84|184:116|184:116|128:160|128:160,1,225
80,204,50850,1,8
80,204,50960,1,0
148,296,51291,2,0,B|204:356|204:356|296:356|296:356,1,150
384,356,52062,1,0
384,356,52172,1,0
328,308,52392,1,0
372,248,52612,1,8
372,248,52723,1,0
476,288,53052,5,4
440,220,53273,1,2
508,184,53493,2,0,B|508:148|508:148|480:120|480:120|380:120|380:120|328:152|328:152,1,225
272,184,54375,1,8
300,76,54705,1,0
300,76,54815,1,0
232,108,55035,1,0
164,72,55256,1,0
188,180,55586,1,0
188,180,55696,1,0
112,188,55916,2,0,B|112:224|112:224|152:256|152:256,1,75,0|8
142,248,56247,1,0
236,308,56577,5,4
364,232,57018,1,0
292,248,57238,1,0
248,188,57458,1,2
316,160,57678,6,0,B|292:108|292:108|220:108|220:108,1,112.5
124,108,58339,2,0,B|80:108|80:108|36:148|36:148|36:212|36:212,1,150
36,308,59110,1,0
36,308,59220,1,0
104,280,59441,1,0
152,336,59661,1,8
152,336,59771,1,0
236,264,60101,6,0,B|268:240|268:240|348:240|348:240|388:208|388:208,1,150,4|0
488,128,60982,1,0
460,56,61203,1,0
392,84,61423,1,8
392,84,61533,1,0
416,196,61864,2,0,B|344:196|344:196|284:132|284:132,1,150
192,28,62745,1,0
116,32,62965,2,0,B|60:120|60:120,1,75,0|8
75,95,63295,1,0
112,316,63626,5,4
336,116,64066,1,0
460,200,64286,2,0,B|488:220|488:220|488:324|488:324|448:352|448:352|328:352|328:352,1,300,8|0
184,352,64947,1,8
260,224,65167,1,0
116,188,65388,5,8
380,48,65828,1,0
492,148,66049,2,0,B|448:212|448:212,3,75,8|0|0|0
449,209,66489,2,0,B|407:271|407:271|315:271|315:271,1,150,0|8
184,272,66930,1,0
296,172,67150,6,0,B|256:96|256:96|124:96|124:96|84:172|84:172,1,300,4|0
16,300,67811,1,8
140,212,68031,1,0
176,356,68251,1,0
308,288,68471,1,8
472,36,68912,5,8
172,36,69352,1,0
92,164,69573,2,0,B|32:240,4,75,8|0|0|0|0
172,36,70234,1,8
216,180,70454,1,0
140,308,70674,6,0,B|236:308|236:308|288:252|288:252,1,150,4|2
368,152,71115,1,0
380,300,71335,1,8
368,152,71555,1,0
480,252,71775,2,0,B|424:220|424:220|320:220|320:220,1,150,0|8
188,224,72216,1,0
256,92,72436,5,0
52,312,72877,2,0,B|84:368|84:368|136:368|136:368|172:344|172:344,1,150,0|8
288,268,73317,1,0
356,236,73427,1,0
308,176,73537,1,0
180,100,73757,1,8
92,220,73978,1,0
48,76,74198,5,4
160,172,74419,2,0,B|188:200|188:200|188:308|188:308|248:352|248:352|328:352|328:352,1,300,2|8
476,352,75079,1,0
508,284,75190,1,0
444,248,75299,1,0
480,104,75519,1,8
336,144,75740,1,0
480,180,75960,5,12
388,60,76181,1,0
256,132,76401,2,0,B|256:208,4,75,0|0|8|0|0
332,264,77062,1,0
180,264,77282,1,8
144,120,77502,1,0
28,212,77722,5,4
72,356,78163,2,0,B|152:356|152:356,1,75,8|0
224,356,78604,1,0
260,288,78824,1,0
260,288,78934,1,0
220,224,79154,1,0
220,224,79264,1,0
264,164,79485,6,0,B|320:96|320:96|392:96|392:96,1,150,0|8
456,96,80145,1,0
500,156,80366,1,0
432,184,80586,1,0
432,184,80696,1,0
460,252,80916,1,0
460,252,81027,1,0
416,312,81247,6,0,B|372:364|372:364|272:364|272:364,1,150,4|8
312,292,81908,1,0
236,292,82128,1,0
264,220,82348,2,0,B|180:220|180:220|116:280|116:280,1,150
76,316,83009,5,0
12,180,83449,2,0,B|44:156|44:156|92:156|92:156,1,75,8|0
156,156,83890,2,0,B|196:156|196:156|228:120|228:120,1,75
219,129,84220,1,0
160,84,84441,1,0
160,84,84551,1,0
232,56,84771,6,0,B|272:36|272:36|328:36|328:36|376:80|376:80,1,150,4|8
476,172,85652,1,0
424,228,85872,1,0
424,228,85982,1,0
468,288,86203,1,0
468,288,86313,1,0
404,328,86533,6,0,B|320:328|320:328|276:280|276:280,1,150,0|8
224,224,87194,1,0
256,156,87414,1,0
180,148,87634,1,0
180,148,87745,1,0
216,80,87965,1,0
216,80,88075,1,0
148,44,88295,6,0,B|72:44|72:44|44:116|44:116,1,150,4|8
20,184,88956,1,0
36,256,89176,2,0,B|60:336|60:336|144:336|144:336,1,150
120,184,90057,1,4
272,184,90498,2,0,B|192:184,2,75,8|0|4
324,128,91159,1,0
324,128,91269,1,0
324,128,91379,2,0,B|384:64|384:64,1,75
424,16,91819,5,4
484,156,92260,2,0,B|504:200|504:200|504:264|504:264|480:308|480:308,1,150,8|0
448,364,92921,1,0
448,364,93031,1,0
372,364,93251,1,0
372,364,93361,1,0
408,300,93582,5,0
264,344,94022,2,0,B|264:280|264:280|336:232|336:232|336:136|336:136,1,225,8|0
336,84,94903,1,0
204,160,95344,5,4
100,52,95784,1,8
116,124,96004,1,0
64,180,96225,1,0
212,200,96665,1,8
160,256,96886,1,0
160,256,96996,1,0
160,256,97106,6,0,B|176:284|176:284|244:284|244:284|260:268|260:268|292:268|292:268,1,150,4|8
364,268,97767,1,0
424,224,97987,2,0,B|440:212|440:212|440:160|440:160|404:124|404:124|368:124|368:124|368:124|368:124,1,150,0|8
300,124,98648,1,0
300,124,98758,1,0
300,124,98868,1,4
144,289,105916,5,4
296,289,106137,1,2
372,161,106357,2,0,B|372:77|372:77|320:9|320:9|252:9|252:9|196:73|196:73|196:73,1,300,0|8
112,169,107018,1,0
112,169,107128,1,0
48,33,107348,1,0
48,33,107458,1,0
172,117,107678,6,0,B|232:161|232:161|196:229|196:229|236:265|236:265|356:265|356:265,1,300,4|0
480,265,108339,1,0
352,345,108560,1,8
380,197,108780,1,0
380,197,108890,1,0
304,69,109110,1,0
304,69,109220,1,0
456,69,109441,6,0,B|396:69|396:69|344:137|344:137|264:137|264:137|204:69|204:69|136:69|136:69|92:125|92:125,1,450,4|0
4,241,110322,1,8
100,357,110542,2,0,B|140:357|140:357|164:305|164:305|164:301,1,75
216,189,110872,1,0
216,189,110982,1,0
280,57,111203,6,0,B|304:5|304:5|392:5|392:5|428:53|428:53|428:129|428:129|408:149|408:149|408:177|408:177|428:197|428:197|428:241|428:241|384:269|384:269,1,450,4|0
308,361,112084,1,8
192,265,112304,1,0
192,265,112414,2,0,B|164:241|164:241|164:161|164:161|140:133|140:133,1,150
142,135,112745,1,0
36,29,112965,5,4
48,177,113185,1,2
124,49,113405,1,0
276,49,113626,2,0,B|364:49|364:49|392:113|392:113,1,150,0|8
444,245,114066,1,0
444,245,114176,1,0
388,105,114397,1,0
388,105,114507,1,0
444,245,114727,6,0,B|416:265|416:265|380:265|380:265|356:245|356:245|280:245|280:245|248:305|248:305|176:305|176:305,1,300,4|0
44,305,115388,2,0,B|20:293|20:293|20:225|20:225|84:197|84:197,1,150,0|8
208,141,115828,1,0
208,141,115938,2,0,B|256:121|256:121|256:73|256:73|196:53|196:53,1,150
208,57,116269,1,0
84,141,116489,6,0,B|48:165|48:165|48:201|48:201|80:233|80:233|124:233|124:233|160:269|160:269|228:269|228:269|264:233|264:233|320:233|320:233|352:189|352:189,1,450,4|0
440,65,117370,2,0,B|460:37|460:37|492:37|492:37|512:69|512:69|512:133|512:133,1,150,8|0
512,114,117701,1,0
396,205,117921,1,0
396,205,118031,1,0
252,253,118251,6,0,B|164:281|164:281|164:365|164:365,1,150,4|0
315,149,118692,2,0,B|315:233|315:233|251:253|251:253,1,150,8|0
315,34,119132,2,0,B|343:46|343:46|343:98|343:98|315:114|315:114|315:150|315:150,1,150
96,93,119573,1,8
315,34,119793,1,0
96,93,120013,6,4,B|148:133|148:133|148:197|148:197|108:225|108:225|108:261|108:261|144:293|144:293|204:293|204:293,1,300
332,293,120674,2,0,B|364:293|364:293|380:317|380:317|416:317|416:317|432:293|432:293|432:245|432:245,1,150,0|8
432,117,121115,2,0,B|432:73|432:73|388:61|388:61|388:61,1,75
260,21,121445,2,0,B|216:21|216:21|184:49|184:49,1,75
88,149,121775,5,4
240,149,121996,2,0,B|260:165|260:165|260:237|260:237|196:261|196:261,1,150,2|0
68,305,122436,1,0
164,189,122656,1,8
216,329,122877,1,0
216,329,122987,1,0
364,305,123207,1,0
364,305,123317,1,0
288,173,123538,6,0,B|260:125|260:125|260:85|260:85|236:61|236:61|168:61|168:61|104:101|104:101|104:133|104:133,1,300,4|0
104,277,124198,1,0
244,329,124419,2,0,B|280:341|280:341|316:341|316:341|348:309|348:309|384:277|384:277,1,150,8|0
371,288,124749,1,0
480,185,124969,1,0
480,185,125079,1,0
336,141,125300,6,0,B|280:125|280:125|280:85|280:85|324:57|324:57|324:37|324:37|284:13|284:13|240:13|240:13|204:49|204:49|100:49|100:49|80:109|80:109,1,450,4|0
52,229,126181,1,8
180,149,126401,1,0
180,149,126511,1,0
148,297,126731,1,0
148,297,126841,1,0
292,337,127062,6,0,B|332:349|332:349|404:349|404:349|428:309|428:309,1,150,4|2
496,189,127502,2,0,B|496:113|496:113|476:85|476:85|396:85|396:85,1,150,4|0
284,85,127943,1,8
152,153,128163,2,0,B|132:165|132:165|132:193|132:193|104:225|104:225,1,75
12,317,128493,1,0
12,317,128604,1,0
156,353,128824,6,0,B|184:341|184:341|184:305|184:305|164:273|164:273|84:273|84:273|28:229|28:229|28:165|28:165,1,300,4|0
28,33,129485,1,0
140,133,129705,1,8
280,77,129925,1,0
280,77,130035,1,0
412,153,130256,1,0
412,153,130366,1,0
268,201,130586,6,0,B|232:213|232:213|232:249|232:249|312:289|312:289|312:329|312:329|264:361|264:361|188:361|188:361|152:345|152:345|152:309|152:309|120:285|120:285,1,450,4|0
4,197,131467,1,8
68,61,131687,1,0
68,61,131797,2,0,B|100:61|100:61|116:93|116:93|140:93|140:93|156:77|156:77|200:77|200:77,1,150
191,77,132128,1,0
304,177,132348,6,0,B|336:205|336:205|392:205|392:205|440:141|440:141,1,150,4|0
212,253,132789,2,0,B|212:205|212:205|244:177|244:177|304:177|304:177,1,150,8|0
112,328,133229,2,0,B|148:308|148:308|196:308|196:308|212:288|212:288|212:224|212:224,1,150,0|0
12,260,133670,2,0,B|12:300|12:300|44:328|44:328|132:328|132:328,1,150,8|0
12,128,134110,1,4
244,212,141159,5,4
144,104,141379,1,2
284,52,141599,2,0,B|316:40|316:40|344:40|344:40|376:72|376:72|376:124|376:124,1,150
376,264,142040,1,8
484,160,142260,1,0
484,160,142370,1,0
340,192,142590,1,0
340,192,142701,1,0
448,296,142921,5,4
308,348,143141,2,0,B|284:328|284:328|284:300|284:300|308:280|308:280|308:252|308:252|268:216|268:216|268:156|268:156|244:124|244:124|200:124|200:124,1,300,2|0
64,124,143802,1,8
184,32,144022,1,0
184,32,144132,1,0
140,176,144352,1,0
140,176,144463,1,0
80,40,144683,6,0,B|72:20|72:20|32:20|32:20|0:44|0:44|0:112|0:112,1,150,4|2
0,244,145123,1,0
136,312,145344,2,0,B|164:324|164:324|204:324|204:324|232:300|232:300|232:244|232:244,1,150,0|8
232,108,145784,1,0
232,108,145894,1,0
336,216,146115,1,0
336,216,146225,1,0
188,188,146445,6,0,B|260:188|260:188|296:148|296:148|344:148|344:148,1,150,4|2
472,148,146886,1,0
352,60,147106,2,0,B|376:24|376:24|428:24|428:24,2,75,0|0|8
408,200,147546,1,0
408,200,147656,1,0
468,64,147877,1,0
468,64,147987,1,0
340,144,148207,6,0,B|296:168|296:168|240:168|240:168|200:192|200:192,1,150,4|2
72,268,148648,1,0
220,276,148868,1,0
92,196,149088,1,8
164,328,149308,1,0
164,328,149419,1,0
312,328,149639,2,0,B|352:328|352:328|372:296|372:296,1,75
440,164,149969,6,0,B|456:136|456:136|456:112|456:112|432:92|432:92|432:72|432:72|416:56|416:56|380:56|380:56,1,150,4|2
244,56,150410,1,0
320,184,150630,2,0,B|336:204|336:204|336:248|336:248|320:268|320:268|280:268|280:268|260:244|260:244,1,150,0|8
180,136,151071,1,0
180,136,151181,1,0
32,136,151401,1,0
32,136,151511,1,0
116,260,151731,6,0,B|164:324|164:324|256:324|256:324,1,150,4|2
384,324,152172,1,0
468,200,152392,2,0,B|492:164|492:164|492:128|492:128|468:96|468:96|428:96|428:96,1,150,0|8
288,96,152833,1,0
288,96,152943,1,0
360,228,153163,1,0
360,228,153273,1,0
212,228,153493,6,0,B|148:284|148:284|148:372|148:372,1,150,4|0
212,228,153934,2,0,B|148:172|148:172|148:84|148:84,1,150,8|0
212,228,154375,2,0,B|60:228,1,150,4|0
212,228,154815,2,0,B|292:228,3,75,8|0|0|0
364,228,155256,6,0,B|404:204|404:204|404:148|404:148|364:124|364:124,1,150,4|2
228,56,155696,1,0
376,32,155916,1,0
268,140,156137,1,8
132,76,156357,1,0
132,76,156467,1,0
44,196,156687,1,0
44,196,156797,1,0
140,312,157018,6,0,B|188:364|188:364|288:364|288:364,1,150,4|2
396,288,157458,1,0
256,240,157678,2,0,B|236:208|236:208|240:168|240:168,2,75,0|0|8
404,204,158119,1,0
404,204,158229,1,0
280,120,158449,1,0
280,120,158560,1,0
420,72,158780,6,0,B|384:16|384:16|292:16|292:16,1,150,4|2
152,16,159220,1,0
44,120,159441,1,0
192,148,159661,1,8
80,48,159881,1,0
80,48,159991,1,0
80,200,160212,2,0,B|80:244|80:244|120:268|120:268,1,75
228,348,160542,5,4
80,356,160762,1,2
204,272,160982,2,0,B|252:244|252:244|252:180|252:180|184:152|184:152|184:100|184:100|236:84|236:84,1,300,0|8
380,40,161643,1,0
380,40,161753,1,0
324,180,161974,1,0
324,180,162084,1,0
448,96,162304,6,0,B|468:120|468:120|468:148|468:148|488:160|488:160|488:196|488:196|464:216|464:216,1,150,4|2
344,308,162745,2,0,B|308:332|308:332|240:332|240:332|208:304|208:304,1,150,4|0
100,204,163185,1,8
48,344,163405,1,0
48,344,163515,1,0
164,248,163736,1,0
164,248,163846,1,0
28,180,164066,5,4
152,92,164286,2,0,B|188:68|188:68|208:68|208:68|220:76|220:76|220:100|220:100|236:116|236:116|268:116|268:116,1,150,2|0
412,116,164727,1,0
296,24,164947,1,8
328,172,165167,2,0,B|340:216|340:216|400:240|400:240,1,75
508,280,165498,1,0
508,280,165608,1,0
360,280,165828,6,0,B|320:280|320:280|280:324|280:324|212:324|212:324,1,150,4|2
80,324,166269,2,0,B|52:324|52:324|32:308|32:308|32:272|32:272|52:256|52:256|52:208|52:208,1,150
52,72,166709,1,8
204,72,166930,1,0
204,72,167040,2,0,B|236:72|236:72|256:96|256:96|256:124|256:124|276:148|276:148|308:148|308:148,1,150
303,148,167370,1,0
256,192,167590,12,8,168912
256,192,169352,5,4
84,108,183449,5,0
8,236,183890,1,0
84,236,184110,1,0
160,368,184551,1,0
84,368,184771,1,2
160,108,185212,6,0,B|204:108|204:108|240:156|240:156|300:156|300:156,1,150,0|0
360,156,185872,1,0
436,20,186313,1,0
360,20,186533,1,2
436,228,186974,5,0
284,228,187414,2,0,B|284:312,1,75,0|0
436,304,188075,1,0
360,304,188295,1,2
280,100,188736,6,0,B|312:44|312:44|360:44|360:44|408:44|408:44|444:104|444:104,2,225,0|0|2
196,304,190498,5,0
196,152,190938,1,0
196,228,191159,1,0
44,228,191599,1,0
120,228,191819,1,2
344,228,192260,5,0
496,228,192701,1,0
420,228,192921,1,0
420,76,193361,1,0
420,152,193582,1,2
192,152,194022,5,0
344,152,194463,1,0
268,152,194683,1,0
116,152,195123,1,0
192,152,195344,1,2
268,360,195784,6,0,B|184:360|184:360|152:336|152:336|152:232|152:232,1,225,0|0
152,80,196886,1,0
152,156,197106,1,2
372,156,197546,6,0,B|460:156|460:156|504:216|504:216,1,150,2|0
496,205,198207,1,2
384,308,198648,1,0
308,308,198868,1,2
344,240,199088,1,0
232,240,199308,6,0,B|152:240|152:240|104:184|104:184,1,150,2|0
106,186,199969,1,2
8,72,200410,1,0
58,129,200630,2,0,B|122:205|122:205,1,75,2|0
188,264,201071,5,2
264,264,201291,1,0
228,200,201511,1,0
304,200,201731,1,2
376,68,202172,2,0,B|416:68|416:68|432:108|432:108|432:108,1,75,0|2
428,100,202612,1,0
428,212,202833,6,0,B|428:292|428:292,1,75,2|0
296,212,203493,2,0,B|296:292|296:292,1,75,2|0
296,212,203934,1,0
296,136,204154,1,2
296,212,204375,1,0
184,212,204595,6,0,B|88:212|88:212,2,75,2|0|0
109,212,205256,1,2
32,84,205696,1,0
108,84,205916,2,0,B|196:84|196:84,1,75,2|0
296,84,206357,5,2
372,84,206577,2,0,B|440:140|440:140,1,75
372,84,207018,1,2
368,160,207238,2,0,B|436:216|436:216,1,75
368,160,207678,1,2
364,236,207899,1,0
256,104,208119,6,0,B|256:28|256:28,1,75
256,280,208560,2,0,B|256:360|256:360,1,75
172,192,209000,5,0
96,192,209220,1,0
340,192,209441,1,0
416,192,209661,1,0
196,132,209881,5,0
144,76,210101,1,0
316,132,210322,5,0
368,76,210542,1,0
196,252,210762,5,0
144,308,210982,1,0
316,252,211203,5,0
368,308,211423,1,0
256,192,211643,5,4
