osu file format v9

[General]
AudioFilename: The Prodigy - Smack My Bitch Up (Short Ver.).mp3
AudioLeadIn: 0
PreviewTime: 137690
Countdown: 0
SampleSet: Soft
StackLeniency: 0.3
Mode: 0
LetterboxInBreaks: 1

[Editor]
Bookmarks: 21335,49529,63631,77723,84771,91819,98868,104154,105916,118251,120013,134110,139397,153493,155256,169352,183449,197546,208119
DistanceSpacing: 1
BeatDivisor: 8
GridSize: 4

[Metadata]
Title:Smack My Bitch Up
Artist:The Prodigy
Creator:whymeman
Version:Ass Kicking
Source:
Tags:The Fat of the Land 1996 2002 Zelos Backfire

[Difficulty]
HPDrainRate:5
CircleSize:5
OverallDifficulty:8
ApproachRate:9
SliderMultiplier:2.25
SliderTickRate:1

[Events]
//Background and Video events
0,0,"Background.jpg"
//Break Periods
2,42460,48929
2,99068,105316
2,134310,140559
2,169552,182849
//Storyboard Layer 0 (Background)
Sprite,Background,Centre,"Story Board\Kiai Dynamic Screen2.png",320,240 F,0,63626,64066,1,0 S,0,63626,64066,1,1.15
Sprite,Background,Centre,"Story Board\Kiai Dynamic Screen2.png",320,240 F,0,63626,64066,1,0 S,0,63626,64066,1,1.28
Sprite,Background,Centre,"Story Board\Kiai Dynamic Screen2.png",320,240 F,0,105916,106357,1,0 S,0,105916,106357,1,1.15
Sprite,Background,Centre,"Story Board\Kiai Dynamic Screen2.png",320,240 F,0,105916,106357,1,0 S,0,105916,106357,1,1.28
Sprite,Background,Centre,"Story Board\Kiai Dynamic Screen2.png",320,240 F,0,141159,141599,1,0 S,0,141159,141599,1,1.15
Sprite,Background,Centre,"Story Board\Kiai Dynamic Screen2.png",320,240 F,0,141159,141599,1,0 S,0,141159,141599,1,1.28
//Storyboard Layer 1 (Fail)
//Storyboard Layer 2 (Pass)
//Storyboard Layer 3 (Foreground)
Sprite,Foreground,Centre,"Story Board\credits.png",320,240 F,0,-7739,-7078,0,1 F,0,-7078,-1021,1 F,0,-1021,190,1,0
Sprite,Foreground,Centre,"Story Board\Credits (2).png",320,240 M,0,-7078,,215,179 F,0,-7078,-5757,0,1 F,0,-5757,-1021,1 F,0,-1021,190,1,0
Sprite,Foreground,Centre,"Story Board\SpeedUp.png",320,240 M,0,62084,62304,339,18,338,232 M,0,62304,63626,338,232,338,271 F,0,63626,63956,1,0 S,0,63626,63956,1,2.28256 S,0,63956,,2.28256
Sprite,Foreground,Centre,"Story Board\SpeedUp.png",320,240 M,0,103934,104154,339,18,338,232 F,0,103934,104154,0,1 M,0,104154,105916,339,232,338,271 F,0,104154,105916,1 F,0,105916,106247,1,0 S,0,105916,106247,1,2.28256 S,0,106247,,2.28256
Sprite,Foreground,Centre,"Story Board\Slow Down.png",320,240 F,0,75960,76181,0,1 M,0,75960,77943,320,240,321,289 F,0,76181,77723,1 F,0,77723,77943,1,0
Sprite,Foreground,Centre,"Story Board\Slow Down.png",320,240 F,0,75960,76181,1,0 S,0,75960,76181,1,1.25
Sprite,Foreground,Centre,"Story Board\SpeedUp.png",320,240 M,0,139176,139397,339,18,338,232 F,0,139176,139397,0,1 M,0,139397,141159,339,232,338,271 F,0,139397,141159,1 F,0,141159,141489,1,0 S,0,141159,141489,1,2.28256
Sprite,Foreground,Centre,"Story Board\Slow Down.png",320,240 F,0,167590,167811,0,1 M,0,167590,169352,320,240,321,289 F,0,167811,169352,1 F,0,169352,169573,1,0
Sprite,Foreground,Centre,"Story Board\Slow Down.png",320,240 F,0,167590,167811,1,0 S,0,167590,167811,1,1.25
//Storyboard Sound Samples
//Background Colour Transformations
3,100,128,0,128

[TimingPoints]
190,440.528634361234,4,2,1,100,1,0
49308,-100,4,1,1,80,0,0
49639,-100,4,2,1,100,0,0
49859,-100,4,1,1,80,0,0
50740,-100,4,2,1,100,0,0
50905,-100,4,1,1,80,0,0
51401,-100,4,2,1,100,0,0
51621,-100,4,1,1,80,0,0
52502,-100,4,2,1,100,0,0
52667,-100,4,1,1,80,0,0
53163,-100,4,2,1,100,0,0
53383,-100,4,1,1,80,0,0
54264,-100,4,2,1,100,0,0
54430,-100,4,1,1,80,0,0
54925,-100,4,2,1,100,0,0
55145,-100,4,1,1,80,0,0
56082,-100,4,2,1,100,0,0
56192,-100,4,1,1,80,0,0
56797,-100,4,2,1,100,0,0
57568,-100,4,1,1,80,0,0
59551,-100,4,2,1,100,0,0
59716,-100,4,1,1,80,0,0
60652,-100,4,2,1,100,0,0
60872,-100,4,1,1,80,0,0
61313,-100,4,2,1,100,0,0
61478,-100,4,1,1,80,0,0
62414,-100,4,2,1,100,0,0
62634,-100,4,1,1,80,0,0
63130,-100,4,2,1,100,0,0
63240,-100,4,1,1,80,0,0
63626,-66.6666666666667,4,1,1,80,0,1
70784,-66.6666666666667,4,2,1,100,0,1
71004,-66.6666666666667,4,1,1,80,0,1
74308,-66.6666666666667,4,2,1,100,0,1
74529,-66.6666666666667,4,1,1,80,0,1
77723,-66.6666666666667,4,1,1,80,0,0
77778,-100,4,1,1,80,0,0
104154,-66.6666666666667,4,1,1,80,0,1
106027,-66.6666666666667,4,2,1,100,0,1
106247,-66.6666666666667,4,1,1,80,0,1
107789,-66.6666666666667,4,2,1,100,0,1
108009,-66.6666666666667,4,1,1,80,0,1
109551,-66.6666666666667,4,2,1,100,0,1
109771,-66.6666666666667,4,1,1,80,0,1
109936,-66.6666666666667,4,2,1,100,0,1
110046,-66.6666666666667,4,1,1,80,0,1
111313,-66.6666666666667,4,2,1,100,0,1
111588,-66.6666666666667,4,1,1,80,0,1
113075,-66.6666666666667,4,2,1,100,0,1
113295,-66.6666666666667,4,1,1,80,0,1
114782,-66.6666666666667,4,2,1,100,0,1
115057,-66.6666666666667,4,1,1,80,0,1
116599,-66.6666666666667,4,2,1,100,0,1
116819,-66.6666666666667,4,1,1,80,0,1
116985,-66.6666666666667,4,2,1,100,0,1
117095,-66.6666666666667,4,1,1,80,0,1
120123,-66.6666666666667,4,2,1,100,0,1
120344,-66.6666666666667,4,1,1,80,0,1
121886,-66.6666666666667,4,2,1,100,0,1
122106,-66.6666666666667,4,1,1,80,0,1
122271,-66.6666666666667,4,2,1,100,0,1
122381,-66.6666666666667,4,1,1,80,0,1
123593,-66.6666666666667,4,2,1,100,0,1
123868,-66.6666666666667,4,1,1,80,0,1
125410,-66.6666666666667,4,2,1,100,0,1
125685,-66.6666666666667,4,1,1,80,0,1
125795,-66.6666666666667,4,2,1,100,0,1
125905,-66.6666666666667,4,1,1,80,0,1
127172,-66.6666666666667,4,2,1,100,0,1
127392,-66.6666666666667,4,1,1,80,0,1
129319,-66.6666666666667,4,2,1,100,0,1
129430,-66.6666666666667,4,1,1,80,0,1
130696,-66.6666666666667,4,2,1,100,0,1
130971,-66.6666666666667,4,1,1,80,0,1
131522,-66.6666666666667,4,2,1,100,0,1
131632,-66.6666666666667,4,1,1,80,0,1
134055,-66.6666666666667,4,2,1,100,0,1
134110,-66.6666666666667,4,2,1,100,0,0
134165,-100,4,1,1,80,0,0
139397,-66.6666666666667,4,1,1,80,0,1
141269,-66.6666666666667,4,2,1,100,0,1
141489,-66.6666666666667,4,1,1,80,0,1
143031,-66.6666666666667,4,2,1,100,0,1
143251,-66.6666666666667,4,1,1,80,0,1
144793,-66.6666666666667,4,2,1,100,0,1
145013,-66.6666666666667,4,1,1,80,0,1
145178,-66.6666666666667,4,2,1,100,0,1
145289,-66.6666666666667,4,1,1,80,0,1
146555,-66.6666666666667,4,2,1,100,0,1
146830,-66.6666666666667,4,1,1,80,0,1
148317,-66.6666666666667,4,2,1,100,0,1
148538,-66.6666666666667,4,1,1,80,0,1
150024,-66.6666666666667,4,2,1,100,0,1
150300,-66.6666666666667,4,1,1,80,0,1
151841,-66.6666666666667,4,2,1,100,0,1
152062,-66.6666666666667,4,1,1,80,0,1
152227,-66.6666666666667,4,2,1,100,0,1
152337,-66.6666666666667,4,1,1,80,0,1
152447,-66.6666666666667,4,2,1,100,0,1
152557,-66.6666666666667,4,1,1,80,0,1
155366,-66.6666666666667,4,2,1,100,0,1
155586,-66.6666666666667,4,1,1,80,0,1
157128,-66.6666666666667,4,2,1,100,0,1
157348,-66.6666666666667,4,1,1,80,0,1
157513,-66.6666666666667,4,2,1,100,0,1
157623,-66.6666666666667,4,1,1,80,0,1
158890,-66.6666666666667,4,2,1,100,0,1
159110,-66.6666666666667,4,1,1,80,0,1
160652,-66.6666666666667,4,2,1,100,0,1
160872,-66.6666666666667,4,1,1,80,0,1
161038,-66.6666666666667,4,2,1,100,0,1
161148,-66.6666666666667,4,1,1,80,0,1
162414,-66.6666666666667,4,2,1,100,0,1
162634,-66.6666666666667,4,1,1,80,0,1
164176,-66.6666666666667,4,2,1,100,0,1
164397,-66.6666666666667,4,1,1,80,0,1
164562,-66.6666666666667,4,2,1,100,0,1
164672,-66.6666666666667,4,1,1,80,0,1
165938,-66.6666666666667,4,2,1,100,0,1
166214,-66.6666666666667,4,1,1,80,0,1
166764,-66.6666666666667,4,2,1,100,0,1
166875,-66.6666666666667,4,1,1,80,0,1
169297,-66.6666666666667,4,2,1,100,0,1
169352,-66.6666666666667,4,2,1,100,0,0
169408,-100,4,1,1,80,0,0
182568,-100,4,2,1,100,0,0
208064,-100,4,1,1,80,0,0
208174,-100,4,2,1,100,0,0
208945,-100,4,1,1,80,0,0
209110,-100,4,2,1,100,0,0
209826,-100,4,1,1,80,0,0
209936,-100,4,2,1,100,0,0
210267,-100,4,1,1,80,0,0
210377,-100,4,2,1,100,0,0
210652,-100,4,2,1,5,0,0
211638,-100,4,2,1,100,0,0

[Colours]
Combo1 : 52,188,148
Combo2 : 170,170,170
Combo3 : 226,87,80
Combo4 : 225,170,115
Combo5 : 170,166,217

[HitObjects]
200,56,21335,2,0,B|144:108|144:108,1,56.2499983236194,0|0
158,94,21555,1,0
256,152,21775,2,0,B|256:248|256:248,2,56.2499983236194,8|0|2
312,56,22216,2,0,B|368:108|368:108,1,56.2499983236194,0|0
353,94,22436,1,0
256,152,22656,1,8
300,188,22767,1,0
284,240,22877,1,2
228,240,22987,1,0
212,188,23097,5,0
256,84,23317,1,0
144,76,23538,2,0,B|56:56|56:56,2,56.2499983236194,8|0|2
256,84,23978,1,0
368,76,24198,2,0,B|456:56|456:56,2,56.2499983236194,0|0|8
256,84,24639,1,2
168,152,24859,6,0,B|104:200|104:200,2,56.2499983236194
256,84,25300,1,8
344,152,25520,2,0,B|408:200|408:200,2,56.2499983236194,2|0|0
256,220,25960,1,0
308,320,26181,1,8
256,340,26291,1,0
204,320,26401,1,2
96,348,26621,5,0
28,260,26841,1,0
140,240,27062,2,0,B|172:160|172:160,2,56.2499983236194,8|0|2
68,152,27502,1,0
52,40,27723,1,0
108,40,27833,1,0
144,80,27943,1,8
244,136,28163,1,2
352,112,28383,5,0
400,84,28493,1,0
456,88,28604,1,0
428,196,28823,1,8
356,284,29044,2,0,B|380:312|380:312|412:312|412:312,2,56.2499983236194,2|0|0
292,192,29485,1,0
236,192,29595,1,0
212,140,29705,1,8
100,140,29925,1,2
160,44,30145,5,0
100,140,30366,1,0
44,44,30585,1,8
100,140,30806,1,2
156,236,31027,1,0
40,236,31247,2,0,B|68:304|68:304,1,56.2499983236194
88,340,31467,1,8
144,340,31577,2,0,B|212:340|212:340,1,56.2499983236194,0|2
312,340,31908,5,0
420,308,32128,1,0
360,216,32348,2,0,B|380:148|380:148|364:60|364:60,1,112.499996647239,8|2
200,340,32789,5,0
92,308,33009,1,0
152,216,33229,2,0,B|132:148|132:148|148:60|148:60,1,112.499996647239,8|2
360,216,33670,5,0
376,164,33780,1,0
372,108,33890,1,0
152,216,34110,1,8
136,164,34220,1,0
140,108,34330,1,2
256,264,34551,2,0,B|240:308|240:308|272:340|272:340|256:364|256:364|256:364|256:364,2,112.499996647239,0|0|8
256,104,35212,1,2
336,232,35432,5,0
372,188,35542,1,0
388,136,35652,1,0
308,56,35872,2,0,B|256:28|256:28|184:68|184:68,1,112.499996647239,8|2
124,136,36313,1,0
140,188,36423,1,0
176,232,36533,1,0
256,152,36753,1,8
256,264,36974,1,2
308,364,37194,5,0
200,364,37414,1,0
96,320,37634,2,0,B|48:364|48:364,2,56.2499983236194,8|0|2
60,96,38295,1,0
136,180,38515,2,0,B|176:104|176:104,1,56.2499983236194,8|0
192,80,38736,2,0,B|260:80|260:80,1,56.2499983236194,2|0
304,80,38956,6,0,B|432:80|432:80,1,112.499996647239
360,180,39397,1,8
472,180,39617,1,2
304,328,40057,1,0
192,328,40278,1,8
80,328,40498,1,2
136,328,40608,1,0
192,328,40718,5,0
192,216,40938,1,0
80,216,41159,1,8
192,104,41379,1,2
416,104,41819,1,0
304,104,42040,2,0,B|304:172|304:172,2,56.2499983236194,8|0|2
384,336,49529,6,0,B|360:288|360:288|256:288|256:288,1,112.5,4|2
188,288,49969,1,0
44,116,50410,1,0
156,120,50630,1,0
244,48,50850,1,8
244,48,50960,2,0,B|288:48|288:48|308:80|308:80|360:80|360:80|408:144|408:144,1,168.75
444,204,51511,1,2
504,108,51731,1,0
504,276,52062,1,0
504,276,52172,1,0
392,276,52392,1,0
308,204,52612,1,8
308,204,52723,1,0
228,352,53052,5,4
160,264,53273,1,2
92,352,53493,2,0,B|24:308|24:308|24:256|24:256|64:224|64:224|64:164|64:164,1,225
64,72,54154,1,0
160,132,54375,1,8
160,132,54485,1,0
316,72,54815,1,0
208,36,55035,1,2
252,140,55256,1,0
108,228,55586,1,0
108,228,55696,1,0
220,248,55916,2,0,B|256:268|256:268|256:296|256:296|316:328|316:328|316:328|316:328,1,112.5,0|8
295,316,56247,1,0
464,316,56577,5,4
436,92,57018,2,0,B|460:104|460:104|476:148|476:148,2,56.25
360,176,57458,1,2
324,72,57678,1,0
192,176,58009,1,0
72,60,58339,2,0,B|28:84|28:84|28:156|28:156|48:196|48:196|80:196|80:196|120:244|120:244,1,225
200,352,59110,1,0
200,352,59220,1,0
228,244,59441,1,0
328,292,59661,1,8
328,292,59771,1,0
484,352,60101,6,0,B|484:284|484:284|424:204|424:204|356:204|356:204,1,225,4|0
256,204,60762,1,2
312,108,60982,1,0
200,108,61203,1,0
140,204,61423,1,8
140,204,61533,1,0
140,36,61864,2,0,B|88:36|88:36|40:72|40:72|40:116|40:116|68:140|68:140|68:176|68:176|68:176|68:176,1,225
68,284,62524,1,2
160,348,62745,1,0
272,348,62965,1,0
216,252,63185,1,8
216,252,63295,1,0
372,52,63626,5,4
188,188,63846,1,0
368,324,64066,1,0
428,104,64286,2,0,B|444:64|444:64|496:64|496:64,4,84.3749974854291,8|0|0|0|0
368,324,64947,1,8
140,324,65167,1,0
84,104,65388,5,8
256,252,65608,1,0
256,24,65828,1,0
476,88,66049,2,0,B|504:96|504:96|504:152|504:152,1,84.3749974854291,8|0
504,264,66269,2,0,B|504:308|504:308|444:336|444:336,1,84.3749974854291
360,364,66489,1,0
168,240,66709,1,8
372,132,66930,1,0
140,132,67150,6,0,B|56:172|56:172|56:228|56:228|99:260|99:260,1,168.749994970858,4|0
256,372,67590,1,0
316,152,67811,1,8
196,152,67921,1,0
164,260,68031,1,0
256,328,68141,1,0
348,256,68251,1,0
364,24,68471,1,8
256,232,68692,1,0
148,24,68912,5,8
40,232,69132,1,0
256,324,69352,1,0
472,232,69573,1,8
420,128,69683,1,0
368,24,69793,1,0
256,24,69903,1,0
204,128,70013,1,0
376,280,70234,1,8
400,52,70454,1,0
296,256,70674,5,4
400,52,70894,1,2
232,204,71115,1,0
400,52,71335,2,0,B|436:52|436:52|448:28|448:28|484:28|484:28,2,84.3749974854291,8|0|0
400,52,71665,2,0,B|364:52|364:52|352:76|352:76|316:76|316:76,1,84.3749974854291
100,76,71996,1,8
296,192,72216,1,0
100,308,72436,5,8
188,100,72656,1,0
256,316,72877,1,0
324,100,73097,1,8
412,308,73317,1,0
412,308,73427,1,0
412,308,73538,1,0
372,84,73757,1,8
140,84,73978,1,0
160,312,74198,5,4
256,104,74419,1,2
352,312,74639,1,0
140,224,74859,1,8
372,224,75079,1,0
372,224,75190,1,0
372,224,75300,1,0
256,28,75519,1,8
256,256,75740,1,0
140,60,75960,5,12
372,60,76181,1,0
160,148,76401,2,0,B|120:168|120:168|120:224|120:224,1,84.3749974854291
120,320,76621,2,0,B|156:344|156:344|220:344|220:344,1,84.3749974854291,8|0
312,344,76841,1,0
504,220,77062,1,0
352,52,77282,1,8
272,136,77392,1,0
376,180,77502,2,0,B|400:192|400:192|400:212|400:212|364:268|364:268|364:268|364:268,1,84.3749974854291
324,344,77723,5,4
100,352,78163,1,8
68,244,78383,2,0,B|68:168|68:168|116:132|116:132,1,112.5
192,88,78824,2,0,B|252:48,1,56.25
352,56,79154,2,0,B|412:96|412:96,1,56.25
496,144,79485,5,0
444,244,79705,2,0,B|408:288|408:288|352:288|352:288,1,112.5,0|8
240,288,80145,1,0
132,260,80366,1,0
92,156,80586,1,0
92,156,80696,1,0
132,52,80916,1,0
132,52,81027,1,0
248,52,81247,6,0,B|312:52|312:52|364:92|364:92,1,110,4|0
292,180,81687,1,8
388,116,81908,1,0
500,120,82128,1,0
420,200,82348,1,0
420,200,82458,1,0
488,288,82678,1,0
488,288,82789,1,0
388,336,83009,5,0
348,300,83119,1,0
308,260,83229,1,0
204,304,83449,2,0,B|160:352|160:352|96:352|96:352,1,110,8|0
100,236,83890,1,0
156,140,84110,1,0
156,140,84220,1,0
268,140,84441,1,0
268,140,84551,1,0
248,252,84771,6,0,B|284:296|284:296|352:296|352:296,1,112.5,4|0
340,184,85212,1,8
420,264,85432,1,0
460,224,85542,1,0
500,184,85652,1,0
476,76,85872,1,0
476,76,85982,1,0
384,140,86203,1,0
384,140,86313,1,0
276,168,86533,5,0
320,64,86753,1,0
212,100,86974,2,8,B|164:72|164:72|80:72|80:72,1,112.5,8|0
24,148,87414,1,0
68,184,87524,1,0
68,240,87634,1,0
116,272,87745,1,0
188,184,87965,1,0
188,184,88075,1,0
276,252,88295,6,0,B|332:252|332:252|368:296|368:296,1,110,4|0
452,368,88736,2,8,B|476:368|476:368|496:344|496:344|496:264|496:264,1,112.5,8|0
496,232,89066,1,0
496,176,89176,2,0,B|468:116|468:116|392:116|392:116,1,112.5
421,116,89507,1,0
400,228,89727,1,0
400,228,89837,1,0
320,152,90057,5,4
256,248,90278,1,0
160,308,90498,2,0,B|212:368|212:368,1,56.25,8|0
160,308,90718,2,0,B|120:260|120:260,1,56.25
160,308,90938,1,4
48,304,91159,1,0
84,196,91379,1,0
56,148,91489,1,0
28,100,91599,1,0
112,24,91819,5,4
152,128,92040,1,0
236,56,92260,2,0,B|288:16|288:16|352:16|352:16,1,112.5,8|0
448,16,92701,2,0,B|472:16|472:16|488:32|488:32|488:80|488:80|472:96|472:96,1,112.5
475,92,93031,1,0
384,160,93251,1,0
384,160,93361,1,0
292,228,93582,5,0
260,180,93692,1,0
232,132,93802,1,0
168,40,94022,2,0,B|160:28|160:28|116:28|116:28|80:80|80:80,1,112.5,8|0
24,168,94463,1,0
132,168,94683,1,0
132,168,94793,2,0,B|132:204|132:204|96:236|96:236|96:272|96:272,1,112.5
96,264,95123,1,0
192,328,95344,5,4
232,224,95564,2,0,B|296:224|296:224|332:284|332:284,1,112.5,0|8
400,344,96004,1,0
432,296,96115,1,0
464,248,96225,2,0,B|488:216|488:216|488:180|488:180|460:148|460:148,1,112.5
364,200,96665,1,8
320,304,96886,2,0,B|292:292|292:292|292:248|292:248,1,56.25
296,212,97106,6,0,B|296:142|296:142|348:86|348:86,1,112.5,4|0
404,32,97546,1,8
348,32,97656,1,0
292,32,97767,2,0,B|272:64|272:64|228:64|228:64,1,56.25
196,64,97987,2,0,B|143:64|143:64|127:80|127:80|127:136|127:136,1,112.5,0|8
128,228,98427,2,0,B|128:260|128:260|148:288|148:288,1,56.25,0|0
180,320,98648,1,8
236,320,98758,2,0,B|264:320|264:320|284:356|284:356,1,56.25,0|4
408,360,105916,5,4
256,192,106137,1,2
104,360,106357,1,0
148,140,106577,1,0
148,140,106687,1,0
148,140,106797,1,8
256,340,107018,1,0
256,340,107128,1,0
364,140,107348,1,0
364,140,107458,1,0
152,64,107678,5,4
256,264,107899,1,2
360,64,108119,1,0
192,212,108339,1,0
192,212,108449,1,0
192,212,108560,1,8
44,44,108780,1,0
44,44,108890,1,0
256,116,109110,1,0
256,116,109220,1,0
468,44,109441,5,4
320,212,109661,1,2
492,356,109881,1,0
492,356,109991,1,0
492,356,110101,1,0
376,164,110322,1,8
256,352,110542,1,0
256,352,110652,1,0
136,164,110872,1,0
136,164,110982,1,0
20,356,111203,5,4
44,132,111423,1,2
44,132,111533,1,0
44,132,111643,1,0
256,208,111864,1,0
468,132,112084,1,8
296,276,112304,1,0
296,276,112414,1,0
256,56,112634,1,0
256,56,112745,1,0
256,280,112965,5,4
156,80,113185,1,2
144,304,113405,1,0
368,304,113626,1,0
368,304,113736,1,0
368,304,113846,1,8
356,80,114066,1,0
356,80,114176,1,0
144,156,114397,1,0
144,156,114507,1,0
368,156,114727,5,4
368,156,114837,1,0
368,156,114947,1,2
172,268,115167,1,0
172,44,115388,1,0
44,228,115608,1,8
216,372,115828,1,0
216,372,115938,1,0
264,152,116159,1,0
264,152,116269,1,0
48,96,116489,5,4
104,312,116709,1,2
264,152,116930,1,0
264,152,117040,1,0
264,152,117150,1,0
420,312,117370,1,8
380,92,117590,1,0
380,92,117701,1,0
156,92,117921,1,0
156,92,118031,1,0
256,296,118251,5,4
456,192,118471,1,0
456,192,118582,1,0
456,192,118692,1,8
284,44,118912,1,0
184,248,119132,1,4
372,124,119352,1,0
372,124,119463,1,0
372,124,119573,1,8
372,124,119683,1,0
372,124,119793,1,0
372,124,119903,1,0
372,124,120013,5,4
148,124,120234,1,2
256,320,120454,1,0
256,96,120674,1,0
256,96,120784,1,0
256,96,120894,1,8
256,320,121115,1,0
256,320,121225,1,0
364,124,121445,1,0
364,124,121555,1,0
440,336,121775,5,4
512,120,121996,1,2
440,336,122216,1,0
440,336,122326,1,0
440,336,122436,1,0
364,124,122656,1,8
440,336,122877,1,0
440,336,122987,1,0
256,208,123207,1,0
256,208,123317,1,0
72,336,123538,5,4
72,336,123648,1,0
72,336,123758,1,2
256,208,123978,1,0
72,336,124198,1,0
72,336,124308,1,0
72,336,124419,1,8
148,124,124639,1,0
148,124,124749,1,0
72,336,124969,1,0
72,336,125079,1,0
0,120,125300,5,4
200,220,125520,1,2
312,220,125630,1,0
344,112,125740,1,0
256,44,125850,1,0
168,112,125960,1,0
256,320,126181,1,8
464,232,126401,1,0
464,232,126511,1,0
256,144,126731,1,0
256,144,126841,1,0
396,324,127062,5,4
396,60,127282,1,2
116,60,127502,1,4
116,324,127723,1,0
256,144,127943,5,8
452,252,128163,1,0
452,252,128273,1,0
256,360,128493,1,0
256,360,128604,1,0
60,252,128824,5,4
460,48,129264,1,0
460,48,129375,1,0
460,48,129485,1,0
256,144,129705,1,8
52,48,129925,1,0
52,48,130035,1,0
180,236,130256,1,0
180,236,130366,1,0
384,328,130586,5,4
368,104,130806,1,2
368,104,130916,1,0
368,104,131027,1,0
144,104,131247,1,0
128,328,131467,1,8
128,328,131577,1,0
128,328,131687,1,0
128,328,131797,1,0
256,140,132018,1,0
256,140,132128,1,0
256,364,132348,5,4
100,204,132568,1,0
100,204,132678,1,0
100,204,132789,1,8
256,40,133009,1,0
412,204,133229,1,4
412,204,133339,1,0
412,204,133449,1,0
412,204,133560,1,0
412,204,133670,1,8
412,204,133780,1,0
412,204,133890,1,0
412,204,134000,1,0
412,204,134110,1,4
256,188,141159,5,4
104,24,141380,1,2
256,188,141600,1,0
408,24,141820,1,0
408,24,141930,1,0
408,24,142040,1,8
256,188,142261,1,0
256,188,142371,1,0
408,356,142591,1,0
408,356,142701,1,0
256,188,142921,5,4
104,356,143142,1,2
144,132,143362,1,0
368,132,143582,1,0
368,132,143692,1,0
368,132,143803,1,8
256,328,144023,1,0
256,328,144133,1,0
256,104,144353,1,0
256,104,144463,1,0
48,192,144684,5,4
180,376,144904,1,2
368,252,145124,1,0
368,252,145234,1,0
368,252,145344,1,0
144,252,145564,1,8
332,376,145785,1,0
332,376,145895,1,0
464,192,146115,1,0
464,192,146225,1,0
256,280,146446,5,4
468,356,146666,1,2
468,356,146776,1,0
468,356,146886,1,0
312,192,147107,1,0
480,40,147327,1,8
256,72,147547,1,0
256,72,147657,1,0
32,40,147877,1,0
32,40,147988,1,0
200,192,148208,5,4
44,356,148428,1,2
16,132,148648,1,0
136,324,148869,1,0
136,324,148979,1,0
136,324,149089,1,8
164,100,149309,1,0
164,100,149419,1,0
256,308,149640,1,0
256,308,149750,1,0
348,100,149970,5,4
348,100,150080,1,0
348,100,150190,1,2
376,324,150410,1,0
496,132,150631,1,0
468,356,150851,1,8
424,136,151071,1,0
424,136,151181,1,0
256,288,151402,1,0
256,288,151512,1,0
88,136,151732,5,4
44,356,151952,1,2
192,184,152173,1,0
164,76,152283,1,0
256,12,152393,1,0
348,76,152502,1,0
320,184,152613,1,8
468,356,152833,1,0
468,356,152944,1,0
424,136,153164,1,0
424,136,153274,1,0
256,288,153494,5,4
256,64,153714,1,0
256,64,153825,1,0
256,64,153935,1,8
144,260,154155,1,0
368,260,154375,1,4
256,64,154595,1,0
256,288,154815,1,8
256,288,154925,1,0
256,288,155035,1,0
256,288,155145,1,0
256,288,155256,5,4
368,92,155477,1,2
144,92,155697,1,0
188,312,155917,1,0
188,312,156027,1,0
188,312,156137,1,8
20,160,156358,1,0
20,160,156468,1,0
224,64,156688,1,0
224,64,156798,1,0
256,288,157018,5,4
144,92,157239,1,2
368,92,157459,1,0
368,92,157569,1,0
368,92,157679,1,0
324,312,157899,1,8
492,160,158120,1,0
492,160,158230,1,0
288,64,158450,1,0
288,64,158560,1,0
128,228,158781,5,4
128,228,158891,1,0
128,228,159001,1,2
28,28,159221,1,0
20,252,159441,1,0
20,252,159551,1,0
20,252,159662,1,8
180,96,159882,1,0
180,96,159992,1,0
176,320,160212,1,0
176,320,160322,1,0
384,228,160543,5,4
484,28,160763,1,2
492,252,160983,1,0
492,252,161093,1,0
492,252,161203,1,0
332,96,161424,1,8
336,320,161644,1,0
336,320,161754,1,0
256,108,161974,1,0
256,108,162084,1,0
256,336,162305,5,4
92,180,162525,1,2
256,24,162745,1,4
420,180,162966,1,0
204,116,163186,5,8
368,272,163406,1,0
368,272,163516,1,0
144,272,163736,1,0
144,272,163847,1,0
308,116,164067,5,4
204,316,164286,1,2
368,160,164507,1,0
368,160,164618,1,0
368,160,164728,1,0
144,160,164948,1,8
308,316,165168,1,0
308,316,165278,1,0
256,96,165499,1,0
256,96,165609,1,0
112,268,165829,5,4
172,52,166049,1,2
172,52,166159,1,0
172,52,166270,1,0
32,228,166490,1,0
256,248,166710,1,8
256,248,166820,1,0
256,248,166930,1,0
256,248,167040,1,0
480,228,167261,1,0
480,228,167371,1,0
340,52,167591,5,4
368,276,167811,1,0
368,276,167921,1,0
368,276,168032,1,8
144,276,168252,1,0
172,52,168472,1,4
172,52,168582,1,0
172,52,168692,1,0
172,52,168803,1,0
172,52,168912,1,8
172,52,169022,1,4
172,52,169132,1,0
172,52,169242,1,0
172,52,169352,1,4
424,56,183449,5,0
356,144,183670,1,0
284,56,183890,1,0
356,144,184110,1,0
284,232,184330,1,0
356,320,184551,1,0
284,232,184771,1,2
284,232,184881,1,0
284,232,184991,1,0
140,144,185212,6,0,B|140:172|140:172|112:196|112:196|112:244|112:244,1,112.5,0|0
64,144,185652,1,0
112,244,185872,1,0
112,244,185982,1,0
112,244,186093,1,0
64,344,186313,1,0
164,292,186533,2,0,B|196:292|196:292|228:340|228:340|268:340|268:340,1,112.5,2|0
412,296,186974,5,0
472,200,187194,1,0
360,200,187414,2,0,B|312:156,1,55,0|0
319,162,187634,1,0
256,256,187855,1,0
196,160,188075,1,0
196,160,188185,1,0
196,160,188295,1,2
136,64,188515,1,0
136,232,188736,6,0,B|96:252|96:252|96:328|96:328|48:376|48:376,2,168.75,0|0|2
136,232,189617,2,0,B|176:212|176:212|176:136|176:136|224:88|224:88,2,168.75,0|0|2
60,80,190498,5,0
60,80,190608,1,0
60,80,190718,1,0
160,132,190938,1,0
60,184,191159,1,0
160,132,191379,1,0
160,132,191489,1,0
160,132,191599,1,0
256,76,191819,1,2
352,132,192040,1,0
256,268,192260,5,0
256,156,192480,1,0
340,232,192701,1,0
256,156,192921,1,0
172,232,193141,1,0
148,340,193361,1,0
256,364,193582,1,2
364,340,193802,1,0
480,220,194022,5,0
380,168,194242,1,0
380,168,194352,1,0
380,168,194463,1,0
464,92,194683,1,0
360,52,194903,1,0
360,52,195013,1,0
360,52,195123,1,0
268,120,195344,1,2
268,120,195454,1,0
268,120,195564,1,0
352,268,195784,6,0,B|296:268|296:268|236:268|236:268|208:224|208:224,1,168.75,0|0
120,80,196445,1,2
52,168,196665,2,0,B|16:228|16:228|16:248|16:248|48:280|48:280,1,112.5
120,332,197106,1,2
232,332,197326,1,0
200,168,197546,6,0,B|264:168|264:168|320:248|320:248,1,112.5,2|0
352,304,197987,1,0
460,276,198207,1,2
332,92,198648,1,0
428,36,198868,1,2
428,36,198978,1,0
428,36,199088,1,0
264,68,199308,6,0,B|264:120|264:120|308:160|308:160,1,110,2|0
306,159,199639,1,0
306,159,199749,1,0
400,224,199969,1,2
308,288,200190,1,0
400,352,200410,1,0
308,288,200630,2,0,B|268:344|268:344,2,55,2|0|0
180,168,201071,5,2
84,224,201291,1,0
184,280,201511,1,0
84,336,201731,1,2
84,112,202172,1,0
84,224,202392,1,2
180,168,202612,1,0
348,168,202833,6,0,B|368:108|368:108|432:108|432:108,1,112.5,2|0
488,196,203273,2,0,B|468:256|468:256|420:256|420:256,1,112.5,0|2
316,208,203714,2,0,B|336:148|336:148|400:148|400:148,1,112.5,0|2
456,236,204154,2,0,B|436:296|436:296|388:296|388:296,1,112.5,2|0
160,296,204595,5,2
56,252,204815,1,0
56,252,204925,1,0
56,252,205035,1,0
148,188,205256,1,2
60,120,205476,1,0
60,120,205586,1,0
60,120,205696,1,0
156,64,205916,1,2
156,64,206027,1,0
156,64,206137,1,0
336,200,206357,6,0,B|304:248|304:248|228:248|228:248,1,112.5,2|0
340,312,206797,2,0,B|372:264|372:264|448:264|448:264,1,112.5,0|2
336,200,207238,1,0
404,112,207458,1,0
456,212,207678,2,0,B|492:168|492:168|492:88|492:88,1,112.5,2|0
276,48,208119,6,0,B|208:84|208:84,3,56.25
176,100,208560,1,0
176,100,208670,1,0
176,100,208780,1,0
176,100,208890,1,0
172,212,209000,6,0,B|240:248|240:248,3,56.25,0|0|0|0
272,264,209441,1,0
272,264,209551,1,0
272,264,209661,1,0
272,264,209771,1,0
376,304,209881,6,0,B|376:192|376:192,1,112.5
376,80,210322,2,0,B|376:200|376:200,1,112.5
256,192,210762,12,4,211643
