osu file format v7

[General]
AudioFilename: 02 Omen.mp3
AudioLeadIn: 0
PreviewTime: 72164
Countdown: 1
SampleSet: Normal
StackLeniency: 0.7
Mode: 0
LetterboxInBreaks: 1

[Editor]
DistanceSpacing: 1
BeatDivisor: 1
GridSize: 8

[Metadata]
Title:Omen
Artist:The Prodigy
Creator:dlguiga
Version:Normal+
Source:
Tags:invaders must die bittersweet

[Difficulty]
HPDrainRate:5
CircleSize:4
OverallDifficulty:5
SliderMultiplier:1.4
SliderTickRate:2

[Events]
//Background and Video events
0,0,"stencil1.jpg"
//Break Periods
2,37629,43515
2,99772,105229
2,113057,125801
//Storyboard Layer 0 (Background)
//Storyboard Layer 1 (Fail)
//Storyboard Layer 2 (Pass)
//Storyboard Layer 3 (Foreground)
//Storyboard Sound Samples
//Background Colour Transformations
3,100,163,162,255

[TimingPoints]
10430,428.571428571429,4,1,0,100,1,0
44715,-100,4,1,2,60,0,0
68822,-100,4,1,0,100,0,0
72144,-100,4,1,0,100,0,1
99572,-100,4,1,0,100,0,0
127108,-100,4,1,2,60,0,0
150572,-100,4,1,0,60,0,0
154430,-100,4,1,0,100,0,1
168144,-100,4,1,0,100,0,0

[Colours]
Combo1 : 39,89,91
Combo2 : 164,255,255
Combo3 : 255,255,255
Combo4 : 0,107,205

[HitObjects]
96,192,10429,1,4
256,56,11072,2,0,B|304:56|320:96,1,70,8|0
352,144,11501,2,0,B|336:208|288:208,1,70,0|0
248,208,11929,2,8,B|224:248|240:296|248:296,1,70,8|0
448,312,12787,6,0,B|480:248|448:224,1,70,8|0
440,176,13215,2,0,B|384:160|368:232,1,70
352,264,13644,2,0,B|312:320|272:280,1,70,8|0
256,56,14501,5,8
288,120,14715,1,0
256,184,14929,1,0
288,248,15144,1,0
256,312,15358,2,0,B|224:336|176:296,1,70,8|0
256,48,16429,6,0,B|256:96,4,35,8|0|0|0|0
256,192,17287,1,4
88,320,17929,6,0,B|128:264|144:280,1,70,8|0
209,277,18358,2,0,B|249:333|265:317,1,70
330,319,18787,2,0,B|370:263|386:279,1,70,8|0
456,80,19644,6,8,B|424:136|360:88|296:120|256:88|192:128|160:88,1,280
128,136,20715,1,0
256,304,21358,5,8
312,264,21572,1,0
264,216,21787,1,0
216,168,22001,1,0
272,120,22215,1,8
222,70,22430,1,0
32,72,23287,6,0,B|72:72,4,35,8|0|0|0|0
32,212,24144,1,4
219,307,24787,6,0,B|259:291|267:227,1,70,8|0
203,214,25215,2,0,B|235:158|283:166,1,70
268,99,25644,1,8
268,99,25858,1,0
472,56,26501,6,0,B|472:128,1,70,8|0
400,128,26930,2,0,B|400:224,1,70
472,200,27358,2,0,B|472:288,1,70,8|0
216,192,28215,5,8
216,192,28430,1,0
216,192,28644,1,0
216,192,28858,1,0
216,192,29072,2,0,B|248:176|256:208|296:184,1,70,8|0
440,192,30144,6,8,B|488:160|440:136|480:104|424:80|488:48,1,140
328,56,31001,1,4
144,160,31644,6,0,B|176:144|200:184|224:152,2,70,8|0|0
176,224,32287,1,0
232,272,32501,1,8
281,222,32715,1,0
424,72,33358,6,0,B|384:104|424:128,2,70,8|0|0
360,40,34001,1,0
312,88,34215,1,8
264,40,34430,1,0
104,176,35072,5,8
176,176,35287,1,0
176,248,35501,1,0
104,248,35715,2,0,B|64:280|120:328,1,70,0|8
168,328,36144,5,0
272,328,36465,1,0
377,328,36787,1,0
377,223,37108,1,0
327,173,37322,2,4,B|290:173,1,35,0|4
256,192,44715,5,4
64,192,46215,6,0,B|40:232|32:328|160:352|192:304|200:288|256:296,1,280
291,244,47287,1,0
340,293,47501,1,0
389,243,47715,2,0,B|445:163|317:3|221:59,1,280
256,40,49858,6,0,B|184:64|264:136|160:128,1,140
170,197,50501,1,0
170,266,50715,2,0,B|194:338|266:258|258:362,1,140,0|0
328,352,51358,1,0
328,280,51572,1,4
48,160,53287,6,0,B|120:96|152:192|176:112,1,140
240,128,53929,1,0
296,88,54144,1,0
360,120,54358,2,0,B|312:176|384:240|416:248,1,140
392,304,55001,6,0,B|352:336|288:280|264:256,1,140
200,248,55644,1,0
160,304,55858,2,0,B|72:336|32:224,1,140
88,200,56501,1,0
56,136,56715,6,0,B|96:72|152:152|184:88,1,140
248,104,57358,1,0
304,64,57572,2,0,B|408:32|448:112,1,140
256,192,58429,5,4
448,192,59929,6,0,B|472:152|480:56|352:32|320:80|312:96|256:88,1,280
220,139,61001,1,0
170,89,61215,1,0
120,138,61429,2,0,B|64:218|192:378|288:322,1,280
256,344,63572,6,0,B|328:320|248:248|352:256,1,140
342,187,64215,1,0
342,118,64429,2,0,B|318:46|246:126|254:22,1,140,0|0
184,32,65072,1,0
184,104,65287,1,4
464,224,67001,6,0,B|392:288|360:192|336:272,1,140
272,256,67644,1,0
216,296,67858,1,0
152,264,68072,2,0,B|200:208|128:144|96:136,1,140
112,80,68715,1,4
256,192,68930,12,0,71715
88,48,72144,5,4
88,258,72787,1,8
150,227,73001,1,0
216,248,73215,1,0
283,227,73429,1,0
332,276,73644,2,0,B|412:228,1,70,8|0
384,120,74501,6,0,L|336:56,1,70,8|0
288,104,74929,1,0
232,64,75144,1,0
176,104,75358,1,8
120,64,75572,1,0
48,264,76215,6,0,L|96:328,1,70,8|0
144,280,76644,1,0
200,320,76858,1,0
256,280,77072,1,8
312,320,77287,1,0
328,152,77929,5,8
384,112,78144,1,0
336,64,78358,1,0
280,104,78572,1,0
160,168,79001,1,4
336,272,79644,5,8
400,240,79858,1,0
352,184,80072,1,0
288,160,80287,1,0
320,96,80501,1,8
280,40,80715,1,0
96,136,81358,5,8
48,184,81572,1,0
72,248,81787,1,0
136,280,82001,1,0
208,280,82215,2,0,B|240:248|280:288,1,70,8|0
440,160,83072,6,0,B|480:120|384:40,1,140,8|0
320,48,83715,1,0
256,80,83929,2,0,B|208:40|144:40|96:72,1,140,8|0
88,184,84787,5,8
88,184,85001,1,0
88,184,85215,1,0
88,184,85430,2,0,B|136:144|168:208|208:176|224:168,1,140,0|4
256,40,87358,6,0,B|432:48|376:184|464:208,1,280
416,264,88429,1,0
352,296,88644,1,0
296,336,88858,2,0,B|256:264|80:296|128:176|80:152,1,280
56,328,91001,6,0,B|80:216|192:224|200:152,1,210
200,104,91858,1,0
256,64,92072,2,0,B|352:56|400:144,1,140
352,184,92715,1,4
208,336,93358,5,8
168,280,93572,1,0
208,224,93787,1,0
160,176,94001,1,0
192,112,94215,2,0,B|232:64|280:80,1,70,8|0
464,72,95072,5,8
408,112,95287,1,0
384,176,95501,1,0
320,200,95715,1,0
312,272,95929,2,0,B|280:320|248:296,1,70,8|0
48,280,96787,6,0,B|104:240|64:208,1,70,8|0
128,176,97215,1,0
80,128,97429,2,0,B|40:88|104:56,1,70,0|8
152,64,97858,1,0
432,72,98715,6,0,B|432:128,4,35,8|0|0|0|0
432,216,99572,1,4
48,192,106429,6,0,L|80:144|104:192|120:144|136:192|152:144|160:160,1,280
464,192,108144,6,0,L|432:144|408:192|392:144|376:192|360:144|352:160,1,280,0|0
80,40,109858,6,0,B|8:120|104:184,1,140
144,160,110501,1,0
144,229,110715,2,0,B|216:309|120:373,1,140
464,349,111572,6,0,B|536:269|440:205,1,140
400,229,112215,1,0
400,160,112429,2,0,B|328:80|424:16,1,140
256,192,127001,5,4
56,192,128501,6,0,B|112:136,1,70
128,208,128929,2,0,B|192:144,1,70
208,224,129358,2,0,B|264:168,1,70
328,176,129787,2,0,B|400:176,1,70
464,176,130215,2,0,L|440:216|424:240,3,70
40,72,132144,5,0
112,72,132358,2,0,L|80:136,1,70
144,168,132787,2,0,L|208:200,1,70
200,272,133215,2,0,L|136:304,3,70
256,64,135572,6,0,B|336:48,2,70
216,120,136215,1,0
166,169,136429,2,0,B|98:202,2,70
304,192,137287,6,0,B|240:240,1,70
280,296,137715,1,0
344,320,137929,2,0,B|400:264,2,70
464,152,139001,6,0,B|408:96,1,70
352,80,139429,1,0
288,104,139644,2,0,B|208:112,1,70
152,128,140072,1,0
104,176,140287,1,0
240,184,140715,5,4
416,192,142215,6,0,B|464:160|416:128,1,70
392,72,142644,2,0,B|344:80|344:136,1,70
304,176,143072,1,0
256,128,143287,2,0,B|216:80|168:120,1,70
128,112,143715,1,0
56,104,143929,2,0,B|40:152|80:184,3,70
120,336,145858,6,0,B|80:320|80:272,1,70
128,232,146287,2,0,B|168:192|112:160,1,70
72,128,146715,1,0
64,56,146930,2,0,B|112:16|128:80,3,70
256,48,149287,6,0,B|208:64|224:112,1,70
280,144,149715,1,0
272,216,149930,2,0,B|240:256|200:224,1,70
176,176,150358,2,0,B|136:144|104:200,1,70
256,192,150787,12,0,154001
424,336,154430,5,4
424,126,155072,1,8
362,157,155287,1,0
296,136,155501,1,0
229,157,155715,1,0
180,108,155930,2,0,B|100:156,1,70,8|0
128,264,156787,6,0,L|176:328,1,70,8|0
224,280,157215,1,0
280,320,157430,1,0
336,280,157644,1,8
392,320,157858,1,0
464,120,158501,6,0,L|416:56,1,70,8|0
368,104,158930,1,0
312,64,159144,1,0
256,104,159358,1,8
200,64,159572,1,0
184,232,160215,5,8
128,280,160430,1,0
184,328,160644,1,0
232,280,160858,1,0
352,216,161287,1,4
176,112,161930,5,8
112,144,162144,1,0
160,200,162358,1,0
224,224,162572,1,0
192,288,162787,1,8
232,344,163001,1,0
416,248,163644,5,8
464,200,163858,1,0
440,136,164072,1,0
376,104,164287,1,0
304,104,164501,2,0,B|272:136|232:96,1,70,8|0
72,224,165358,6,0,B|32:264|128:344,1,140,8|0
192,336,166001,1,0
256,304,166215,2,0,B|304:344|368:344|416:312,1,140,8|0
424,200,167072,5,8
424,200,167287,1,0
424,200,167501,1,0
424,200,167715,1,0
285,200,168144,1,4
