osu file format v7

[General]
AudioFilename: 02 Omen.mp3
AudioLeadIn: 0
PreviewTime: 72164
Countdown: 1
SampleSet: Normal
StackLeniency: 0.7
Mode: 0
LetterboxInBreaks: 1

[Editor]
DistanceSpacing: 1
BeatDivisor: 4
GridSize: 8

[Metadata]
Title:Omen
Artist:The Prodigy
Creator:dlguiga
Version:Hard
Source:
Tags:invaders must die bittersweet

[Difficulty]
HPDrainRate:6
CircleSize:5
OverallDifficulty:7
SliderMultiplier:1.4
SliderTickRate:2

[Events]
//Background and Video events
0,0,"stencil1.jpg"
//Break Periods
2,113058,126101
//Storyboard Layer 0 (Background)
//Storyboard Layer 1 (Fail)
//Storyboard Layer 2 (Pass)
//Storyboard Layer 3 (Foreground)
//Storyboard Sound Samples
//Background Colour Transformations
3,100,163,162,255

[TimingPoints]
10430,428.571428571429,4,1,0,100,1,0
37635,-100,4,2,2,100,0,0
44628,-100,4,1,0,100,0,0
72144,-100,4,1,0,100,0,1
99572,-100,4,1,0,100,0,0
154430,-100,4,1,0,100,0,1
168144,-100,4,1,0,100,0,0

[Colours]
Combo1 : 39,89,91
Combo2 : 164,255,255
Combo3 : 255,255,255
Combo4 : 0,107,205

[HitObjects]
144,112,10429,1,0
214,112,10644,1,0
283,112,10858,1,8
352,112,11072,2,0,B|400:192|336:272,1,140
284,244,11715,1,8
214,244,11929,1,0
214,244,12037,1,0
214,244,12144,1,0
96,168,12572,6,0,B|136:104|144:104|200:176,1,140,8|0
248,128,13215,1,0
312,160,13429,1,8
361,110,13644,1,0
416,64,13858,1,0
416,208,14287,6,0,B|336:208,1,70,8|0
296,256,14715,1,0
232,224,14929,2,0,B|232:136,1,70,0|8
208,88,15358,1,0
136,72,15572,2,0,B|56:72,1,70
40,136,16001,2,0,B|40:208,1,70,8|0
96,248,16429,5,0
96,248,16537,1,0
96,248,16644,1,0
96,248,16751,1,0
96,248,16858,2,0,B|97:334,1,70
168,312,17287,5,8
232,280,17501,1,0
192,224,17715,1,0
216,160,17929,2,0,B|250:115|274:171,1,70,0|8
312,104,18358,1,0
368,144,18572,1,0
344,208,18787,1,0
384,264,19001,1,8
152,328,19430,6,0,B|69:275|165:211,1,140,0|8
112,160,20072,1,0
176,128,20287,1,0
240,152,20501,1,0
296,112,20715,1,8
456,288,21144,6,0,B|422:354|414:370|358:266,1,140,0|8
304,264,21787,1,0
254,313,22001,1,0
204,263,22215,1,0
253,213,22430,1,8
416,48,22858,5,0
366,97,23072,1,0
415,146,23287,1,8
415,146,23394,1,0
415,146,23501,1,0
415,146,23608,1,0
415,146,23715,1,0
256,160,24144,5,8
206,110,24358,1,0
156,159,24572,1,0
205,208,24787,2,0,B|247:208|248:259,1,70,0|8
247,253,25215,1,0
304,216,25430,1,0
353,265,25644,1,0
402,215,25858,1,8
402,145,26072,2,0,B|402:105|354:105,1,70,8|8
319,165,26501,5,0
269,115,26715,1,0
219,164,26930,1,0
219,233,27144,1,8
149,233,27358,2,0,B|117:233|109:233|109:177,1,70,0|8
88,128,27787,1,0
88,128,28001,1,0
128,72,28215,6,0,B|184:72|184:136,1,70,0|8
232,64,28644,1,0
288,104,28858,1,0
352,72,29072,1,0
416,104,29287,1,8
416,104,29501,2,0,B|416:160|352:160,1,70
317,256,29930,6,0,B|264:256|264:200,1,70,0|8
195,218,30358,1,0
125,218,30572,1,0
125,218,30680,1,0
125,218,30787,1,0
125,218,30894,1,0
125,218,31001,1,8
168,88,31430,5,0
232,64,31644,1,0
304,72,31858,1,8
368,104,32072,2,0,B|368:152|312:152,1,70
328,152,32501,1,0
288,208,32715,1,8
240,256,32930,2,0,B|200:256|200:200,1,70
136,232,33358,5,0
88,184,33572,1,8
48,128,33787,1,0
97,78,34001,1,0
97,78,34215,2,0,B|133:78|133:133,1,70,0|8
132,198,34644,1,0
82,247,34858,1,0
131,296,35072,6,0,B|187:296|187:360,1,70
233,283,35501,1,0
282,332,35715,1,0
352,332,35930,1,0
352,262,36144,6,0,B|416:182,1,70
371,182,36465,2,0,B|295:125,1,70
279,140,36787,2,0,B|196:140,1,70
174,140,37108,2,0,B|96:140,1,70,0|0
68,140,37430,1,0
256,200,37858,6,0,B|256:248,2,35
326,200,38287,2,0,B|326:240,2,35
395,200,38715,2,0,B|395:240,2,35
395,129,39144,6,0,B|395:89,2,35
325,129,39572,2,0,B|325:89,2,35
254,129,40001,2,0,B|254:89,2,35
254,199,40430,2,0,B|294:199,2,35
254,268,40858,2,0,B|294:268,2,35
183,268,41287,5,0
183,268,41394,1,0
183,268,41501,1,0
113,268,41715,5,0
113,268,41822,1,0
113,268,41930,1,0
113,198,42144,5,0
63,148,42358,1,0
63,78,42572,1,0
133,78,42787,1,0
202,78,43001,1,0
271,78,43215,6,0,L|271:133,2,35
320,127,43644,2,0,L|320:182,2,35
369,176,44072,1,0
369,176,44179,1,0
369,176,44287,1,0
368,317,44715,6,0,L|216:317,1,140,8|0
157,317,45358,6,0,L|157:365,2,35,0|0|8
86,317,45787,1,0
86,318,45894,1,0
86,318,46001,1,8
88,176,46430,6,0,C|256:176,1,140
297,176,47072,1,0
367,176,47287,1,8
416,126,47501,1,0
346,126,47715,2,0,C|286:125|286:30|176:29|195:41,1,280,8|8
179,98,48787,6,0,C|136:98,2,35,0|0|8
179,167,49215,2,0,C|136:167,2,35,0|0|8
179,265,49858,6,8,C|304:336|432:264,1,280
419,201,50929,1,0
419,130,51144,1,0
419,60,51358,6,0,C|339:59,1,70,0|8
288,96,51787,2,0,C|232:96,2,35
296,168,52215,1,0
296,168,52322,1,0
296,168,52429,1,8
225,168,52644,1,0
225,168,52751,1,0
225,168,52858,1,0
155,168,53072,1,0
155,168,53179,1,0
155,168,53287,6,0,C|155:296|451:248,1,420,8|0
472,120,55001,2,0,C|352:32|120:160,1,420,8|0
208,272,56715,2,0,C|392:336|480:272,1,280,8|0
425,230,57787,1,0
396,165,58001,1,0
251,186,58429,5,8
201,235,58644,1,0
151,185,58858,1,0
151,115,59072,2,0,C|223:115,1,70
291,115,59501,1,0
265,18,59929,6,0,C|433:114|321:258,1,350
273,232,61215,1,0
203,232,61430,1,0
132,232,61644,1,0
203,232,61858,1,0
203,162,62072,2,0,C|107:162,1,70
456,64,62715,5,0
64,64,63144,1,0
64,176,63572,6,0,C|136:200|160:152|248:192|288:144|360:184|376:144|376:144,1,420
376,272,65072,1,0
264,272,65287,1,0
256,192,65501,12,0,66572
80,56,67001,6,0,C|224:48|256:192,1,280
183,174,68072,1,0
112,174,68287,1,0
256,40,68715,5,0
256,110,68929,1,0
325,110,69144,1,0
325,249,69572,1,0
254,249,69787,1,0
254,318,70001,1,0
113,318,70429,5,0
113,248,70644,1,0
43,248,70858,1,0
256,192,71072,12,0,71715
72,208,72144,6,0,B|72:168|120:168,1,70,4|0
188,168,72572,1,0
258,168,72787,1,0
258,237,73001,2,0,B|258:277|210:277,1,70,8|0
211,347,73429,1,0
280,347,73644,1,0
349,347,73858,2,0,B|405:347|405:275,1,70,8|0
400,238,74287,1,0
400,168,74501,6,0,B|400:110|338:110,1,70,0|8
294,113,74929,1,0
244,63,75144,1,0
194,112,75358,1,0
144,62,75572,1,8
48,328,76215,6,0,B|104:328|104:256,1,70,0|8
170,289,76644,1,0
239,289,76858,1,0
288,239,77072,1,0
337,288,77287,1,8
406,288,77501,2,0,B|462:288|462:216,1,70
457,179,77929,1,0
256,192,78144,5,8
256,192,78251,1,0
256,192,78358,1,0
256,192,78465,1,0
256,192,78572,1,0
256,80,79001,6,0,B|208:80|208:32,1,70,8|0
138,39,79429,1,0
88,88,79644,1,0
38,137,79858,1,8
87,186,80072,2,0,B|143:186|143:258,1,70
188,174,80501,1,0
237,223,80715,1,8
286,173,80929,1,0
286,103,81144,1,0
286,33,81358,5,0
355,33,81572,1,8
355,103,81787,1,0
355,172,82001,1,0
355,241,82215,2,0,B|355:285|305:283,1,70,0|8
189,240,83072,5,0
189,169,83287,1,8
189,99,83501,1,0
189,29,83715,1,0
259,29,83929,2,0,B|304:29|304:87,1,70,0|8
303,212,84572,1,0
303,212,85001,6,0,B|345:212|350:211,7,35,8|0|0|0|0|0|0|0
372,211,85858,1,8
448,56,86287,5,0
378,56,86501,1,0
308,56,86715,1,8
237,56,86929,2,0,B|237:112|165:112,1,70
149,58,87358,1,0
99,107,87572,1,8
99,177,87787,2,0,B|99:248,1,70,0|0
256,336,88215,5,0
256,336,88429,1,8
256,336,88644,1,0
256,336,88858,1,0
256,336,89072,2,0,B|304:312|304:344|328:320,1,70,0|8
256,40,89929,5,0
256,40,90144,1,8
256,40,90358,1,0
256,40,90572,2,0,B|232:88|264:88|240:112,2,70,0|0|8
244,106,91215,1,0
173,106,91429,1,0
173,176,91644,1,0
173,246,91858,5,8
173,246,91965,1,0
173,246,92072,1,0
173,246,92179,1,0
173,246,92287,1,0
39,136,92715,6,0,B|38:220,2,70,8|0|0
109,136,93358,1,0
178,136,93572,1,8
248,136,93787,2,0,B|248:192|320:192,3,70,0|0|0|8
356,187,94644,2,0,B|427:187,1,70
426,256,95072,5,0
355,256,95287,1,8
305,206,95501,1,0
255,156,95715,2,0,B|207:180|207:148|183:172,2,70,0|0|8
224,96,96358,5,0
174,46,96572,1,0
124,95,96787,1,0
74,144,97001,1,8
123,193,97215,1,0
193,193,97429,2,0,B|339:193,1,140,0|8
402,193,98072,1,0
402,122,98287,1,0
352,72,98501,1,0
282,72,98715,2,0,B|208:72|210:181,1,140,8|0
449,305,99572,5,4
336,304,100001,6,0,B|312:280|312:304|296:280|296:304|280:280|280:304|264:280|264:304|248:280|248:304|232:280|232:304|216:280|216:304|200:280|200:304|184:280|184:304|168:280|168:304|152:280|152:304|136:280|136:304|120:280|120:304|104:280|104:304|88:280|88:304|72:280|72:304|48:264,1,280
61,170,101287,6,0,B|85:146|85:170|101:146|101:170|117:146|117:170|133:146|133:170|149:146|149:170|165:146|165:170|181:146|181:170|197:146|197:170|213:146|213:170|229:146|229:170|245:146|245:170|261:146|261:170|277:146|277:170|293:146|293:170|309:146|309:170|325:146|325:170|349:130,1,280
475,148,102572,1,0
256,56,103001,6,0,B|256:144,1,70
256,196,103429,2,0,B|256:292,1,70
256,335,103858,2,0,B|180:335,1,70
115,335,104287,2,0,B|39:335,1,70
45,265,104715,2,0,B|45:189,1,70
45,124,105144,2,0,B|45:48,1,70
45,54,105572,1,0
45,54,105679,1,0
45,54,105787,1,0
45,54,105894,1,0
45,54,106001,1,0
256,56,106429,5,8
176,304,106858,6,0,B|200:280|200:304|216:280|216:304|232:280|232:304|248:280|248:304|264:280|264:304|280:280|280:304|296:280|296:304|312:280|312:304|328:280|328:304|344:280|344:304|360:280|360:304|376:280|376:304|392:280|392:304|408:280|408:304|424:280|424:304|440:280|440:304|464:264,1,280
451,170,108144,6,0,B|427:146|427:170|411:146|411:170|395:146|395:170|379:146|379:170|363:146|363:170|347:146|347:170|331:146|331:170|315:146|315:170|299:146|299:170|283:146|283:170|267:146|267:170|251:146|251:170|235:146|235:170|219:146|219:170|203:146|203:170|187:146|187:170|163:130,1,280
36,148,109429,1,0
256,56,109858,6,0,B|256:144,1,70,0|0
256,196,110287,2,0,B|256:292,1,70
256,335,110715,2,0,B|332:335,1,70
396,335,111144,2,0,B|472:335,1,70
466,265,111572,2,0,B|466:189,1,70
466,124,112001,2,0,B|466:48,1,70
466,54,112429,1,0
466,54,112537,1,0
466,54,112644,1,0
466,54,112751,1,0
466,54,112858,1,0
264,80,127001,5,4
404,80,127429,1,0
404,80,127644,2,0,B|404:192,1,105
404,255,128179,1,0
404,255,128287,1,8
334,255,128501,1,0
264,255,128715,6,0,B|344:104|231:71|108:95|57:275,1,420
176,208,130429,5,8
176,347,130858,1,0
351,347,131394,1,0
351,277,131608,1,0
351,242,131715,1,8
315,154,132144,6,0,B|446:173|372:88|267:35|285:41,1,210
217,43,133001,2,0,B|135:88|97:170|245:163,1,210
273,213,133858,1,0
296,328,134287,5,8
226,328,134501,1,0
121,328,134822,1,0
71,278,135037,1,0
71,278,135144,1,8
71,138,135572,5,0
211,138,136001,1,8
211,138,136215,2,0,B|211:26,1,105
144,32,136751,1,0
144,32,136858,1,8
272,32,137287,6,0,B|216:112|440:96|392:192|384:208,1,210
391,248,138144,1,0
321,248,138358,2,0,B|290:364|230:228|109:303,1,210
160,216,139215,5,0
160,145,139429,1,8
160,75,139644,1,0
229,75,139858,5,0
263,75,139965,1,0
297,75,140072,1,0
332,75,140179,1,0
332,109,140287,2,0,B|475:109,1,140,0|4
450,163,140929,6,0,B|450:203,2,35,0|0|0
380,163,141358,6,0,B|380:203,2,35
309,163,141787,6,0,B|309:203,2,35
239,163,142215,6,0,B|236:91|128:36|29:112|11:144|59:191,1,280
80,224,143287,1,0
149,224,143501,1,0
218,224,143715,2,0,B|262:286|337:302|415:206,1,210
361,166,144572,1,0
369,51,145001,6,0,B|297:51,1,70
228,51,145429,2,0,B|129:51,1,70
88,51,145858,6,0,B|10:146|93:268,1,210
149,246,146715,1,0
219,246,146930,1,0
288,246,147144,2,0,B|366:151|283:29,1,210
352,43,148001,6,0,B|430:43,1,70
422,113,148430,2,0,B|422:202,1,70
422,252,148858,2,0,B|422:334,1,70
351,322,149287,6,0,B|256:400|134:317,1,210
155,260,150144,1,0
155,190,150358,1,0
155,120,150572,1,4
256,192,150787,12,0,154001
440,208,154430,6,0,B|440:168|392:168,1,70,4|0
323,168,154858,1,0
252,168,155072,1,0
182,168,155287,2,0,B|182:208|134:208,1,70,8|0
85,158,155715,1,0
134,108,155930,1,0
203,108,156144,2,0,B|259:108|259:36,1,70,8|0
325,69,156572,1,0
394,69,156787,6,0,B|394:127|456:127,1,70,0|8
478,173,157215,1,0
428,222,157430,1,0
378,271,157644,1,0
328,221,157858,1,8
464,328,158501,6,0,B|408:328|408:256,1,70,0|8
341,289,158930,1,0
271,289,159144,1,0
201,289,159358,1,0
130,289,159572,1,8
60,289,159787,2,0,B|4:289|4:217,1,70
57,201,160215,1,0
208,200,160430,5,8
208,200,160537,1,0
208,200,160644,1,0
208,200,160751,1,0
208,200,160858,1,0
256,80,161287,6,0,B|304:80|304:32,1,70,8|0
373,39,161715,1,0
422,88,161930,1,0
471,137,162144,1,8
471,206,162358,2,0,B|415:206|415:278,1,70
348,244,162787,1,0
278,244,163001,1,8
207,244,163215,1,0
207,174,163430,1,0
207,104,163644,5,0
137,104,163858,1,8
137,174,164072,1,0
137,243,164287,1,0
137,312,164501,2,0,B|137:356|187:354,1,70,0|8
323,310,165144,5,0
323,240,165358,1,0
323,169,165572,1,8
323,99,165787,1,0
323,29,166001,1,0
252,29,166215,2,0,B|207:29|207:87,1,70,0|8
207,212,166858,1,0
207,212,167287,6,0,B|165:212|160:211,7,35,8|0|0|0|0|0|0|0
137,211,168144,1,8
137,141,168358,5,0
206,141,168572,1,0
276,141,168787,2,0,B|318:141,2,35,0|0|8
276,210,169215,1,0
276,280,169430,1,0
88,224,169858,6,0,B|48:224|56:256|32:280|88:296|40:304|48:328|0:328|80:344|-8:344|32:344,1,140,8|0
256,192,170501,12,0,171144
424,224,171572,6,0,B|464:224|456:256|480:280|424:296|472:304|464:328|512:328|432:344|520:344|480:344,1,140,8|0
424,144,172215,5,0
424,144,172322,1,0
424,144,172430,1,0
424,144,172537,1,0
425,39,172858,1,0
194,147,173287,5,0
232,88,173501,1,0
296,120,173715,1,8
352,72,173930,1,0
400,120,174144,1,0
400,256,174572,1,8
272,200,175001,1,0
152,272,175430,5,8
112,216,175644,1,0
112,216,175751,1,0
112,216,175858,1,0
112,216,175965,1,0
184,136,176287,1,8
304,64,176715,6,0,L|333:40|357:64|373:32|405:56,1,140,0|8
312,160,177572,1,0
262,209,177787,1,0
311,258,178001,1,8
448,328,178430,6,0,L|472:299|448:275|480:259|456:227,1,140,0|8
432,168,179072,1,0
432,168,179180,1,0
432,168,179287,1,0
432,168,179394,1,0
360,88,179715,1,8
224,64,180144,6,0,L|195:40|171:64|155:32|123:56,1,140,0|8
48,168,181001,1,0
104,208,181215,1,0
120,272,181430,1,8
240,352,181858,5,0
312,344,182072,1,0
320,272,182287,1,8
352,136,182715,1,0
304,80,182930,1,0
248,120,183144,1,8
144,208,183572,5,0
184,264,183787,1,0
136,312,184001,1,8
272,320,184430,1,0
320,272,184644,1,0
376,312,184858,1,8
256,192,185287,5,4
