osu file format v9

[General]
AudioFilename: 02-the_prodigy_-_omen.mp3
AudioLeadIn: 0
PreviewTime: 24135
Countdown: 0
SampleSet: Normal
StackLeniency: 0.6
Mode: 0
LetterboxInBreaks: 1

[Editor]
Bookmarks: 25509,48135,51564,113278,126992,133849,140706,150564,161278,168135
DistanceSpacing: 0.8
BeatDivisor: 4
GridSize: 4

[Metadata]
Title:Omen
Artist:The Prodigy
Creator:Thunderstorm
Version:Normal
Source:
Tags:Encrypto Kotya hackSL Invaders Must Die Collab

[Difficulty]
HPDrainRate:3
CircleSize:4
OverallDifficulty:4
ApproachRate:5
SliderMultiplier:1.4
SliderTickRate:1

[Events]
//Background and Video events
0,0,"BG.jpg"
//Break Periods
2,38137,43594
2,51423,57309
2,86137,91594
2,106709,112166
2,127280,132737
2,175280,180737
2,192423,197880
//Storyboard Layer 0 (Background)
//Storyboard Layer 1 (Fail)
//Storyboard Layer 2 (Pass)
//Storyboard Layer 3 (Foreground)
//Storyboard Sound Samples
//Background Colour Transformations
3,100,255,255,255

[TimingPoints]
3652,428.571428571429,4,2,0,71,1,0
10001,-100,4,1,0,71,0,0
44706,-100,4,2,0,71,0,0
58323,-100,4,1,0,71,0,0
92794,-100,4,1,0,71,0,1
92794,-100,4,1,0,71,0,1
99652,-100,4,1,0,71,0,0
113287,-100,4,2,0,71,0,0
126992,-100,4,2,0,71,0,0
140794,-100,4,1,0,71,0,0
154509,-100,4,1,0,71,0,1
175080,-100,4,1,0,71,0,0

[Colours]
Combo1 : 0,221,0
Combo2 : 0,0,159
Combo3 : 213,0,0
Combo4 : 149,0,149

[HitObjects]
56,328,3652,1,0
214,169,4509,1,2
102,169,4937,1,2
160,72,5366,2,0,B|192:-8|296:20,1,140
303,124,6223,5,2
248,216,6651,1,2
360,216,7080,1,2
200,56,7937,5,2
121,136,8366,1,2
121,247,8794,2,0,B|35:238|27:134,1,140
120,88,9651,5,2
175,88,9866,1,2
214,127,10080,2,0,B|214:215|318:223,1,140,4|4
457,62,11366,5,0
377,141,11794,2,0,B|322:167|394:215,1,70
368,251,12223,1,0
144,251,13080,5,0
144,138,13509,2,0,B|146:47,2,70
256,138,14366,1,8
335,217,14794,5,0
414,296,15223,1,0
493,216,15651,1,0
413,136,16080,1,8
312,86,16509,2,2,B|352:16|443:42,2,140
166,252,18223,5,0
245,331,18652,1,0
324,251,19080,2,0,B|463:253,1,140,0|8
408,155,19937,6,0,B|480:102|408:22,1,140
338,113,20794,1,0
225,113,21223,1,8
280,208,21652,6,0,B|280:336,4,70
280,95,22937,1,8
167,95,23366,5,2
167,206,23794,1,4
167,262,24009,1,4
167,317,24223,1,4
263,260,24652,6,0,B|296:336|401:286,1,140
456,216,25509,2,0,B|416:136|323:190,1,140
226,181,26366,1,8
231,67,26794,5,0
329,121,27223,2,0,B|409:137|417:225,1,140,0|4
336,296,28080,1,8
256,216,28509,5,0
176,136,28937,1,0
96,215,29366,2,0,B|35:348,1,140,0|8
145,310,30223,2,0,B|256:400|416:304,1,280,0|4
320,224,31509,5,0
384,128,31937,1,0
271,128,32366,2,0,B|255:48|151:56,1,140
166,279,33652,5,8
278,279,34080,1,8
390,279,34509,1,8
275,86,35366,6,2,B|232:162|296:242,1,140
256,192,36223,12,4,37937
384,56,44794,6,2,B|248:152|96:48,2,280
384,168,46937,5,2
304,247,47366,1,2
383,167,47794,2,2,B|456:168|456:168,1,70,2|6
480,288,49937,5,2
440,248,50151,1,0
440,136,50580,1,2
327,136,51009,1,0
287,96,51223,1,2
364,109,58509,5,4
55,193,60223,6,0,B|56:280|160:296,2,140
55,80,61509,1,0
110,80,61723,1,0
278,80,62366,5,8
278,303,63223,1,8
278,190,63651,6,0,B|124:191,1,140,0|0
138,190,64294,1,0
138,303,64723,2,0,B|210:304,1,70,0|4
320,303,65366,5,0
399,223,65794,1,8
240,64,66651,1,8
240,175,67080,5,2
184,175,67294,1,2
86,229,67723,2,2,B|24:304|112:360,1,140
256,192,68794,12,4,72223
256,112,73080,2,0,B|256:32,2,70
176,191,73937,2,0,B|104:248|168:312,1,140,0|8
276,316,74794,5,0
332,220,75223,1,0
332,164,75437,1,0
295,195,75651,1,0
488,80,76509,2,0,B|456:1|360:17,2,140
404,152,77794,1,8
291,152,78223,2,6,B|291:68,4,70,0|2|2|2|4
178,152,79509,5,8
98,231,79937,2,0,B|127:305|244:298,2,140
98,118,81223,1,8
196,60,81651,2,0,B|250:7|348:34,1,140
328,28,82294,1,0
328,28,82509,1,0
388,124,82937,5,8
294,181,83366,1,0
373,260,83794,1,0
293,339,84223,2,0,B|200:344|171:261,1,140,0|8
98,197,85080,5,2
177,117,85509,1,2
216,77,85723,1,2
255,116,85937,1,6
336,112,92794,21,0
256,32,93223,1,8
178,117,93651,2,0,B|222:185|179:269,2,140,0|0|8
178,117,94723,1,8
65,117,95151,2,2,B|24:184|61:261,1,140
216,312,96223,5,8
216,312,96437,1,8
328,312,96866,1,2
272,216,97294,1,2
440,216,97937,2,8,B|440:137,1,70
360,64,98580,2,2,B|283:91|276:173,1,140,2|6
157,49,99651,5,0
157,161,100080,1,8
256,104,100509,2,0,B|312:168|256:240,1,140
341,311,101366,5,0
341,311,101580,1,0
341,311,101794,1,8
341,198,102223,2,2,B|341:126,2,70
256,264,103080,6,0,B|184:296|112:264,1,140,0|8
118,153,103937,2,0,B|184:120|262:153,1,140,0|8
334,71,104794,1,0
413,150,105223,1,8
333,229,105651,5,4
253,308,106080,1,4
197,308,106294,1,4
140,308,106509,1,0
256,280,113366,5,0
256,168,113794,1,2
256,56,114223,1,2
156,108,114651,2,2,L|4:108,1,140
76,200,115509,1,2
76,311,115937,1,2
188,311,116366,6,2,L|260:311,2,70
151,205,117223,1,2
262,205,117651,1,2
204,108,118080,1,2
316,108,118509,2,2,B|356:44|453:67,1,140
439,176,119366,2,2,B|362:179|363:259,1,105
364,319,120009,1,2
419,319,120223,1,6
307,319,120651,6,2,B|237:278|241:189,1,140
128,203,121509,1,2
48,123,121937,1,2
127,43,122366,2,2,B|165:102|258:103,1,140
359,102,123223,5,2
359,102,123437,1,2
359,102,123651,1,2
438,181,124080,2,2,B|355:305,1,140
248,297,124937,1,0
248,184,125366,5,2
168,104,125794,1,2
88,183,126223,2,2,B|39:228|88:291,1,105
162,277,126866,2,0,B|206:263|229:313,1,70,2|6
64,200,133937,6,2,B|8:72,1,140,2|10
119,71,134794,2,2,B|180:201,1,140,2|10
178,309,135651,5,8
178,309,135866,1,8
272,248,136294,2,2,B|344:216|312:128,1,140
144,130,137366,5,8
104,90,137580,1,8
204,39,138009,1,2
283,118,138437,1,2
432,42,139080,2,8,B|459:114,1,70
377,186,139723,1,2
377,297,140151,1,6
258,178,140794,5,4
258,65,141223,2,0,B|128:120,2,140,4|0|4
360,111,142509,5,0
439,190,142937,1,0
359,269,143366,2,2,B|324:334|222:319,1,140
240,320,144009,1,6
121,201,144651,1,8
239,82,145294,1,0
295,82,145509,1,8
295,193,145937,6,8,B|183:193,1,70
145,113,146580,1,2
48,176,147009,1,4
48,176,147223,1,12
144,232,147652,6,0,B|80:312|176:368,1,140,0|8
240,288,148509,2,0,B|304:208|208:152,1,140,0|8
229,54,149366,1,2
229,54,149580,1,2
335,89,150009,2,2,B|416:120|408:222,1,140,2|6
256,192,151080,12,4,154509
256,192,155366,5,0
160,136,155794,2,0,B|96:88,2,70
160,248,156652,1,8
257,303,157080,1,0
361,261,157509,1,0
385,213,157723,1,0
361,165,157937,1,0
281,85,158366,5,8
169,85,158794,2,0,B|80:104|96:216,2,140
248,164,160080,1,8
248,276,160509,1,2
340,212,160937,1,2
388,188,161152,1,2
436,164,161366,1,4
356,88,161794,5,0
243,88,162223,2,0,B|156:104|156:200,2,140
293,188,163509,1,8
293,299,163937,1,0
196,240,164366,2,0,B|156:240|132:192,1,70
112,156,164794,1,0
220,128,165223,2,0,B|236:56|325:35,1,140,8|0
395,116,166080,5,0
380,168,166294,1,0
404,216,166509,1,0
324,295,166937,2,0,B|300:327|260:335|220:327|188:279,1,140,8|4
116,224,167794,1,4
200,152,168223,6,0,B|128:8,1,140,0|8
246,31,169080,1,0
286,31,169294,1,0
270,71,169509,1,2
374,31,169937,2,0,B|446:160,1,140,0|8
323,272,171009,1,0
267,272,171223,1,2
159,303,171652,6,0,B|72:280|84:182,1,140,0|8
161,121,172509,1,0
240,200,172937,1,0
279,239,173152,1,0
318,278,173366,5,2
397,198,173794,1,2
360,160,174009,1,6
280,80,174437,1,4
167,80,174866,1,2
167,80,175080,1,6
88,88,181937,6,2,B|120:32|192:48,1,105,2|4
176,129,182580,2,2,B|200:192|285:169,1,105,0|6
320,114,183223,1,4
431,114,183652,5,2
431,198,183973,2,0,B|512:276,1,105,4|2
447,330,184616,1,4
363,330,184937,1,4
283,250,185366,5,0
203,170,185794,1,8
282,90,186223,1,0
321,129,186437,1,0
361,169,186652,1,8
315,271,187080,2,0,B|280:344|169:327,1,140,0|8
118,250,187937,2,0,B|96:160|177:108,1,140,0|8
249,185,188794,5,0
249,72,189223,1,8
144,120,189652,1,2
88,120,189866,1,2
32,120,190080,1,8
32,232,190509,6,0,B|184:232,1,140,0|8
251,152,191366,1,4
251,263,191794,1,4
352,208,192223,1,4
392,200,199080,6,2,B|464:80,1,140
351,79,199937,1,0
238,79,200366,1,8
296,176,200794,1,2
296,288,201223,1,2
200,232,201652,1,2
160,192,201866,1,0
120,231,202080,1,10
72,128,202509,6,0,B|72:64|136:32,1,105,2|4
180,100,203152,2,0,B|208:160|280:126,1,105,2|4
351,131,203794,1,4
256,192,204223,12,4,205937
