osu file format v9

[General]
AudioFilename: 02-the_prodigy_-_omen.mp3
AudioLeadIn: 0
PreviewTime: 24135
Countdown: 0
SampleSet: Normal
StackLeniency: 0.6
Mode: 0
LetterboxInBreaks: 1

[Editor]
Bookmarks: 3573,37644,58430,72144,92715,113287,127001,154430,168144,181858,185287,199001,205858
DistanceSpacing: 1
BeatDivisor: 4
GridSize: 4

[Metadata]
Title:Omen
Artist:The Prodigy
Creator:Thunderstorm
Version:Collab
Source:
Tags:Encrypto Kotya hackSL Invaders Must Die Collab

[Difficulty]
HPDrainRate:7
CircleSize:4
OverallDifficulty:7
ApproachRate:7
SliderMultiplier:2
SliderTickRate:1

[Events]
//Background and Video events
0,0,"BG.jpg"
//Break Periods
2,38137,43894
2,113566,126180
2,181708,184466
//Storyboard Layer 0 (Background)
//Storyboard Layer 1 (Fail)
//Storyboard Layer 2 (Pass)
//Storyboard Layer 3 (Foreground)
Sprite,Foreground,Centre,"Untitled-1.png",320,240 F,0,3437,3652,0.2,1 S,0,3652,,0.3919998 M,0,3759,,188,87 F,1,37509,37937,1,0 F,0,92580,92794,0.2,1 F,1,113152,113366,1,0 F,0,154294,154509,0.2,1 F,1,167794,168009,1,0
Sprite,Foreground,Centre,"Kotya.png",320,240 F,0,44580,44794,0.2,1 S,0,44794,,0.4320002 M,0,44794,58402,140,92 F,1,57866,58294,1,0 F,0,72009,72223,0.2,1 F,1,92366,92680,1,0 F,0,168009,168223,0.2,1 F,1,181294,181509,1,0 F,0,199080,199294,0.2,1 F,1,305723,305937,1,0
Sprite,Foreground,Centre,"hackSL.png",320,240 F,0,58294,58509,0.2,1 S,0,58509,,0.5039999 M,0,58509,72116,163,93 F,1,71794,72009,1,0 F,0,126866,127080,0.2,1 F,1,154080,154294,1,0 F,0,185152,185366,0.2,1 F,1,198866,199080,1,0
//Storyboard Sound Samples
//Background Colour Transformations
3,100,255,255,255

[TimingPoints]
3652,428.571428571429,4,2,0,77,1,0
10080,-100,4,1,0,77,0,0
37937,-100,4,2,0,77,0,0
55294,-100,4,2,0,60,0,0
55723,-100,4,2,0,40,0,0
56152,-100,4,2,0,20,0,0
57009,-100,4,2,0,40,0,0
57437,-100,4,2,0,60,0,0
57866,-100,4,2,0,80,0,0
68715,-100,4,1,0,77,0,0
92794,-100,4,1,0,77,0,1
92794,-100,4,1,0,77,0,1
99652,-100,4,1,0,77,0,0
113287,-100,4,2,0,77,0,0
126992,-100,4,2,0,77,0,0
139751,-100,4,1,0,77,0,0
141009,-100,4,2,0,77,0,0
141626,-100,4,1,0,77,0,0
142294,-100,4,2,0,77,0,0
142509,-100,4,1,0,77,0,0
142937,-100,4,2,0,77,0,0
143152,-100,4,1,0,77,0,0
144223,-100,4,2,0,77,0,0
144652,-100,4,1,0,77,0,0
145937,-100,4,2,0,77,0,0
146152,-100,4,1,0,77,0,0
146366,-100,4,1,0,77,0,0
146580,-100,4,2,0,77,0,0
147437,-100,4,2,0,77,0,0
147866,-100,4,1,0,77,0,0
149794,-100,4,2,0,77,0,0
150009,-100,4,1,0,77,0,0
154509,-100,4,1,0,77,0,1
168223,-100,4,1,0,77,0,1
169937,-200,4,1,0,77,0,1
170580,-100,4,1,0,77,0,1
171598,-200,4,1,0,77,0,1
172294,-100,4,1,0,77,0,1
176794,-200,4,1,0,77,0,1
177652,-100,4,1,0,77,0,1
178509,-200,4,1,0,77,0,1
179152,-100,4,1,0,77,0,1
180223,-200,4,1,0,77,0,1
181080,-100,4,1,0,77,0,1
181509,-100,4,1,0,77,0,0

[Colours]
Combo1 : 0,221,0
Combo2 : 0,0,159
Combo3 : 213,0,0
Combo4 : 149,0,149

[HitObjects]
80,64,3652,1,4
80,163,3866,1,2
179,163,4080,1,8
248,96,4294,2,0,B|304:111|318:168,1,100,2|8
248,240,4723,2,0,B|264:293|320:311,1,100,2|8
416,304,5152,1,2
486,233,5366,2,8,B|483:22,1,200
384,32,6009,5,4
304,96,6223,1,8
264,128,6330,1,2
224,160,6437,1,2
294,230,6651,1,8
223,300,6866,1,2
187,335,6973,1,2
151,299,7080,1,8
80,228,7294,2,0,B|44:180|80:124,1,100,2|4
168,88,7723,5,2
309,229,7937,1,8
167,370,8151,1,2
25,228,8366,1,8
168,88,8580,1,2
309,229,8794,2,8,B|369:144|459:182|499:269,1,200
404,301,9437,5,4
303,301,9651,1,8
266,264,9759,1,0
266,214,9866,1,0
230,178,9973,1,0
194,213,10080,2,4,B|140:256|72:256|8:212,1,200
146,65,10937,5,8
224,128,11151,1,0
294,57,11366,2,0,B|384:128,1,100
372,218,11794,1,8
372,318,12009,2,0,B|232:320,1,100
176,320,12437,1,0
176,220,12651,1,8
176,124,12866,5,0
275,124,13080,1,8
312,152,13187,1,0
320,200,13294,1,0
76,124,13509,5,8
32,144,13616,1,0
24,192,13723,1,0
68,284,13937,2,8,B|112:340|160:360|256:352,1,200
332,300,14580,5,0
402,229,14794,1,8
331,299,15009,1,0
260,228,15223,1,0
330,157,15437,1,0
400,227,15651,1,8
470,156,15866,1,0
468,108,15973,1,0
468,60,16080,1,4
368,60,16294,5,4
267,60,16509,1,4
231,95,16616,1,0
220,144,16723,1,0
232,192,16830,1,0
264,232,16937,1,4
264,332,17151,1,4
164,332,17366,6,0,B|112:332|68:288|48:232|68:180,1,200,0|8
136,116,18009,1,4
220,172,18223,1,0
320,172,18437,1,0
402,115,18652,1,8
480,176,18866,2,0,B|512:228|476:276,1,100,4|0
388,324,19294,1,0
352,288,19402,1,0
316,323,19509,1,8
352,228,19723,5,4
412,148,19937,1,0
436,104,20044,1,0
432,52,20152,1,0
332,56,20366,1,8
332,105,20473,1,0
282,105,20580,1,0
282,154,20687,1,0
232,154,20794,1,0
132,152,21009,1,4
132,152,21223,1,8
61,222,21437,6,0,B|16:276|64:323,1,100,0|0
154,312,21866,2,0,B|199:258|151:211,1,100,0|8
260,221,22294,1,4
330,150,22509,1,0
330,50,22723,2,0,B|390:40|435:95,1,100,0|8
492,151,23152,1,4
421,221,23366,2,0,B|461:291,2,50,0|0|0
256,312,23794,1,8
56,224,24009,1,4
91,120,24223,6,8,B|126:75|176:52|224:51|278:67,1,200
341,135,24866,1,0
341,135,25080,1,0
341,234,25294,1,4
341,234,25509,1,8
252,188,25723,1,0
152,188,25937,2,0,B|76:200|72:260|68:304|172:334,1,200,0|8
241,323,26580,5,4
311,252,26794,1,0
240,181,27009,1,0
275,145,27116,1,0
239,109,27223,1,8
309,38,27437,1,0
379,108,27652,1,0
449,178,27866,1,0
449,277,28080,1,8
349,277,28294,6,0,B|412:364,1,100
307,357,28723,2,0,B|245:277,1,100,0|8
245,177,29152,1,0
245,127,29259,1,0
245,77,29366,1,0
160,128,29580,1,4
89,198,29794,1,8
89,298,30009,5,4
188,298,30223,1,4
232,324,30330,1,0
280,332,30437,1,0
328,324,30544,1,0
372,300,30652,1,4
372,100,31080,5,4
301,29,31294,2,0,B|236:24|197:75,1,100,0|8
209,161,31723,1,4
209,260,31937,2,0,B|274:265|313:214,1,100,0|0
400,228,32366,1,8
400,327,32580,1,0
300,327,32794,2,0,B|236:364|184:364|144:352|94:334,1,200,4|8
104,240,33437,5,0
33,169,33652,1,8
103,98,33866,1,0
173,168,34080,1,8
272,168,34294,1,0
324,168,34402,1,0
372,168,34509,1,0
372,68,34723,1,4
272,68,34937,5,8
272,168,35152,1,4
272,267,35366,1,4
321,267,35473,1,0
370,267,35580,1,0
370,366,35794,1,4
319,366,35902,1,0
269,366,36009,1,0
256,192,36223,12,4,37937
40,192,44794,6,4,B|276:192,1,200
304,112,45437,1,2
240,192,45651,1,8
304,272,45866,1,0
240,192,46080,1,0
176,272,46294,1,0
108,196,46509,6,2,B|108:60,2,100,8|2|2
188,136,47151,1,0
258,65,47366,1,8
399,206,47794,1,0
328,276,48009,2,0,B|328:156,2,100,0|2|2
236,320,48651,5,2
236,320,48759,1,2
236,320,48866,1,2
148,276,49080,2,0,B|84:276,2,50,8|0|0
204,192,49509,1,2
244,160,49616,1,2
284,192,49723,1,2
332,280,49937,2,0,B|396:280,2,50,8|0|0
352,64,50366,6,2,B|456:144,2,100,2|2|8
256,192,51009,1,0
160,64,51223,2,2,B|56:144,2,100,2|2|8
256,96,51866,5,2
256,144,51973,1,2
256,192,52080,1,0
168,312,52294,2,0,B|168:264,2,50,0|0|8
352,312,52723,1,2
352,264,52830,1,2
352,216,52937,1,2
168,112,53151,2,0,B|168:64,2,50,0|0|8
120,200,53580,6,0,B|168:232|216:200,1,100
256,112,54009,2,0,B|328:192,1,100,0|8
344,344,54437,2,0,B|272:256,1,100
208,336,54866,5,2
208,336,54973,1,2
208,336,55080,1,8
80,344,55294,2,2,B|152:256,1,100
80,40,55723,2,2,B|152:128,1,100,2|10
432,40,56151,2,2,B|360:128,1,100
432,344,56794,5,8
432,344,57009,2,2,B|368:320|376:240,1,100
376,136,57437,2,2,B|440:160|432:240,1,100,2|10
377,268,57866,6,2,B|265:268,1,100,2|2
56,72,58509,6,0,B|108:56|160:72,1,100,8|2
208,156,58937,2,0,B|156:172|104:156,1,100,8|2
248,72,59366,1,8
328,132,59580,5,2
376,132,59687,1,2
424,132,59794,1,2
424,232,60009,1,8
424,232,60223,2,0,B|364:220|332:272,1,100,8|0
240,336,60651,2,0,B|273:294|241:242,1,100,8|0
296,160,61080,2,0,B|192:92|104:176,1,200,10|2
40,240,61723,1,2
136,260,61937,5,8
236,244,62151,1,2
172,168,62366,2,2,B|207:132|263:116|319:131|353:163,1,200
428,232,63009,1,2
428,232,63116,1,2
428,232,63223,1,2
428,232,63437,1,2
356,300,63651,5,0
356,300,63759,1,2
356,300,63866,1,2
280,232,64080,1,8
212,304,64294,2,2,B|177:335|121:350|65:334|29:298,1,200
120,256,64937,2,2,B|152:200|92:164,1,100,10|2
168,96,65366,5,8
264,64,65580,1,0
264,164,65794,1,2
264,64,66009,5,0
363,64,66223,1,8
363,163,66437,1,0
264,164,66651,1,2
193,234,66866,5,0
129,306,67080,1,8
65,234,67294,1,0
129,162,67509,1,2
188,84,67723,5,0
88,84,67937,1,8
17,154,68151,1,0
17,154,68366,1,10
17,253,68580,1,2
87,323,68794,5,8
187,323,69009,1,0
240,240,69223,1,8
336,268,69437,1,8
412,204,69651,1,4
428,156,69759,1,0
424,108,69866,1,0
392,68,69973,1,0
344,52,70080,1,0
324,148,70294,1,0
220,148,70509,6,0,B|162:160|163:222,1,100,0|0
256,236,70937,1,4
276,336,71151,1,0
184,292,71366,1,0
136,288,71473,1,0
96,260,71580,5,0
76,216,71687,1,0
72,168,71794,1,4
76,68,72009,1,0
344,104,72223,6,0,B|416:136|416:224|344:264,1,200,0|0
280,184,72866,1,0
256,280,73080,1,0
176,216,73294,1,0
160,312,73509,1,0
80,256,73723,1,0
64,352,73937,1,4
448,224,74580,5,0
424,128,74794,1,0
344,192,75009,1,0
328,96,75223,1,0
248,152,75437,1,0
232,56,75651,1,4
160,344,76294,5,4
248,304,76509,2,0,B|368:304,1,100,0|0
448,304,76937,1,0
448,200,77151,1,4
352,200,77366,1,4
256,56,78009,5,4
171,108,78223,1,4
208,148,78330,1,0
256,160,78437,1,0
304,148,78544,1,0
332,104,78651,1,4
400,184,78866,1,4
320,240,79080,6,0,B|320:344,1,100,4|0
176,196,79509,1,8
176,196,79723,2,0,B|176:92,1,100,0|4
376,92,80151,1,0
376,92,80366,2,0,B|376:236,1,100,8|0
376,192,80794,1,4
200,312,81223,5,8
200,312,81437,2,0,B|136:304|136:224,1,100,0|0
296,136,81866,1,0
296,136,82080,2,0,B|360:144|360:224,1,100,8|0
336,312,82509,2,8,B|184:168,1,200,4|8
104,128,83151,5,4
80,224,83366,2,0,B|160:296,1,100,0|0
256,288,83794,2,0,B|336:216,1,100,4|0
288,128,84223,1,4
72,336,84866,5,4
32,248,85080,1,4
64,208,85187,1,0
112,200,85294,1,0
152,168,85401,1,0
168,120,85509,1,0
216,104,85616,1,0
248,72,85723,1,4
328,136,85937,6,0,B|384:72|504:144|448:248,1,200,4|8
400,288,86580,1,0
304,320,86794,1,4
224,256,87009,1,0
152,328,87223,1,8
56,288,87437,1,0
136,224,87651,6,8,B|80:184|128:96,2,100,0|0|8
256,64,88509,1,0
376,224,88937,2,8,B|432:184|384:96,2,100,0|0|8
256,336,89580,2,0,B|256:224,1,100,0|0
160,280,90009,5,4
96,200,90223,2,0,B|232:200,1,100,8|0
280,152,90651,2,0,B|280:256,1,100,0|0
360,312,91080,2,0,B|432:352,4,50,8|0|0|0|0
326,224,91723,2,0,B|272:232|264:296,1,100,0|0
327,226,92151,5,4
264,293,92366,2,0,B|152:293,1,100,0|0
440,200,92794,6,8,B|432:136|380:96|300:88|276:96,1,200,0|0
220,164,93437,1,4
149,234,93651,1,0
149,333,93866,1,0
60,288,94080,1,0
60,188,94294,1,0
130,117,94509,2,8,B|168:76|212:60|280:64|332:80,1,200,0|0
386,146,95151,5,4
315,216,95366,2,0,B|272:272|332:324,1,100,0|0
215,307,95794,2,0,B|255:259|199:207,1,100,0|0
260,132,96223,1,0
189,61,96437,2,0,B|140:80|112:116|96:188|124:248,1,200
216,227,97080,5,0
292,228,97294,1,0
368,228,97509,1,8
136,228,97723,1,0
256,40,97937,6,0,B|256:128|256:240,1,200,0|8
256,340,98580,1,4
185,269,98794,1,4
148,232,98901,1,0
148,182,99009,1,0
183,146,99116,1,0
232,146,99223,2,8,B|430:147,1,200,0|4
501,77,99866,5,4
401,77,100080,1,8
294,183,100401,1,0
294,234,100509,1,0
294,283,100616,1,0
294,332,100723,1,4
196,332,100937,2,0,B|131:343|96:270,1,100,8|0
109,193,101366,5,4
109,93,101580,2,0,B|139:51|201:50,1,100,4|8
196,48,102009,1,0
296,46,102223,1,0
296,95,102330,1,0
296,144,102437,1,4
296,242,102651,2,0,B|296:346,1,100,8|0
380,196,103080,6,0,B|492:92,1,150,0|4
489,244,103723,1,4
383,349,104044,1,4
276,242,104366,1,4
239,205,104473,1,0
223,159,104580,1,0
239,111,104687,1,0
274,75,104794,5,4
422,75,105116,1,4
422,224,105437,1,4
351,294,105651,1,4
250,294,105866,1,0
300,295,105973,1,0
349,295,106080,1,4
300,224,106294,1,4
280,103,106509,6,8,B|236:56|180:56|112:76|87:122,1,200
99,204,107151,1,4
99,253,107259,1,0
99,302,107366,1,4
187,255,107580,1,4
286,255,107794,2,0,B|329:214|282:162,1,100,8|0
356,95,108223,5,0
426,165,108437,1,0
426,265,108651,1,8
355,335,108866,1,0
155,335,109294,1,0
84,264,109509,1,8
84,164,109723,1,4
154,93,109937,5,0
304,93,110259,2,0,B|362:160|306:248,2,150,0|4|0
454,93,111223,1,4
454,192,111437,1,0
383,262,111651,1,4
276,155,111973,1,4
126,155,112294,1,4
88,248,112509,5,4
125,279,112616,1,0
172,296,112723,1,0
220,304,112830,1,0
268,308,112937,1,0
316,304,113044,1,0
364,296,113151,1,0
408,272,113259,1,0
443,236,113366,1,4
456,88,127080,6,2,B|440:144|380:144,1,100,10|2
300,88,127509,2,0,B|264:136|296:184,1,100,8|0
388,216,127937,2,2,B|376:280|316:280,1,100,8|0
272,280,128259,1,2
224,280,128366,1,8
156,204,128580,5,2
56,144,128794,2,2,B|56:72|128:24|216:44,1,200,10|2
256,168,129437,1,2
313,40,129651,2,2,B|384:24|456:72|456:144,1,200,10|2
368,192,130294,1,2
408,284,130509,1,8
408,284,130723,1,2
408,284,130937,1,8
312,260,131151,6,2,B|208:228,1,100,2|8
176,324,131580,2,0,B|72:324,1,100,2|8
128,236,132009,1,2
128,136,132223,1,4
216,184,132437,1,2
288,116,132651,1,8
308,212,132866,1,2
380,284,133080,1,4
404,188,133294,6,0,B|448:156|444:96,1,100,0|8
400,76,133616,1,0
352,88,133723,2,0,B|308:120|312:180,1,100,0|8
304,276,134151,5,2
304,276,134259,1,2
304,276,134366,1,8
272,180,134580,1,0
176,204,134794,1,8
216,296,135009,1,2
168,312,135116,1,2
124,292,135223,1,8
96,196,135437,5,0
44,280,135651,1,8
32,180,135866,1,2
32,180,135973,1,2
32,180,136080,1,8
92,100,136294,1,0
188,128,136509,1,8
272,76,136723,1,2
320,76,136830,1,2
368,76,136937,1,8
452,128,137151,6,2,B|412:236,1,100
332,244,137580,2,2,B|308:304|361:327,2,100
284,156,138223,2,2,B|226:136|205:197,2,100
208,196,138866,2,2,B|248:244|184:296,2,100
112,220,139509,2,2,B|74:166|126:132,1,100
224,124,139937,1,0
204,168,140044,1,0
208,220,140151,1,0
232,264,140259,1,0
280,264,140366,2,0,B|188:352,2,100,0|0|4
348,336,141009,5,2
400,252,141223,1,8
300,236,141437,1,2
392,200,141651,1,0
312,140,141866,1,0
408,160,142080,1,8
452,72,142294,6,0,B|400:32,2,50,0|0|0
352,68,142723,1,0
252,72,142937,1,8
152,88,143151,2,0,B|104:100|68:168|132:240|200:200,1,200
244,124,143794,1,8
292,212,144009,1,0
340,124,144223,1,0
336,224,144437,1,2
420,168,144651,1,8
372,256,144866,1,0
284,304,145080,6,0,B|152:304,2,100,0|0|8
260,208,145723,1,0
284,112,145937,2,0,B|416:112,2,100,0|0|8
184,112,146580,1,0
184,112,147009,1,0
184,112,147223,1,8
116,40,147437,6,0,B|72:88|88:188|176:208,1,200,0|0
184,112,148080,2,0,B|248:104|272:168,1,100,8|0
244,252,148509,2,0,B|262:302|326:294,1,100
380,184,148937,1,8
280,164,149152,1,0
280,164,149366,6,0,B|276:112|196:72|228:92,1,100
188,180,149794,1,8
128,100,150009,1,0
84,188,150223,2,0,B|52:256|104:316,1,100
160,348,150652,1,8
256,44,151080,5,4
316,124,151294,1,4
312,224,151509,1,8
116,188,151723,1,0
116,188,151830,1,0
116,188,151937,1,4
256,44,152152,1,0
256,44,152259,1,0
256,44,152366,1,8
400,184,152794,5,4
324,248,153009,1,4
224,248,153223,1,8
144,188,153437,1,0
180,60,153652,1,4
204,104,153759,1,4
252,108,153866,5,4
368,108,154080,1,8
456,192,154294,1,0
456,192,154509,6,0,B|416:288|280:308,1,200,0|8
200,304,155152,1,0
58,162,155366,1,0
257,162,155580,1,0
115,303,155794,1,8
172,108,156009,1,0
172,108,156223,2,0,B|226:56|283:44|341:43|381:47,1,200,0|8
364,140,156866,5,0
364,240,157080,1,0
264,240,157294,1,0
264,139,157509,1,8
164,139,157723,1,0
114,139,157830,1,0
85,180,157937,1,8
85,278,158152,5,0
155,348,158366,1,8
225,277,158580,5,0
225,177,158794,2,0,B|228:119|303:102,1,100
357,177,159223,2,0,B|354:235|279:252,1,100,8|0
260,282,159544,1,0
295,317,159652,2,0,B|337:353|389:363|437:359|491:322,1,200,0|8
481,228,160294,5,0
410,157,160509,1,0
372,124,160616,1,0
336,112,160723,1,0
288,124,160830,1,0
248,156,160937,1,0
148,160,161152,1,4
208,255,161366,6,0,B|173:308|116:316,1,100
59,242,161794,1,8
59,141,162009,1,0
129,70,162223,2,0,B|168:40|233:52,1,100
295,121,162652,1,8
295,220,162866,1,0
295,220,163080,2,0,B|495:219,1,200,0|8
494,118,163723,5,0
423,47,163937,1,8
352,117,164152,1,0
352,216,164366,1,8
352,264,164473,1,0
302,264,164580,1,0
302,313,164687,1,0
252,313,164794,2,0,B|149:313|79:222,1,200,0|8
151,153,165437,5,0
221,82,165652,2,0,B|196:36|128:40,1,100
221,223,166080,2,0,B|196:269|128:265,1,100,8|0
296,152,166509,1,0
296,152,166723,1,0
296,152,166937,1,8
366,81,167152,5,0
465,81,167366,1,0
464,132,167473,1,0
464,232,167687,1,0
392,304,167902,1,0
356,336,168009,1,0
316,308,168116,1,0
352,276,168223,6,0,B|344:228|280:172|224:228|216:276,1,200,0|8
144,184,168866,1,0
214,113,169080,1,0
214,113,169294,1,0
284,183,169509,1,0
284,183,169723,1,0
408,248,169937,6,0,B|408:80,1,150,0|0
248,220,171009,1,0
160,172,171223,1,8
148,224,171330,1,0
164,272,171437,1,0
40,312,171652,6,0,B|40:152,1,150
128,96,172509,1,0
176,104,172616,1,0
224,80,172723,1,0
272,104,172830,1,0
320,88,172937,1,8
416,96,173152,1,0
368,184,173366,2,0,B|448:216|424:344|320:336,1,200,0|8
292,252,174009,1,0
216,188,174223,2,0,B|136:220|160:348|264:340,1,200,0|8
292,52,175080,6,0,B|292:260,1,200,0|8
200,288,175723,1,0
116,236,175937,2,0,B|108:180,2,50
44,304,176366,1,8
200,208,176794,6,0,B|240:184|240:184|256:128|256:128|304:160|304:160|336:112|336:112|336:112|336:112,1,200
400,192,177866,1,0
464,272,178080,1,8
400,352,178294,1,0
312,304,178509,6,0,B|272:280|272:280|256:224|256:224|208:240|208:240|208:256|208:256,1,150
112,248,179366,2,0,B|48:224,2,50
168,176,179794,1,8
176,128,179902,1,0
216,96,180009,1,0
304,184,180223,6,0,B|368:144|368:144|384:232|384:232|432:200|432:200,1,200
440,304,181294,2,0,B|448:360,2,50,0|0|4
44,136,185366,6,0,B|120:160|148:40|224:84,1,200,0|8
304,144,186009,1,0
360,228,186223,1,0
400,320,186437,2,0,B|468:308|452:224,1,100,0|8
456,148,186866,1,0
385,77,187080,6,0,B|309:101|281:-19|205:25,1,200,0|8
128,84,187723,1,0
68,164,187937,1,8
128,244,188152,1,0
192,164,188366,1,8
236,140,188473,1,0
280,164,188580,1,0
324,140,188687,1,0
368,164,188794,1,0
460,196,189009,5,0
460,96,189223,1,8
372,52,189437,1,0
320,140,189652,2,0,B|200:140,2,100,0|0|8
384,216,190294,1,0
288,240,190509,2,0,B|220:244|216:308,1,100
217,297,190937,1,8
132,240,191152,1,0
184,156,191366,5,0
240,240,191580,1,0
288,232,191687,1,0
320,192,191794,1,0
128,44,192009,1,0
80,52,192116,1,0
48,92,192223,1,0
48,192,192437,5,0
100,280,192652,1,8
200,284,192866,2,0,B|248:324|312:272,2,100
244,196,193509,1,8
180,120,193723,1,0
236,28,193937,6,0,B|316:28|368:84|368:168,1,200,0|8
368,252,194580,1,0
456,200,194794,1,8
368,152,195009,1,0
368,252,195223,1,8
280,200,195437,1,0
168,100,195652,5,4
344,284,195973,1,4
198,319,196294,1,0
52,282,196616,1,0
180,204,196937,1,0
152,164,197044,1,0
124,124,197152,1,0
96,80,197259,1,0
68,36,197366,5,4
280,124,197687,1,4
488,212,198009,1,4
392,240,198223,5,0
348,264,198330,1,0
304,240,198437,1,0
260,264,198544,1,0
216,240,198652,5,0
172,264,198759,1,0
128,244,198866,1,0
84,264,198973,1,0
36,244,199080,1,4
216,168,199294,6,0,B|168:68|224:32|288:24,1,200
216,168,199937,1,0
288,240,200152,1,0
288,240,200366,2,0,B|288:352,1,100,0|4
387,340,200794,6,0,B|387:132,1,200
457,69,201437,1,0
386,139,201652,1,0
285,139,201866,2,0,B|173:139,2,100,0|0|4
214,209,202509,5,0
166,209,202616,1,0
118,209,202723,1,0
314,209,202937,1,0
362,209,203044,1,0
410,209,203152,1,0
410,111,203366,2,0,B|362:71|394:-1,1,100,0|0
456,91,203794,2,0,B|496:139|472:203,1,100,0|4
406,255,204223,6,0,B|414:351|342:383|232:337,1,200,0|0
175,351,204866,2,0,B|79:279,1,100
165,220,205294,1,0
173,172,205402,1,0
221,156,205509,1,0
221,108,205616,1,0
269,100,205723,1,0
301,60,205830,1,0
317,16,205937,1,4
