osu file format v14

[General]
AudioFilename: The Prodigy - Nasty (Spor Remix).mp3
AudioLeadIn: 0
PreviewTime: 66203
Countdown: 0
SampleSet: Normal
StackLeniency: 0.3
Mode: 0
LetterboxInBreaks: 0
WidescreenStoryboard: 0

[Editor]
Bookmarks: 11261,22424,33587,44750,55912,61494,67075,78238,89401,100564,110331,111726,121494,122889,134052,145215,156378,167540,178703,189866,199633,201029,212192,223354,234517,245680,255447,256843,268005,279168,290331
DistanceSpacing: 1.1
BeatDivisor: 4
GridSize: 4
TimelineZoom: 1.8

[Metadata]
Title:Nasty (Spor Remix)
TitleUnicode:Nasty (Spor Remix)
Artist:The Prodigy
ArtistUnicode:The Prodigy
Creator:Shadren
Version:Hard
Source:
Tags:Darkside dark dnb drum and bass neurofunk Feed me
BeatmapID:666619
BeatmapSetID:288081

[Difficulty]
HPDrainRate:5
CircleSize:4
OverallDifficulty:6
ApproachRate:7
SliderMultiplier:1.15
SliderTickRate:2

[Events]
//Background and Video events
0,0,"BG.jpg",0,0
//Break Periods
2,44950,55012
2,156578,166640
//Storyboard Layer 0 (Background)
//Storyboard Layer 1 (Fail)
//Storyboard Layer 2 (Pass)
//Storyboard Layer 3 (Foreground)
//Storyboard Sound Samples

[TimingPoints]
99,348.837209302326,4,2,1,60,1,0
22424,-100,4,1,1,60,0,0
55912,-100,4,2,1,60,0,0
61494,-100,4,1,1,60,0,0
111726,-90.9090909090909,4,1,1,60,0,1
121494,-100,4,1,1,60,0,0
122889,-90.9090909090909,4,1,1,60,0,1
134052,-100,4,1,1,60,0,0
167540,-100,4,2,1,60,0,0
178703,-100,4,1,1,60,0,0
245680,-90.9090909090909,4,1,1,60,0,1
255447,-100,4,1,1,60,0,0
256843,-90.9090909090909,4,1,1,60,0,1
268005,-100,4,1,1,60,0,0

[Colours]
Combo1 : 255,128,128
Combo2 : 255,66,66
Combo3 : 255,168,125
Combo4 : 226,235,167

[HitObjects]
352,140,11261,5,4,0:1:0:0:
396,260,11610,2,0,P|353:269|292:247,2,86.25,8|8|8,0:0|0:0|0:0,0:0:0:0:
448,224,12308,1,8,0:0:0:0:
352,140,12657,2,0,L|276:136,1,57.5,0|0,0:0|0:0,0:0:0:0:
236,108,13005,2,0,B|228:64|228:64|235:23,2,86.25,8|8|8,0:0|0:0|0:0,0:0:0:0:
200,160,13703,2,0,P|200:196|192:228,1,57.5,8|8,0:0|0:0,0:0:0:0:
160,268,14052,5,4,0:1:0:0:
232,372,14401,2,0,P|272:376|328:348,2,86.25,8|8|8,0:0|0:0|0:0,0:0:0:0:
172,348,15099,1,8,0:0:0:0:
256,256,15447,2,0,P|286:244|326:244,1,57.5,0|0,0:0|0:0,0:0:0:0:
376,244,15796,2,0,B|420:248|420:248|464:232,2,86.25,8|8|8,0:0|0:0|0:0,0:0:0:0:
340,192,16494,1,8,0:0:0:0:
356,132,16668,1,8,0:0:0:0:
324,76,16843,6,0,L|252:72,1,57.5,4|0,0:1|0:0,0:0:0:0:
208,96,17192,2,0,P|164:108|116:100,2,86.25,8|8|8,0:0|0:0|0:0,0:0:0:0:
208,96,17889,2,0,L|204:172,1,57.5,8|0,0:0|0:0,0:0:0:0:
172,208,18238,1,0,0:0:0:0:
216,328,18587,2,0,B|260:332|260:332|316:316,2,86.25,8|8|8,0:0|0:0|0:0,0:0:0:0:
160,296,19285,1,8,0:0:0:0:
100,320,19459,1,8,0:0:0:0:
44,292,19633,6,0,L|40:224,1,57.5,4|0,0:1|0:0,0:0:0:0:
56,172,19982,2,0,P|60:120|40:80,2,86.25,8|8|8,0:0|0:0|0:0,0:0:0:0:
108,208,20680,2,0,L|176:204,1,57.5,8|0,0:0|0:0,0:0:0:0:
208,156,21029,1,4,0:1:0:0:
308,232,21378,1,8,0:0:0:0:
368,252,21552,1,8,0:0:0:0:
428,236,21726,1,8,0:0:0:0:
468,188,21901,1,8,0:0:0:0:
484,128,22075,2,0,L|476:60,1,57.5,8|8,0:0|0:0,0:0:0:0:
424,32,22424,6,0,P|368:20|312:44,1,115,12|8,0:2|0:0,0:0:0:0:
268,84,22947,2,0,L|272:124,2,28.75,0|0|0,0:0|0:0|0:0,0:0:0:0:
208,60,23296,1,0,0:0:0:0:
152,88,23471,2,0,P|112:92|84:84,1,57.5,8|0,0:0|0:0,0:0:0:0:
40,60,23819,2,0,L|36:184,1,115,0|8,0:0|0:0,0:0:0:0:
80,220,24343,1,0,0:0:0:0:
108,276,24517,2,0,P|107:295|104:319,2,28.75,0|0|0,0:0|0:0|0:0,0:0:0:0:
168,256,24866,1,8,0:2:0:0:
220,292,25040,1,8,0:2:0:0:
244,352,25215,6,0,B|300:360|300:360|360:340,1,115,8|8,0:2|0:0,0:0:0:0:
404,300,25738,2,0,L|400:260,2,28.75,0|0|0,0:0|0:0|0:0,0:0:0:0:
456,336,26087,1,0,0:0:0:0:
504,296,26261,2,0,P|512:256|504:220,1,57.5,8|0,0:0|0:0,0:0:0:0:
488,180,26610,1,0,0:0:0:0:
412,80,26959,2,0,P|379:81|341:96,1,57.5,8|0,0:0|0:0,0:0:0:0:
332,108,27221,1,0,0:0:0:0:
304,124,27308,2,0,P|268:124|240:112,1,57.5,0|0,0:0|0:0,0:0:0:0:
196,80,27657,1,8,0:0:0:0:
132,72,27831,1,0,0:0:0:0:
76,104,28005,6,0,L|80:236,1,115,8|0,0:2|0:0,0:0:0:0:
40,268,28529,2,0,P|25:270|4:268,2,28.75,0|0|0,0:0|0:0|0:0,0:0:0:0:
72,324,28878,1,0,0:0:0:0:
72,324,29052,2,0,P|108:328|144:344,1,57.5,8|0,0:0|0:0,0:0:0:0:
176,376,29401,2,0,L|296:368,1,115,0|8,0:0|0:0,0:0:0:0:
344,332,29924,1,0,0:0:0:0:
404,352,30099,2,0,P|422:354|440:352,2,28.75,0|0|0,0:0|0:0|0:0,0:0:0:0:
344,332,30447,2,0,L|336:264,1,57.5,8|8,0:2|0:2,0:0:0:0:
292,232,30796,6,0,P|284:204|288:164,1,57.5,0|0,0:0|0:0,0:0:0:0:
320,124,31145,2,0,P|320:95|312:67,1,57.5,0|0,0:0|0:0,0:0:0:0:
260,36,31494,2,0,L|176:28,1,57.5,0|0,0:0|0:0,0:0:0:0:
144,56,31843,2,0,L|72:60,1,57.5,8|0,0:0|0:0,0:0:0:0:
256,192,32192,12,8,33238,0:0:0:0:
168,304,33587,6,0,L|296:296,1,115,12|8,0:2|0:0,0:0:0:0:
340,324,34110,2,0,P|344:344|344:368,2,28.75,0|0|0,0:0|0:0|0:0,0:0:0:0:
380,276,34459,1,0,0:0:0:0:
380,276,34633,2,0,P|376:240|384:204,1,57.5,8|0,0:0|0:0,0:0:0:0:
408,164,34982,1,0,0:0:0:0:
324,72,35331,2,0,L|252:68,1,57.5,8|0,0:0|0:0,0:0:0:0:
240,88,35593,1,0,0:0:0:0:
216,104,35680,2,0,P|176:112|148:108,1,57.5,0|0,0:0|0:0,0:0:0:0:
96,96,36029,1,8,0:2:0:0:
36,120,36203,1,8,0:2:0:0:
4,176,36378,6,0,L|12:292,1,115,8|8,0:2|0:0,0:0:0:0:
44,344,36901,2,0,P|42:358|39:372,2,28.75,0|0|0,0:0|0:0|0:0,0:0:0:0:
100,316,37250,1,0,0:0:0:0:
152,348,37424,2,0,P|192:352|220:344,1,57.5,8|0,0:0|0:0,0:0:0:0:
264,316,37773,1,0,0:0:0:0:
216,200,38122,2,0,P|212:168|220:128,1,57.5,8|0,0:0|0:0,0:0:0:0:
232,116,38383,1,0,0:0:0:0:
256,96,38471,2,0,L|316:100,1,57.5,0|0,0:0|0:0,0:0:0:0:
372,80,38819,1,8,0:0:0:0:
436,88,38994,1,0,0:0:0:0:
480,132,39168,6,0,L|476:268,1,115,8|8,0:2|0:0,0:0:0:0:
428,288,39692,2,0,L|432:332,2,28.75,0|0|0,0:0|0:0|0:0,0:0:0:0:
372,256,40040,1,0,0:0:0:0:
372,256,40215,2,0,P|343:254|314:258,1,57.5,8|0,0:0|0:0,0:0:0:0:
272,304,40564,2,0,L|144:300,1,115,0|8,0:0|0:0,0:0:0:0:
116,252,41087,1,0,0:0:0:0:
132,192,41261,2,0,P|129:171|124:148,2,28.75,0|0|0,0:0|0:0|0:0,0:0:0:0:
192,208,41610,2,0,P|228:200|260:180,1,57.5,8|8,0:2|0:2,0:0:0:0:
256,192,41959,12,8,44750,0:2:0:0:
436,172,55912,6,0,P|392:156|344:160,1,86.25,8|0,1:0|0:0,0:0:0:0:
272,208,56436,2,0,P|232:220|180:216,1,86.25,0|0,0:0|0:0,0:0:0:0:
120,152,56959,1,0,0:0:0:0:
16,224,57308,2,0,L|20:328,2,86.25,8|0|0,1:0|0:0|0:0,0:0:0:0:
40,132,58093,2,0,L|36:36,1,86.25,0|0,0:0|0:0,0:0:0:0:
160,28,58703,6,0,P|204:32|248:64,1,86.25,8|0,1:0|0:0,0:0:0:0:
316,108,59226,2,0,L|412:104,1,86.25,0|0,0:0|0:0,0:0:0:0:
464,176,59750,1,0,0:0:0:0:
380,272,60099,2,0,P|380:328|396:368,2,86.25,8|0|0,1:0|0:0|0:0,0:0:0:0:
304,216,60883,2,0,P|288:256|236:288,1,86.25,0|0,0:0|0:0,0:0:0:0:
128,268,61494,6,0,L|124:200,1,57.5,0|0,0:0|0:0,0:0:0:0:
168,164,61843,2,0,L|172:96,1,57.5,8|0,0:0|0:0,0:0:0:0:
192,84,62104,1,0,0:0:0:0:
224,72,62192,2,0,P|260:72|288:80,1,57.5,0|0,0:0|0:0,0:0:0:0:
332,112,62540,1,8,0:0:0:0:
408,212,62889,2,0,P|396:244|368:264,1,57.5,0|0,0:0|0:0,0:0:0:0:
316,260,63238,2,0,P|288:267|267:286,1,57.5,8|0,0:0|0:0,0:0:0:0:
232,340,63587,2,0,L|168:336,1,57.5,0|0,0:0|0:0,0:0:0:0:
120,304,63936,2,0,L|48:308,1,57.5,8|0,0:0|0:0,0:0:0:0:
256,192,64285,12,0,66726,0:0:0:0:
396,104,67075,6,0,L|388:220,1,115,4|8,0:0|0:0,0:0:0:0:
344,264,67599,2,0,P|288:272|232:248,1,115,4|0,0:0|0:0,0:0:0:0:
188,208,68122,2,0,L|120:204,1,57.5,8|0,0:0|0:0,0:0:0:0:
84,164,68471,2,0,B|72:120|72:120|80:64,2,86.25,2|2|2,0:2|0:2|0:2,0:0:0:0:
36,280,69343,2,0,L|32:344,2,57.5,2|10|2,0:2|0:2|0:2,0:0:0:0:
88,244,69866,6,0,P|144:248|204:288,1,115,4|8,0:0|0:0,0:0:0:0:
244,316,70389,2,0,B|300:328|300:328|372:312,1,115,4|0,0:0|0:0,0:0:0:0:
408,280,70912,2,0,L|476:284,1,57.5,8|0,0:0|0:0,0:0:0:0:
508,236,71261,2,0,P|496:192|500:148,2,86.25,2|2|2,0:2|0:2|0:2,0:0:0:0:
388,196,72133,1,2,0:2:0:0:
388,196,72308,2,0,P|352:188|312:192,1,57.5,10|0,0:2|0:0,0:0:0:0:
276,220,72657,6,0,P|216:232|156:212,1,115,8|8,0:2|0:0,0:0:0:0:
120,172,73180,2,0,L|128:44,1,115,8|0,0:2|0:0,0:0:0:0:
184,32,73703,2,0,P|224:40|252:40,1,57.5,8|0,0:0|0:0,0:0:0:0:
272,36,73965,1,0,0:0:0:0:
304,28,74052,2,0,L|428:36,1,115,0|8,0:0|0:0,0:0:0:0:
456,88,74575,1,0,0:0:0:0:
428,144,74750,2,0,P|416:196|420:224,1,57.5,0|0,0:0|0:0,0:0:0:0:
444,256,75099,2,0,P|444:288|436:324,1,57.5,8|0,0:0|0:0,0:0:0:0:
388,348,75447,6,0,B|328:356|328:356|272:344,1,115,8|8,0:2|0:0,0:0:0:0:
228,304,75971,2,0,P|172:292|112:316,1,115,8|0,0:2|0:0,0:0:0:0:
68,348,76494,2,0,L|72:380,2,28.75,8|0|0,0:0|0:0|0:0,0:0:0:0:
24,300,76843,2,0,L|28:180,1,115,0|8,0:0|0:0,0:0:0:0:
84,152,77366,1,0,0:0:0:0:
136,184,77540,2,0,P|172:184|200:176,1,57.5,0|0,0:0|0:0,0:0:0:0:
244,140,77889,2,0,P|280:132|312:132,1,57.5,8|0,0:0|0:0,0:0:0:0:
364,140,78238,6,0,L|360:268,1,115,4|8,0:0|0:0,0:0:0:0:
312,296,78761,2,0,B|256:308|256:308|196:292,1,115,4|0,0:0|0:0,0:0:0:0:
156,248,79285,2,0,L|152:176,1,57.5,8|0,0:0|0:0,0:0:0:0:
116,140,79633,2,0,P|72:136|16:164,2,86.25,2|2|2,0:2|0:2|0:2,0:0:0:0:
232,188,80505,2,0,P|259:186|308:176,2,57.5,2|10|2,0:2|0:2|0:2,0:0:0:0:
176,220,81029,6,0,L|184:344,1,115,4|8,0:0|0:0,0:0:0:0:
240,368,81552,2,0,P|296:376|352:340,1,115,4|0,0:0|0:0,0:0:0:0:
388,304,82075,2,0,L|456:308,1,57.5,8|0,0:0|0:0,0:0:0:0:
484,260,82424,2,0,P|476:216|488:164,2,86.25,2|2|2,0:2|0:2|0:2,0:0:0:0:
360,228,83296,1,2,0:2:0:0:
360,228,83471,2,0,P|328:248|312:288,1,57.5,10|2,0:2|0:2,0:0:0:0:
280,316,83819,6,0,L|156:308,1,115,8|8,0:2|0:0,0:0:0:0:
116,268,84343,2,0,P|100:212|124:152,1,115,8|0,0:2|0:0,0:0:0:0:
168,120,84866,2,0,L|172:56,1,57.5,8|0,0:0|0:0,0:0:0:0:
196,44,85128,1,0,0:0:0:0:
228,36,85215,2,0,P|284:48|348:32,2,115,0|8|0,0:0|0:0|0:0,0:0:0:0:
168,56,86087,1,0,0:0:0:0:
108,76,86261,2,0,L|100:152,1,57.5,8|0,0:0|0:0,0:0:0:0:
136,188,86610,6,0,P|152:244|136:304,1,115,8|8,0:2|0:0,0:0:0:0:
116,356,87133,2,0,L|248:348,1,115,8|0,0:2|0:0,0:0:0:0:
284,316,87657,2,0,L|320:320,2,28.75,8|0|0,0:0|0:0|0:0,0:0:0:0:
256,192,88005,12,8,89052,0:0:0:0:
60,104,89401,6,0,B|116:96|116:96|184:112,1,115,4|8,0:0|0:0,0:0:0:0:
228,140,89924,2,0,L|224:268,1,115,4|0,0:0|0:0,0:0:0:0:
268,300,90447,2,0,B|324:332|380:312|380:312|368:248|430:208|430:208|404:156|440:88,1,345,8|0,0:0|0:0,0:0:0:0:
392,56,91668,1,0,0:0:0:0:
336,28,91843,2,0,L|260:32,1,57.5,8|0,0:0|0:0,0:0:0:0:
220,56,92192,6,0,P|168:80|96:64,1,115,4|8,0:0|0:0,0:0:0:0:
52,48,92715,2,0,L|56:172,1,115,4|0,0:0|0:0,0:0:0:0:
16,212,93238,2,0,P|12:244|20:276,1,57.5,8|0,0:0|0:0,0:0:0:0:
72,304,93587,2,0,P|68:352|32:388,2,86.25,2|2|2,0:2|0:2|0:2,0:0:0:0:
160,212,94459,1,2,0:2:0:0:
160,212,94633,2,0,L|228:208,1,57.5,10|2,0:2|0:2,0:0:0:0:
268,168,94982,6,0,P|276:100|248:56,1,115,8|8,0:2|0:0,0:0:0:0:
196,32,95505,2,0,L|320:20,1,115,8|0,0:2|0:0,0:0:0:0:
368,52,96029,2,0,P|404:56|432:48,1,57.5,8|0,0:0|0:0,0:0:0:0:
480,20,96378,2,0,L|476:152,1,115,0|8,0:0|0:0,0:0:0:0:
428,176,96901,1,0,0:0:0:0:
400,232,97075,2,0,P|404:272|424:308,1,57.5,0|0,0:0|0:0,0:0:0:0:
364,332,97424,2,0,P|336:328|292:336,1,57.5,8|0,0:0|0:0,0:0:0:0:
248,304,97773,6,0,L|240:176,1,115,8|8,0:2|0:0,0:0:0:0:
188,152,98296,2,0,B|132:144|132:144|64:164,1,115,8|0,0:2|0:0,0:0:0:0:
40,212,98819,2,0,L|36:276,1,57.5,8|0,0:0|0:0,0:0:0:0:
76,316,99168,2,0,P|128:332|192:324,1,115,0|8,0:0|0:0,0:0:0:0:
248,304,99692,1,0,0:0:0:0:
312,312,99866,2,0,P|348:312|388:300,1,57.5,0|0,0:0|0:0,0:0:0:0:
424,336,100215,2,0,L|420:372,2,28.75,8|0|0,0:0|0:0|0:0,0:0:0:0:
464,288,100564,6,0,L|456:160,1,115,4|8,0:0|0:0,0:0:0:0:
412,128,101087,2,0,B|356:116|356:116|296:128,1,115,4|0,0:0|0:0,0:0:0:0:
248,164,101610,2,0,P|228:260|60:172,1,345,8|0,0:0|0:0,0:0:0:0:
76,128,102831,1,0,0:0:0:0:
120,84,103005,2,0,L|188:80,1,57.5,8|0,0:0|0:0,0:0:0:0:
236,52,103354,6,0,B|296:44|296:44|356:60,1,115,4|8,0:0|0:0,0:0:0:0:
408,84,103878,2,0,L|404:208,1,115,4|0,0:0|0:0,0:0:0:0:
364,248,104401,2,0,P|356:280|364:312,1,57.5,8|0,0:0|0:0,0:0:0:0:
312,344,104750,2,0,L|216:348,2,86.25,2|2|2,0:2|0:2|0:2,0:0:0:0:
436,360,105622,1,2,0:2:0:0:
436,360,105796,2,0,P|448:320|444:296,1,57.5,10|2,0:2|0:2,0:0:0:0:
424,244,106145,6,0,P|412:188|432:120,1,115,8|8,0:2|0:0,0:0:0:0:
464,84,106668,2,0,L|336:80,1,115,8|0,0:2|0:0,0:0:0:0:
292,108,107192,2,0,L|228:112,1,57.5,8|0,0:0|0:0,0:0:0:0:
176,88,107540,2,0,P|120:76|56:92,1,115,0|8,0:0|0:0,0:0:0:0:
28,140,108064,2,0,L|36:272,1,115
88,292,108587,2,0,P|132:296|156:288,1,57.5,8|0,0:0|0:0,0:0:0:0:
192,252,108936,6,0,L|308:256,1,115,0|8,0:0|0:0,0:0:0:0:
360,224,109459,2,0,B|376:168|376:168|360:100,1,115
312,76,109982,2,0,P|280:76|248:68,1,57.5,8|0,0:0|0:0,0:0:0:0:
256,192,110331,12,0,111378,0:0:0:0:
432,200,111726,5,4,0:0:0:0:
352,316,112075,2,0,P|288:328|220:300,1,126.500003860474,8|0,0:0|0:0,0:0:0:0:
176,264,112599,1,0,0:0:0:0:
148,200,112773,2,0,L|152:132,1,63.2500019302369,8|0,0:0|0:0,0:0:0:0:
176,112,113035,1,0,0:0:0:0:
208,100,113122,2,0,P|260:100|296:128,2,94.8750028953553,2|2|2,0:2|0:2|0:2,0:0:0:0:
280,220,113994,1,2,0:2:0:0:
280,220,114168,2,0,P|312:220|352:196,1,63.2500019302369,10|0,0:2|0:0,0:0:0:0:
384,152,114517,5,4,0:0:0:0:
316,32,114866,2,0,B|252:20|252:20|184:32,1,126.500003860474,8|0,0:0|0:0,0:0:0:0:
128,64,115389,1,0,0:0:0:0:
64,96,115564,2,0,L|60:160,1,63.2500019302369,8|0,0:0|0:0,0:0:0:0:
44,188,115825,1,0,0:0:0:0:
28,216,115912,2,0,P|24:268|40:312,2,94.8750028953553,2|2|2,0:2|0:2|0:2,0:0:0:0:
140,136,116785,2,0,L|204:140,2,63.2500019302369,2|10|2,0:2|0:2|0:2,0:0:0:0:
100,76,117308,5,4,0:0:0:0:
124,212,117657,2,0,L|120:348,1,126.500003860474,8|0,0:0|0:0,0:0:0:0:
180,372,118180,1,0,0:0:0:0:
240,336,118354,2,0,P|284:332|312:336,1,63.2500019302369,8|0,0:0|0:0,0:0:0:0:
332,352,118616,1,0,0:0:0:0:
360,376,118703,2,0,L|456:372,2,94.8750028953553,2|2|2,0:2|0:2|0:2,0:0:0:0:
296,252,119575,1,2,0:2:0:0:
296,252,119750,2,0,P|288:216|292:180,1,63.2500019302369,10|0,0:2|0:0,0:0:0:0:
324,128,120099,5,4,0:0:0:0:
212,44,120447,2,0,P|152:32|80:72,1,126.500003860474,8|0,0:0|0:0,0:0:0:0:
44,108,120971,1,0,0:0:0:0:
4,164,121145,2,0,L|8:244,1,63.2500019302369,8|0,0:0|0:0,0:0:0:0:
28,256,121407,1,0,0:0:0:0:
56,268,121494,2,0,B|112:280|112:280|176:260,1,115,8|8,0:2|0:0,0:0:0:0:
212,220,122017,1,0,0:0:0:0:
248,168,122192,2,0,P|276:176|308:172,1,57.5,8|0,0:2|0:0,0:0:0:0:
356,140,122540,2,0,P|384:136|413:136,1,57.5,8|0,0:0|0:0,0:0:0:0:
472,176,122889,6,0,L|468:312,1,126.500003860474,4|8,0:0|0:0,0:0:0:0:
412,344,123412,1,0,0:0:0:0:
352,312,123587,2,0,P|316:308|276:316,1,63.2500019302369,0|0,0:0|0:0,0:0:0:0:
232,352,123936,2,0,P|184:360|164:356,1,63.2500019302369,8|0,0:0|0:0,0:0:0:0:
136,352,124197,1,0,0:0:0:0:
112,324,124285,2,0,P|108:272|76:228,2,94.8750028953553,2|2|2,0:2|0:2|0:2,0:0:0:0:
228,244,125157,1,2,0:2:0:0:
228,244,125331,2,0,L|232:176,1,63.2500019302369,10|0,0:2|0:0,0:0:0:0:
280,128,125680,6,0,P|340:116|404:148,1,126.500003860474,4|8,0:0|0:0,0:0:0:0:
448,192,126203,1,0,0:0:0:0:
492,248,126378,2,0,L|484:324,1,63.2500019302369,0|0,0:0|0:0,0:0:0:0:
428,348,126726,2,0,P|392:352|356:348,1,63.2500019302369,8|0,0:0|0:0,0:0:0:0:
332,336,126988,1,0,0:0:0:0:
304,316,127075,2,0,L|200:324,2,94.8750028953553,2|2|2,0:2|0:2|0:2,0:0:0:0:
184,248,127947,2,0,L|108:240,2,63.2500019302369,2|10|2,0:2|0:2|0:2,0:0:0:0:
244,212,128471,6,0,P|260:152|228:80,1,126.500003860474,4|8,0:0|0:0,0:0:0:0:
188,44,128994,1,0,0:0:0:0:
124,20,129168,2,0,L|56:24,1,63.2500019302369,0|0,0:0|0:0,0:0:0:0:
20,80,129517,2,0,P|24:116|20:152,1,63.2500019302369,8|0,0:0|0:0,0:0:0:0:
16,176,129779,1,0,0:0:0:0:
8,208,129866,2,0,L|104:204,2,94.8750028953553,2|2|2,0:2|0:2|0:2,0:0:0:0:
128,280,130738,1,2,0:2:0:0:
128,280,130912,2,0,P|168:256|180:220,1,63.2500019302369,10|0,0:2|0:0,0:0:0:0:
244,224,131261,6,0,L|376:232,1,126.500003860474,4|8,0:0|0:0,0:0:0:0:
428,272,131785,1,0,0:0:0:0:
492,244,131959,2,0,P|500:192|496:168,1,63.2500019302369,0|0,0:0|0:0,0:0:0:0:
444,140,132308,2,0,P|436:108|436:72,1,63.2500019302369,8|0,0:0|0:0,0:0:0:0:
444,44,132569,1,0,0:0:0:0:
452,8,132657,2,0,L|316:8,1,126.500003860474,8|8,0:2|0:0,0:0:0:0:
272,56,133180,1,0,0:0:0:0:
212,92,133354,2,0,P|176:88|148:68,1,63.2500019302369,0|0,0:0|0:0,0:0:0:0:
92,40,133703,2,0,L|20:44,1,63.2500019302369,8|0,0:0|0:0,0:0:0:0:
16,116,134052,6,0,P|28:171|7:224,1,115,4|8,0:0|0:0,0:0:0:0:
48,272,134575,2,0,L|76:269,2,28.75
24,330,134924,1,0,0:0:0:0:
76,364,135099,2,0,P|116:368|144:360,1,57.5,8|0,0:0|0:0,0:0:0:0:
188,336,135447,2,0,L|192:212,1,115,4|8,0:0|0:0,0:0:0:0:
216,164,135971,1,0,0:0:0:0:
260,120,136145,2,0,P|259:101|252:76,2,28.75,0|0|0,0:0|0:0|0:0,0:0:0:0:
316,148,136494,1,8,0:0:0:0:
372,120,136668,1,0,0:0:0:0:
428,148,136843,6,0,B|446:203|446:203|438:259,1,115,4|8,0:0|0:0,0:0:0:0:
472,312,137366,2,0,P|493:316|516:312,2,28.75,0|0|0,0:0|0:0|0:0,0:0:0:0:
424,352,137715,1,0,0:0:0:0:
360,356,137889,2,0,P|321:342|296:316,1,57.5,8|0,0:0|0:0,0:0:0:0:
288,272,138238,1,4,0:0:0:0:
180,208,138587,2,0,P|181:175|196:137,1,57.5,8|0,0:0|0:0,0:0:0:0:
208,128,138849,1,0,0:0:0:0:
224,100,138936,2,0,P|224:64|212:36,1,57.5,0|0,0:0|0:0,0:0:0:0:
160,16,139285,1,8,0:0:0:0:
96,24,139459,1,0,0:0:0:0:
64,80,139633,6,0,L|68:212,1,115,4|8,0:0|0:0,0:0:0:0:
28,244,140157,2,0,P|13:246|-8:244,2,28.75,0|0|0,0:0|0:0|0:0,0:0:0:0:
60,300,140505,1,0,0:0:0:0:
60,300,140680,2,0,P|96:304|132:320,1,57.5,8|0,0:0|0:0,0:0:0:0:
164,352,141029,2,0,L|284:344,1,115,4|8,0:0|0:0,0:0:0:0:
336,320,141552,1,0,0:0:0:0:
396,340,141726,2,0,P|414:342|432:340,2,28.75,0|0|0,0:0|0:0|0:0,0:0:0:0:
336,320,142075,2,0,L|328:252,1,57.5,8|0,0:0|0:0,0:0:0:0:
284,220,142424,6,0,P|276:192|280:152,1,57.5,0|0,0:0|0:0,0:0:0:0:
312,112,142773,2,0,P|312:83|304:55,1,57.5,8|0,0:0|0:0,0:0:0:0:
252,24,143122,2,0,L|168:16,1,57.5,0|0,0:0|0:0,0:0:0:0:
136,44,143471,2,0,L|64:48,1,57.5,8|0,0:0|0:0,0:0:0:0:
256,192,143819,12,8,144866,0:0:0:0:
344,80,145215,6,0,L|216:88,1,115,4|8,0:0|0:0,0:0:0:0:
172,60,145738,2,0,P|168:40|168:16,2,28.75,0|0|0,0:0|0:0|0:0,0:0:0:0:
132,108,146087,1,0,0:0:0:0:
132,108,146261,2,0,P|136:144|128:180,1,57.5,8|0,0:0|0:0,0:0:0:0:
104,220,146610,1,4,0:0:0:0:
188,312,146959,2,0,L|260:316,1,57.5,8|0,0:0|0:0,0:0:0:0:
272,296,147221,1,0,0:0:0:0:
296,280,147308,2,0,P|336:272|364:276,1,57.5,0|0,0:0|0:0,0:0:0:0:
416,288,147657,1,8,0:0:0:0:
476,264,147831,1,0,0:0:0:0:
508,208,148005,6,0,L|500:92,1,115,4|8,0:0|0:0,0:0:0:0:
468,40,148529,2,0,P|470:26|473:12,2,28.75,0|0|0,0:0|0:0|0:0,0:0:0:0:
412,68,148878,1,0,0:0:0:0:
360,36,149052,2,0,P|320:32|292:40,1,57.5,8|0,0:0|0:0,0:0:0:0:
248,68,149401,1,4,0:0:0:0:
296,184,149750,2,0,P|300:216|292:256,1,57.5,8|0,0:0|0:0,0:0:0:0:
280,268,150011,1,0,0:0:0:0:
256,288,150099,2,0,L|196:284,1,57.5,0|0,0:0|0:0,0:0:0:0:
140,304,150447,1,8,0:0:0:0:
76,296,150622,1,0,0:0:0:0:
32,252,150796,6,0,L|36:116,1,115,4|8,0:0|0:0,0:0:0:0:
84,96,151319,2,0,L|80:52,2,28.75,0|0|0,0:0|0:0|0:0,0:0:0:0:
140,128,151668,1,0,0:0:0:0:
140,128,151843,2,0,P|169:130|198:126,1,57.5,8|0,0:0|0:0,0:0:0:0:
240,80,152192,2,0,L|368:84,1,115,4|8,0:0|0:0,0:0:0:0:
408,48,152715,2,0,P|410:33|408:16,2,28.75,0|0|0,0:0|0:0|0:0,0:0:0:0:
460,88,153064,1,0,0:0:0:0:
492,140,153238,2,0,L|488:208,1,57.5,8|0,0:0|0:0,0:0:0:0:
436,232,153587,6,0,P|428:268|432:304,1,57.5,0|0,0:0|0:0,0:0:0:0:
388,336,153936,2,0,L|316:332,1,57.5,8|0,0:0|0:0,0:0:0:0:
280,296,154285,2,0,L|208:304,1,57.5,0|0,0:0|0:0,0:0:0:0:
172,268,154633,2,0,P|164:228|172:196,1,57.5,8|0,0:0|0:0,0:0:0:0:
256,192,154982,12,4,156378,0:0:0:0:
160,244,167540,5,8,0:0:0:0:
116,124,167889,2,0,P|159:115|220:137,2,86.25,8|8|8,0:0|0:0|0:0,0:0:0:0:
64,160,168587,1,8,0:0:0:0:
160,244,168936,2,0,L|236:248,1,57.5,8|0,0:0|0:0,0:0:0:0:
276,276,169285,2,0,B|284:320|284:320|277:361,2,86.25,8|8|8,0:0|0:0|0:0,0:0:0:0:
312,224,169982,2,0,P|312:188|320:156,1,57.5,8|8,0:0|0:0,0:0:0:0:
352,116,170331,5,8,0:0:0:0:
280,12,170680,2,0,P|240:8|184:36,2,86.25,8|8|8,0:0|0:0|0:0,0:0:0:0:
340,36,171378,1,8,0:0:0:0:
436,120,171726,2,0,L|432:192,1,57.5,8|0,0:0|0:0,0:0:0:0:
392,228,172075,2,0,B|388:272|388:272|404:316,2,86.25,8|8|8,0:0|0:0|0:0,0:0:0:0:
340,192,172773,1,8,0:0:0:0:
276,192,172947,1,0,0:0:0:0:
232,236,173122,6,0,L|160:240,1,57.5,8|0,0:0|0:0,0:0:0:0:
116,216,173471,2,0,P|72:204|24:212,2,86.25,8|8|8,0:0|0:0|0:0,0:0:0:0:
156,168,174168,2,0,L|152:92,1,57.5,8|0,0:0|0:0,0:0:0:0:
188,56,174517,1,8,0:0:0:0:
308,88,174866,2,0,B|350:88|350:88|391:73,2,86.25,8|8|8,0:0|0:0|0:0,0:0:0:0:
268,136,175564,1,8,0:0:0:0:
272,200,175738,1,8,0:0:0:0:
316,244,175912,6,0,L|384:240,1,57.5,8|0,0:0|0:0,0:0:0:0:
428,268,176261,2,0,P|424:320|444:360,2,86.25,8|8|8,0:0|0:0|0:0,0:0:0:0:
472,220,176959,2,0,L|468:152,1,57.5,8|0,0:0|0:0,0:0:0:0:
432,112,177308,1,8,0:0:0:0:
320,52,177657,2,0,P|272:48|228:64,2,86.25,8|8|8,0:0|0:0|0:0,0:0:0:0:
352,108,178354,2,0,L|348:180,1,57.5,8|8,0:0|0:0,0:0:0:0:
312,216,178703,6,0,P|259:236|203:224,1,115,8|8,0:2|0:0,0:0:0:0:
160,180,179226,2,0,L|156:140,2,28.75,0|0|0,0:0|0:0|0:0,0:0:0:0:
112,224,179575,1,0,0:0:0:0:
76,276,179750,2,0,P|71:304|76:332,1,57.5,8|0,0:0|0:0,0:0:0:0:
132,364,180099,2,0,L|256:368,1,115,8|8,0:2|0:0,0:0:0:0:
292,324,180622,1,0,0:0:0:0:
348,296,180796,2,0,P|367:297|391:300,2,28.75,0|0|0,0:0|0:0|0:0,0:0:0:0:
328,236,181145,1,8,0:2:0:0:
372,192,181319,1,8,0:2:0:0:
432,176,181494,6,0,B|440:120|440:120|420:60,1,115,8|8,0:2|0:0,0:0:0:0:
372,28,182017,2,0,L|376:0,2,28.75,0|0|0,0:0|0:0|0:0,0:0:0:0:
308,40,182366,1,0,0:0:0:0:
248,64,182540,2,0,P|240:104|248:140,1,57.5,8|0,0:0|0:0,0:0:0:0:
264,180,182889,1,8,0:2:0:0:
200,288,183238,2,0,P|167:287|129:272,1,57.5,8|0,0:0|0:0,0:0:0:0:
120,260,183500,1,0,0:0:0:0:
92,244,183587,2,0,P|56:244|28:256,1,57.5,0|0,0:0|0:0,0:0:0:0:
4,304,183936,1,8,0:0:0:0:
20,364,184110,1,0,0:0:0:0:
80,376,184285,6,0,L|212:368,1,115,8|8,0:2|0:0,0:0:0:0:
256,348,184808,2,0,P|271:346|292:348,2,28.75,0|0|0,0:0|0:0|0:0,0:0:0:0:
216,300,185157,1,0,0:0:0:0:
216,300,185331,2,0,P|220:264|236:228,1,57.5,8|0,0:0|0:0,0:0:0:0:
260,192,185680,2,0,L|380:184,1,115,8|8,0:2|0:0,0:0:0:0:
432,160,186203,1,0,0:0:0:0:
484,196,186378,2,0,P|482:214|484:232,2,28.75,0|0|0,0:0|0:0|0:0,0:0:0:0:
508,136,186726,2,0,P|500:104|501:78,1,57.5,8|8,0:2|0:2,0:0:0:0:
456,36,187075,6,0,P|400:23|347:44,1,115,8|8,0:2|0:0,0:0:0:0:
320,104,187599,2,0,L|324:144,2,28.75,0|0|0,0:0|0:0|0:0,0:0:0:0:
264,76,187947,1,0,0:0:0:0:
208,104,188122,2,0,P|179:108|151:104,1,57.5,8|0,0:0|0:0,0:0:0:0:
96,76,188471,2,0,L|92:200,1,115,8|8,0:2|0:0,0:0:0:0:
148,220,188994,1,0,0:0:0:0:
196,180,189168,2,0,P|195:161|192:137,2,28.75,0|0|0,0:0|0:0|0:0,0:0:0:0:
256,204,189517,1,8,0:0:0:0:
316,180,189692,1,0,0:0:0:0:
376,204,189866,6,0,L|384:332,1,115,8|8,0:2|0:0,0:0:0:0:
332,356,190389,2,0,P|328:376|328:400,2,28.75,0|0|0,0:0|0:0|0:0,0:0:0:0:
280,320,190738,1,0,0:0:0:0:
280,320,190912,2,0,P|244:324|208:316,1,57.5,8|0,0:0|0:0,0:0:0:0:
168,292,191261,1,8,0:2:0:0:
48,336,191610,2,0,L|52:264,1,57.5,8|0,0:0|0:0,0:0:0:0:
32,252,191872,1,0,0:0:0:0:
16,228,191959,2,0,P|8:188|12:160,1,57.5,0|0,0:0|0:0,0:0:0:0:
24,108,192308,1,8,0:2:0:0:
72,64,192482,1,8,0:2:0:0:
136,72,192657,6,0,L|252:64,1,115,8|8,0:2|0:0,0:0:0:0:
308,92,193180,2,0,P|322:94|336:97,2,28.75,0|0|0,0:0|0:0|0:0,0:0:0:0:
280,148,193529,1,0,0:0:0:0:
236,192,193703,2,0,P|232:232|240:260,1,57.5,8|0,0:0|0:0,0:0:0:0:
276,300,194052,1,8,0:2:0:0:
392,248,194401,2,0,P|396:216|388:176,1,57.5,8|0,0:0|0:0,0:0:0:0:
376,164,194662,1,0,0:0:0:0:
352,144,194750,2,0,L|292:148,1,57.5,0|0,0:0|0:0,0:0:0:0:
240,120,195099,1,8,0:0:0:0:
176,128,195273,1,0,0:0:0:0:
128,168,195447,6,0,L|124:282,1,115,8|8,0:2|0:0,0:0:0:0:
80,328,195971,2,0,L|44:332,2,28.75,0|0|0,0:0|0:0|0:0,0:0:0:0:
132,360,196319,1,0,0:0:0:0:
132,360,196494,2,0,P|161:362|190:358,1,57.5,8|0,0:0|0:0,0:0:0:0:
232,312,196843,2,0,L|360:316,1,115,8|8,0:2|0:0,0:0:0:0:
400,280,197366,1,0,0:0:0:0:
424,220,197540,2,0,P|421:199|416:176,2,28.75,0|0|0,0:0|0:0|0:0,0:0:0:0:
480,252,197889,2,0,P|492:277|497:306,1,57.5,8|8,0:2|0:2,0:0:0:0:
256,192,198238,12,0,199633,0:0:0:0:
116,280,201029,6,0,L|124:164,1,115,4|8,0:0|0:0,0:0:0:0:
168,120,201552,2,0,P|224:112|280:136,1,115,4|0,0:0|0:0,0:0:0:0:
324,176,202075,2,0,L|392:180,1,57.5,8|0,0:0|0:0,0:0:0:0:
428,220,202424,2,0,B|440:264|440:264|432:320,2,86.25,2|2|2,0:2|0:2|0:2,0:0:0:0:
476,104,203296,2,0,L|480:40,2,57.5,2|10|2,0:2|0:2|0:2,0:0:0:0:
424,140,203819,6,0,P|368:136|308:96,1,115,4|8,0:0|0:0,0:0:0:0:
268,68,204343,2,0,B|212:56|212:56|140:72,1,115,4|0,0:0|0:0,0:0:0:0:
104,104,204866,2,0,L|36:100,1,57.5,8|0,0:0|0:0,0:0:0:0:
4,148,205215,2,0,P|16:192|12:236,2,86.25,2|2|2,0:2|0:2|0:2,0:0:0:0:
124,188,206087,1,2,0:2:0:0:
124,188,206261,2,0,P|160:196|200:192,1,57.5,10|0,0:2|0:0,0:0:0:0:
236,164,206610,6,0,P|296:152|356:172,1,115,8|8,0:2|0:0,0:0:0:0:
392,212,207133,2,0,L|384:340,1,115,8|0,0:2|0:0,0:0:0:0:
328,352,207657,2,0,P|288:344|260:344,1,57.5,8|0,0:0|0:0,0:0:0:0:
240,348,207918,1,0,0:0:0:0:
208,356,208005,2,0,L|84:348,1,115,0|8,0:0|0:0,0:0:0:0:
56,296,208529,1,0,0:0:0:0:
84,240,208703,2,0,P|96:188|92:160,1,57.5,0|0,0:0|0:0,0:0:0:0:
68,128,209052,2,0,P|68:96|76:60,1,57.5,8|0,0:0|0:0,0:0:0:0:
124,36,209401,6,0,B|184:28|184:28|240:40,1,115,8|8,0:2|0:0,0:0:0:0:
284,80,209924,2,0,P|340:92|400:68,1,115,8|0,0:2|0:0,0:0:0:0:
444,36,210447,2,0,L|440:4,2,28.75,8|0|0,0:0|0:0|0:0,0:0:0:0:
488,80,210796,1,0,0:0:0:0:
460,136,210971,2,0,P|452:192|468:256,1,115,0|0,0:0|0:0,0:0:0:0:
436,304,211494,2,0,P|408:300|360:300,1,57.5,0|0,0:0|0:0,0:0:0:0:
328,336,211843,2,0,L|332:372,2,28.75,8|0|0,0:0|0:0|0:0,0:0:0:0:
276,300,212192,6,0,L|280:172,1,115,4|8,0:0|0:0,0:0:0:0:
240,136,212715,2,0,B|184:121|184:121|128:133,1,115,4|0,0:0|0:0,0:0:0:0:
92,188,213238,2,0,L|96:260,1,57.5,8|0,0:0|0:0,0:0:0:0:
132,296,213587,2,0,P|176:300|232:272,2,86.25,2|2|2,0:2|0:2|0:2,0:0:0:0:
204,192,214459,2,0,P|177:194|128:204,2,57.5,2|10|2,0:2|0:2|0:2,0:0:0:0:
268,200,214982,6,0,L|260:76,1,115,4|8,0:0|0:0,0:0:0:0:
204,52,215505,2,0,P|148:44|92:80,1,115,4|0,0:0|0:0,0:0:0:0:
88,136,216029,2,0,L|20:132,1,57.5,8|0,0:0|0:0,0:0:0:0:
12,192,216378,2,0,P|20:236|8:288,2,86.25,2|2|2,0:2|0:2|0:2,0:0:0:0:
140,196,217250,1,2,0:2:0:0:
140,196,217424,2,0,P|172:176|188:136,1,57.5,10|2,0:2|0:2,0:0:0:0:
224,112,217773,6,0,L|348:120,1,115,8|8,0:2|0:0,0:0:0:0:
400,140,218296,2,0,P|416:196|392:256,1,115,8|0,0:2|0:0,0:0:0:0:
344,280,218819,2,0,L|340:344,1,57.5,8|0,0:0|0:0,0:0:0:0:
316,356,219081,1,0,0:0:0:0:
284,364,219168,2,0,P|228:352|164:368,2,115,0|8|0,0:0|0:0|0:0,0:0:0:0:
344,344,220040,1,0,0:0:0:0:
396,308,220215,2,0,L|404:232,1,57.5,8|0,0:0|0:0,0:0:0:0:
372,196,220564,6,0,P|356:140|372:80,1,115,8|8,0:2|0:0,0:0:0:0:
392,28,221087,2,0,L|260:36,1,115,8|0,0:2|0:0,0:0:0:0:
224,68,221610,2,0,L|188:64,2,28.75,8|0|0,0:0|0:0|0:0,0:0:0:0:
256,192,221959,12,0,223005,0:0:0:0:
452,280,223354,6,0,B|396:288|396:288|328:272,1,115,4|8,0:0|0:0,0:0:0:0:
284,244,223878,2,0,L|288:116,1,115,4|0,0:0|0:0,0:0:0:0:
244,84,224401,2,0,B|184:100|132:72|132:72|72:96|80:164|80:164|120:232|72:296,1,345,8|0,0:0|0:0,0:0:0:0:
116,328,225622,1,0,0:0:0:0:
172,356,225796,2,0,L|248:352,1,57.5,8|0,0:0|0:0,0:0:0:0:
288,328,226145,6,0,P|340:304|412:320,1,115,4|8,0:0|0:0,0:0:0:0:
456,336,226668,2,0,L|452:212,1,115,4|0,0:0|0:0,0:0:0:0:
492,172,227192,2,0,P|496:140|488:108,1,57.5,8|0,0:0|0:0,0:0:0:0:
440,80,227540,2,0,P|444:32|480:-4,2,86.25,2|2|2,0:2|0:2|0:2,0:0:0:0:
352,172,228412,1,2,0:2:0:0:
352,172,228587,2,0,L|284:176,1,57.5,10|2,0:2|0:2,0:0:0:0:
244,216,228936,6,0,P|236:284|264:328,1,115,8|8,0:2|0:0,0:0:0:0:
316,352,229459,2,0,L|192:364,1,115,8|0,0:2|0:0,0:0:0:0:
144,332,229982,2,0,P|108:328|80:336,1,57.5,8|0,0:0|0:0,0:0:0:0:
32,364,230331,2,0,L|36:232,1,115,0|8,0:0|0:0,0:0:0:0:
84,208,230854,1,0,0:0:0:0:
112,152,231029,2,0,P|108:112|88:76,1,57.5,0|0,0:0|0:0,0:0:0:0:
148,52,231378,2,0,P|176:56|220:48,1,57.5,8|0,0:0|0:0,0:0:0:0:
264,80,231726,6,0,L|272:208,1,115,8|8,0:2|0:0,0:0:0:0:
324,232,232250,2,0,B|380:240|380:240|448:220,1,115,8|0,0:2|0:0,0:0:0:0:
476,176,232773,2,0,L|480:112,1,57.5,8|0,0:0|0:0,0:0:0:0:
440,72,233122,2,0,P|388:56|324:64,1,115,0|8,0:0|0:0,0:0:0:0:
272,92,233645,1,0,0:0:0:0:
212,80,233819,2,0,P|176:80|136:92,1,57.5,0|0,0:0|0:0,0:0:0:0:
100,56,234168,2,0,L|104:20,2,28.75,8|0|0,0:0|0:0|0:0,0:0:0:0:
48,96,234517,6,0,L|56:224,1,115,4|8,0:0|0:0,0:0:0:0:
100,256,235040,2,0,B|156:268|156:268|216:256,1,115,4|0,0:0|0:0,0:0:0:0:
264,220,235564,2,0,B|320:176|308:120|308:120|368:152|412:128|412:128|476:160|464:240,1,345,8|0,0:0|0:0,0:0:0:0:
444,288,236785,1,0,0:0:0:0:
400,336,236959,2,0,L|332:340,1,57.5,8|0,0:0|0:0,0:0:0:0:
284,364,237308,6,0,B|224:372|224:372|164:356,1,115,4|8,0:0|0:0,0:0:0:0:
120,320,237831,2,0,L|124:196,1,115,4|0,0:0|0:0,0:0:0:0:
156,152,238354,2,0,P|164:120|156:88,1,57.5,8|0,0:0|0:0,0:0:0:0:
200,48,238703,2,0,L|296:44,2,86.25,2|2|2,0:2|0:2|0:2,0:0:0:0:
76,24,239575,1,2,0:2:0:0:
76,24,239750,2,0,P|64:64|68:88,1,57.5,10|2,0:2|0:2,0:0:0:0:
88,140,240099,6,0,P|100:196|80:264,1,115,8|8,0:2|0:0,0:0:0:0:
48,300,240622,2,0,L|176:304,1,115,8|0,0:2|0:0,0:0:0:0:
220,276,241145,2,0,L|284:272,1,57.5,8|0,0:0|0:0,0:0:0:0:
336,296,241494,2,0,P|392:308|456:292,1,115,0|8,0:0|0:0,0:0:0:0:
484,244,242017,2,0,L|480:120,1,115
424,96,242540,2,0,P|380:92|356:100,1,57.5,8|0,0:0|0:0,0:0:0:0:
316,132,242889,6,0,L|200:128,1,115,0|8,0:0|0:0,0:0:0:0:
148,164,243412,2,0,B|132:220|132:220|148:288,1,115,0|0,0:0|0:0,0:0:0:0:
200,308,243936,2,0,P|232:308|264:316,1,57.5,8|0,0:0|0:0,0:0:0:0:
256,192,244285,12,0,245331,0:0:0:0:
40,208,245680,6,0,L|44:72,1,126.500003860474,4|8,0:0|0:0,0:0:0:0:
100,40,246203,1,0,0:0:0:0:
160,72,246378,2,0,P|196:76|236:68,1,63.2500019302369,0|0,0:0|0:0,0:0:0:0:
280,32,246726,2,0,P|328:24|348:28,1,63.2500019302369,8|0,0:0|0:0,0:0:0:0:
376,32,246988,1,0,0:0:0:0:
400,60,247075,2,0,P|404:112|436:156,2,94.8750028953553,2|2|2,0:2|0:2|0:2,0:0:0:0:
284,140,247947,1,2,0:2:0:0:
284,140,248122,2,0,L|280:208,1,63.2500019302369,10|0,0:2|0:0,0:0:0:0:
232,256,248471,6,0,P|172:268|108:236,1,126.500003860474,4|8,0:0|0:0,0:0:0:0:
64,192,248994,1,0,0:0:0:0:
20,136,249168,2,0,L|28:60,1,63.2500019302369,0|0,0:0|0:0,0:0:0:0:
84,36,249517,2,0,P|120:32|156:36,1,63.2500019302369,8|0,0:0|0:0,0:0:0:0:
180,48,249779,1,0,0:0:0:0:
208,68,249866,2,0,L|312:60,2,94.8750028953553,2|2|2,0:2|0:2|0:2,0:0:0:0:
328,136,250738,2,0,L|404:144,2,63.2500019302369,2|10|2,0:2|0:2|0:2,0:0:0:0:
268,172,251261,6,0,P|252:232|284:304,1,126.500003860474,4|8,0:0|0:0,0:0:0:0:
324,340,251785,1,0,0:0:0:0:
388,364,251959,2,0,L|456:360,1,63.2500019302369,0|0,0:0|0:0,0:0:0:0:
492,304,252308,2,0,P|488:268|492:232,1,63.2500019302369,8|0,0:0|0:0,0:0:0:0:
496,208,252569,1,0,0:0:0:0:
504,176,252657,2,0,L|408:180,2,94.8750028953553,2|2|2,0:2|0:2|0:2,0:0:0:0:
384,104,253529,1,2,0:2:0:0:
384,104,253703,2,0,P|344:128|332:164,1,63.2500019302369,10|0,0:2|0:0,0:0:0:0:
268,160,254052,6,0,L|136:152,1,126.500003860474,4|8,0:0|0:0,0:0:0:0:
84,112,254575,1,0,0:0:0:0:
20,140,254750,2,0,P|12:192|16:216,1,63.2500019302369,0|0,0:0|0:0,0:0:0:0:
72,240,255099,2,0,P|104:247|135:264,1,63.2500019302369,8|0,0:0|0:0,0:0:0:0:
156,284,255360,1,0,0:0:0:0:
176,308,255447,2,0,L|304:292,1,115,8|8,0:2|0:0,0:0:0:0:
328,244,255971,1,0,0:0:0:0:
340,180,256145,2,0,P|331:152|312:131,1,57.5,8|0,0:2|0:0,0:0:0:0:
340,72,256494,2,0,L|408:64,1,57.5,8|0,0:0|0:0,0:0:0:0:
452,108,256843,6,0,L|448:248,1,126.500003860474,4|8,0:0|0:0,0:0:0:0:
396,280,257366,1,0,0:0:0:0:
336,248,257540,2,0,P|300:248|264:272,1,63.2500019302369,0|0,0:0|0:0,0:0:0:0:
224,304,257889,2,0,L|156:300,1,63.2500019302369,8|0,0:0|0:0,0:0:0:0:
136,276,258151,1,0,0:0:0:0:
124,244,258238,2,0,P|124:192|148:140,2,94.8750028953553,2|2|2,0:2|0:2|0:2,0:0:0:0:
260,224,259110,1,2,0:2:0:0:
260,224,259285,2,0,P|292:224|332:200,1,63.2500019302369,10|0,0:2|0:0,0:0:0:0:
364,156,259633,5,4,0:0:0:0:
288,40,259982,2,0,B|224:28|224:28|156:40,1,126.500003860474,8|0,0:0|0:0,0:0:0:0:
100,72,260505,1,0,0:0:0:0:
36,104,260680,2,0,L|32:168,1,63.2500019302369,8|0,0:0|0:0,0:0:0:0:
16,196,260942,1,0,0:0:0:0:
0,224,261029,2,0,P|-4:276|12:320,2,94.8750028953553,2|2|2,0:2|0:2|0:2,0:0:0:0:
136,196,261901,2,0,L|132:260,2,63.2500019302369,2|10|2,0:2|0:2|0:2,0:0:0:0:
204,176,262424,5,4,0:0:0:0:
344,188,262773,2,0,L|348:52,1,126.500003860474,8|0,0:0|0:0,0:0:0:0:
288,28,263296,1,0,0:0:0:0:
228,64,263471,2,0,P|184:68|156:64,1,63.2500019302369,8|0,0:0|0:0,0:0:0:0:
136,48,263732,1,0,0:0:0:0:
108,24,263819,2,0,L|12:28,2,94.8750028953553,2|2|2,0:2|0:2|0:2,0:0:0:0:
188,140,264692,1,2,0:2:0:0:
188,140,264866,2,0,P|196:176|192:212,1,63.2500019302369,10|0,0:2|0:0,0:0:0:0:
160,264,265215,5,4,0:0:0:0:
272,344,265564,2,0,P|332:356|404:316,1,126.500003860474,8|0,0:0|0:0,0:0:0:0:
440,280,266087,1,0,0:0:0:0:
480,224,266261,2,0,L|476:144,1,63.2500019302369,8|0,0:0|0:0,0:0:0:0:
456,132,266523,1,0,0:0:0:0:
428,116,266610,2,0,B|364:104|364:104|296:124,1,126.500003860474,4|8,0:0|0:0,0:0:0:0:
260,176,267133,1,0,0:0:0:0:
212,228,267308,2,0,P|184:220|148:224,1,63.2500019302369,0|0,0:0|0:0,0:0:0:0:
104,276,267657,2,0,P|76:280|36:276,1,63.2500019302369,8|0,0:0|0:0,0:0:0:0:
8,216,268005,6,0,P|21:160|0:107,1,115,4|8,0:0|0:0,0:0:0:0:
44,60,268529,2,0,L|53:32,2,28.75
96,96,268878,1,0,0:0:0:0:
160,108,269052,2,0,P|200:104|226:92,1,57.5,8|0,0:0|0:0,0:0:0:0:
280,104,269401,2,0,L|276:228,1,115,4|8,0:0|0:0,0:0:0:0:
224,256,269924,1,0,0:0:0:0:
196,312,270099,2,0,P|197:331|200:355,2,28.75,0|0|0,0:0|0:0|0:0,0:0:0:0:
136,296,270447,1,8,0:0:0:0:
76,316,270622,1,0,0:0:0:0:
16,292,270796,6,0,B|-3:236|-3:236|5:180,1,115,4|8,0:0|0:0,0:0:0:0:
16,120,271319,2,0,L|8:80,2,28.75,0|0|0,0:0|0:0|0:0,0:0:0:0:
68,156,271668,1,0,0:0:0:0:
116,116,271843,2,0,P|151:96|188:93,1,57.5,8|0,0:0|0:0,0:0:0:0:
232,96,272192,1,4,0:0:0:0:
332,176,272540,2,0,P|331:209|316:247,1,57.5,8|0,0:0|0:0,0:0:0:0:
304,256,272802,1,0,0:0:0:0:
288,284,272889,2,0,P|288:320|300:348,1,57.5,0|0,0:0|0:0,0:0:0:0:
352,368,273238,1,8,0:0:0:0:
416,360,273412,1,0,0:0:0:0:
448,304,273587,6,0,L|444:172,1,115,4|8,0:0|0:0,0:0:0:0:
484,140,274110,2,0,P|499:138|520:140,2,28.75,0|0|0,0:0|0:0|0:0,0:0:0:0:
452,84,274459,1,0,0:0:0:0:
452,84,274633,2,0,P|416:80|380:64,1,57.5,8|0,0:0|0:0,0:0:0:0:
348,32,274982,2,0,L|228:40,1,115,4|8,0:0|0:0,0:0:0:0:
176,64,275505,1,0,0:0:0:0:
116,44,275680,2,0,P|98:42|80:44,2,28.75,0|0|0,0:0|0:0|0:0,0:0:0:0:
176,64,276029,2,0,L|184:132,1,57.5,8|0,0:0|0:0,0:0:0:0:
228,164,276378,6,0,P|236:192|232:232,1,57.5,0|0,0:0|0:0,0:0:0:0:
200,272,276726,2,0,P|200:301|208:329,1,57.5,8|0,0:0|0:0,0:0:0:0:
260,360,277075,2,0,L|344:368,1,57.5,0|0,0:0|0:0,0:0:0:0:
376,340,277424,2,0,L|448:336,1,57.5,8|0,0:0|0:0,0:0:0:0:
256,192,277773,12,8,278819,0:0:0:0:
168,304,279168,6,0,L|296:296,1,115,4|8,0:0|0:0,0:0:0:0:
340,324,279692,2,0,P|344:344|344:368,2,28.75,0|0|0,0:0|0:0|0:0,0:0:0:0:
380,276,280040,1,0,0:0:0:0:
380,276,280215,2,0,P|376:240|384:204,1,57.5,8|0,0:0|0:0,0:0:0:0:
408,164,280564,1,4,0:0:0:0:
324,72,280912,2,0,L|252:68,1,57.5,8|0,0:0|0:0,0:0:0:0:
240,88,281174,1,0,0:0:0:0:
216,104,281261,2,0,P|176:112|148:108,1,57.5,0|0,0:0|0:0,0:0:0:0:
96,96,281610,1,8,0:0:0:0:
36,120,281785,1,0,0:0:0:0:
4,176,281959,6,0,L|12:292,1,115,4|8,0:0|0:0,0:0:0:0:
44,344,282482,2,0,P|42:358|39:372,2,28.75,0|0|0,0:0|0:0|0:0,0:0:0:0:
100,316,282831,1,0,0:0:0:0:
152,348,283005,2,0,P|192:352|220:344,1,57.5,8|0,0:0|0:0,0:0:0:0:
264,316,283354,1,4,0:0:0:0:
216,200,283703,2,0,P|212:168|220:128,1,57.5,8|0,0:0|0:0,0:0:0:0:
232,116,283965,1,0,0:0:0:0:
256,96,284052,2,0,L|316:100,1,57.5,0|0,0:0|0:0,0:0:0:0:
372,80,284401,1,8,0:0:0:0:
436,88,284575,1,0,0:0:0:0:
480,132,284750,6,0,L|476:268,1,115,4|8,0:0|0:0,0:0:0:0:
428,288,285273,2,0,L|432:332,2,28.75,0|0|0,0:0|0:0|0:0,0:0:0:0:
372,256,285622,1,0,0:0:0:0:
372,256,285796,2,0,P|343:254|314:258,1,57.5,8|0,0:0|0:0,0:0:0:0:
272,304,286145,2,0,L|144:300,1,115,4|8,0:0|0:0,0:0:0:0:
104,336,286668,2,0,P|101:350|104:368,2,28.75,0|0|0,0:0|0:0|0:0,0:0:0:0:
52,296,287017,1,0,0:0:0:0:
20,244,287192,2,0,L|24:176,1,57.5,8|0,0:0|0:0,0:0:0:0:
76,152,287540,6,0,P|84:116|80:80,1,57.5,0|0,0:0|0:0,0:0:0:0:
124,48,287889,2,0,L|196:52,1,57.5,8|0,0:0|0:0,0:0:0:0:
232,88,288238,2,0,L|304:80,1,57.5,0|0,0:0|0:0,0:0:0:0:
340,116,288587,2,0,P|348:156|340:188,1,57.5,8|0,0:0|0:0,0:0:0:0:
256,192,288936,12,4,290331,0:0:0:0:
