osu file format v6

[General]
AudioFilename: 01 Invaders Must Die.mp3
AudioLeadIn: 0
PreviewTime: -1
Countdown: 3
SampleSet: Normal
StackLeniency: 0.6
Mode: 0
LetterboxInBreaks: 1
SkinPreference:Default

[Editor]
DistanceSpacing: 0.800000011920929
BeatDivisor: 2
GridSize: 8

[Metadata]
Title:Invaders Must Die
Artist:The Prodigy
Creator:Krindir
Version:No Slider Normal
Source:
Tags:

[Difficulty]
HPDrainRate:6
CircleSize:5
OverallDifficulty:8
SliderMultiplier:1.4
SliderTickRate:1

[Events]
//Background and Video events
//Break Periods
//Storyboard Layer 0 (Background)
//Storyboard Layer 1 (Fail)
//Storyboard Layer 2 (Pass)
//Storyboard Layer 3 (Foreground)
//Storyboard Sound Samples
//Background Colour Transformations
3,100,0,0,0

[TimingPoints]
295053,1000,4,0,0,100,1,0
295053,-100,4,1,0,0,0,0
295053,-100,4,1,0,0,0,0

[Colours]
Combo1 : 128,64,0
Combo2 : 0,128,128
Combo3 : 128,0,0
Combo4 : 0,128,0

[HitObjects]
240,160,35802,1,0
280,160,36139,1,0
280,160,36554,1,0
248,128,36966,1,0
200,128,37367,1,0
208,176,37799,1,0
256,176,38236,1,0
296,144,38668,1,0
256,128,39048,1,0
224,128,39347,1,0
208,144,39566,1,0
216,168,39796,1,0
232,176,39957,1,0
304,136,40735,1,0
264,128,41080,1,0
224,136,41417,1,0
216,152,41588,1,0
224,168,41735,1,0
304,176,42467,1,0
288,144,42809,1,0
256,128,43116,1,0
232,136,43312,1,0
224,144,43438,1,0
288,200,44181,1,0
296,160,44527,1,0
272,136,44850,1,0
224,144,45021,1,0
224,144,45172,1,0
280,208,45926,1,0
288,176,46251,1,0
272,144,46549,1,0
224,144,46700,1,0
224,144,46842,1,0
280,208,47643,5,0
256,128,48390,1,0
192,136,48937,1,0
216,168,49313,1,0
264,168,49735,1,0
232,136,50167,1,0
184,136,50582,1,0
216,176,51022,1,0
248,160,51336,1,0
232,136,51652,1,0
208,136,51896,1,0
216,176,52306,1,0
248,160,52777,1,0
224,120,53209,1,0
176,128,53654,1,0
192,168,54059,1,0
240,160,54495,1,0
224,128,54825,1,0
176,128,55196,1,0
192,160,55485,1,0
240,160,55846,1,0
224,128,56134,1,0
176,128,56388,1,0
192,160,56686,1,0
240,160,57047,1,0
224,128,57437,1,0
176,128,57877,1,0
192,176,58302,1,0
232,144,58766,1,0
208,104,59181,1,0
184,152,59674,1,0
232,144,60079,1,0
208,104,60479,1,0
184,152,60905,1,0
232,144,61315,1,0
208,104,61783,1,0
184,152,62188,1,0
232,144,62633,1,0
256,136,62877,5,0
224,80,63477,1,0
176,88,63936,1,0
160,128,64342,1,0
200,160,64789,1,0
248,152,65216,1,0
248,104,65621,1,0
232,88,65846,1,0
216,80,66046,1,0
192,80,66256,1,0
168,88,66466,1,0
176,136,66900,1,0
224,160,67355,1,0
272,152,67796,1,0
296,112,68205,1,0
264,72,68638,1,0
224,56,69025,1,0
200,56,69239,1,0
176,64,69439,1,0
152,80,69668,1,0
152,104,69913,1,0
192,136,70357,1,0
240,144,70782,1,0
280,120,71207,1,0
272,72,71636,1,0
232,56,72052,1,0
184,56,72466,5,0
168,64,72662,1,0
160,88,72877,1,0
160,112,73072,1,0
176,136,73302,1,0
224,144,73766,1,0
264,120,74161,1,0
272,72,74586,1,0
240,48,74972,1,0
176,48,75543,1,0
152,88,75935,1,0
168,128,76329,1,0
208,152,76747,1,0
288,88,77681,1,0
192,56,78547,1,0
144,136,79391,1,0
224,168,80168,1,0
248,128,80586,1,0
208,104,81025,1,0
168,136,81471,5,0
200,168,81896,1,0
248,152,82365,1,0
272,120,82751,1,0
320,120,83205,1,0
320,168,83635,1,0
280,184,84040,1,0
232,176,84479,1,0
200,136,84918,1,0
232,104,85347,1,0
280,104,85754,1,0
288,152,86195,1,0
240,152,86608,1,0
248,104,87033,1,0
296,120,87487,1,0
320,152,87863,1,0
280,184,88297,1,0
224,176,88786,1,0
192,144,89191,1,0
192,104,89567,1,0
240,72,90070,1,0
288,64,90500,1,0
336,72,90915,1,0
376,104,91355,1,0
400,144,91755,1,0
400,192,92160,1,0
368,240,92628,1,0
328,264,93019,1,0
296,272,93297,1,0
240,248,93874,1,0
216,208,94285,5,0
232,160,94745,5,0
272,128,95206,5,0
320,104,95680,5,0
368,104,96086,5,0
400,152,96597,5,0
408,192,96985,5,0
368,224,97435,5,0
328,240,97838,5,0
280,240,98278,5,0
232,224,98722,5,0
200,192,99117,5,0
192,136,99601,5,0
232,104,100011,5,0
280,88,100451,5,0
320,104,100822,5,0
344,144,101261,5,0
336,184,101657,5,0
296,216,102115,5,0
248,224,102560,5,0
200,208,103015,5,0
168,176,103405,5,0
176,136,103795,5,0
208,104,104220,5,0
256,88,104655,5,0
304,104,105094,5,0
336,136,105490,5,0
336,184,105905,5,0
296,216,106349,5,0
248,216,106813,5,0
208,192,107218,5,0
216,128,107765,5,0
232,112,107970,1,0
256,96,108219,1,0
280,88,108429,1,0
320,104,108785,1,0
344,136,109156,1,0
312,176,109601,1,0
288,184,109811,1,0
232,168,110315,5,0
224,152,110475,1,0
232,136,110626,1,0
304,104,111349,1,0
344,120,111730,1,0
368,160,112165,1,0
328,184,112589,1,0
272,184,113068,5,0
256,176,113229,1,0
240,160,113424,1,0
232,136,113654,1,0
240,120,113844,1,0
248,104,113995,1,0
264,104,114142,1,0
328,128,114786,1,0
344,144,115011,1,0
344,168,115226,1,0
296,192,115685,1,0
256,184,116061,1,0
216,160,116471,1,0
208,144,116676,1,0
208,112,116930,1,0
216,96,117135,1,0
232,88,117296,1,0
248,80,117438,1,0
264,80,117569,1,0
304,144,118253,1,0
296,168,118458,1,0
280,184,118649,1,0
232,160,119103,5,0
240,120,119445,1,0
264,168,123409,1,0
280,160,123580,1,0
296,112,124034,1,0
256,88,124459,1,0
208,104,124879,1,0
184,144,125270,1,0
224,176,125727,1,0
288,176,126315,1,0
440,0,128360,1,0
416,24,128675,1,0
392,40,128932,1,0
360,56,129236,1,0
312,88,129759,1,0
272,120,130198,1,0
256,136,130388,1,0
240,152,130589,1,0
224,168,130764,1,0
208,184,130955,1,0
192,200,131145,1,0
184,216,131291,1,0
248,280,132089,5,0
272,264,132312,1,0
296,224,132751,1,0
288,168,133245,1,0
112,64,135095,1,0
160,72,135549,1,0
208,80,135999,1,0
256,88,136453,1,0
304,104,136882,1,0
344,120,137283,1,0
296,240,138455,1,0
256,208,138928,1,0
248,160,139369,1,0
280,120,139832,1,0
328,104,140286,1,0
368,112,140641,1,0
400,152,141111,1,0
400,168,141252,1,0
376,184,141496,1,0
352,192,141721,1,0
328,192,141931,1,0
296,160,142341,1,0
304,112,142805,1,0
352,96,143269,1,0
400,112,143719,1,0
416,152,144099,1,0
360,176,144660,1,0
328,176,144961,1,0
296,136,145379,1,0
328,104,145784,1,0
376,120,146243,1,0
392,168,146661,1,0
336,176,147129,1,0
296,152,147551,1,0
320,104,148020,1,0
408,120,148835,1,0
368,152,149260,1,0
320,152,149656,1,0
328,104,150085,1,0
376,112,150544,1,0
360,160,150969,1,0
312,152,151402,1,0
288,152,151599,1,0
264,144,151804,1,0
240,144,152014,1,0
216,136,152234,1,0
200,96,152624,5,0
240,64,153074,1,0
264,64,153279,1,0
288,64,153523,1,0
312,64,153741,1,0
336,64,153928,1,0
360,104,154387,5,0
312,128,154839,1,0
288,128,155048,1,0
264,128,155261,1,0
240,128,155466,1,0
208,120,155759,5,0
184,88,156110,1,0
216,56,156539,1,0
240,56,156765,1,0
264,56,156980,1,0
288,56,157209,1,0
320,64,157512,5,0
336,104,157893,1,0
312,128,158225,1,0
288,136,158430,1,0
264,136,158635,1,0
240,136,158845,1,0
216,128,159099,5,0
184,96,159480,1,0
216,64,159914,1,0
240,56,160110,1,0
288,56,160529,1,0
328,72,160930,5,0
328,112,161311,1,0
288,128,161711,5,0
240,120,162136,5,0
200,104,162536,5,0
112,152,163449,5,0
192,184,164250,5,0
280,168,165021,5,0
216,96,165915,5,0
120,128,166804,5,0
184,200,167669,5,0
280,168,168547,5,0
224,96,169349,5,0
136,136,170222,5,0
208,208,171105,5,0
136,40,172746,1,0
112,136,173654,5,0
184,192,174514,5,0
272,152,175393,5,0
208,88,176230,5,0
120,112,177058,5,0
152,192,177861,5,0
256,176,178779,5,0
200,104,179601,5,0
112,136,180427,5,0
168,208,181218,5,0
264,168,182179,5,0
208,96,183034,5,0
128,136,183820,5,0
184,216,184669,5,0
280,168,185617,5,0
216,96,186437,5,0
128,144,187355,5,0
192,232,188337,5,0
264,184,189089,5,0
192,120,189919,5,0
120,176,190739,1,0
192,224,191530,1,0
272,160,192458,1,0
192,96,193380,1,0
128,152,194149,1,0
192,216,194959,1,0
280,168,195859,1,0
208,104,196740,1,0
128,152,197595,1,0
200,208,198410,1,0
272,168,199176,1,0
200,96,200119,1,0
120,152,200989,1,0
208,200,201901,5,0
256,184,202336,1,0
296,152,202834,1,0
272,104,203288,1,0
232,96,203669,1,0
192,120,204088,1,0
168,168,204539,1,0
168,168,204963,1,0
216,168,205378,1,0
240,160,205597,1,0
264,144,205846,1,0
280,128,206080,1,0
288,104,206298,1,0
280,80,206500,1,0
264,64,206681,1,0
240,56,206881,1,0
208,64,207165,1,0
184,96,207539,1,0
192,136,207931,1,0
248,144,208405,1,0
304,144,208898,1,0
328,168,209225,1,0
296,200,209660,1,0
248,208,210060,1,0
208,184,210460,5,0
208,136,210924,1,0
248,112,211359,1,0
288,112,211739,1,0
320,152,212184,1,0
320,168,212347,1,0
296,176,212589,1,0
272,176,212814,1,0
248,160,213048,1,0
248,136,213268,1,0
264,120,213483,1,0
288,112,213683,1,0
312,128,213913,1,0
272,144,214323,1,0
248,96,214811,1,0
296,80,215246,1,0
336,104,215660,1,0
312,136,216029,1,0
256,152,216530,1,0
216,152,216872,1,0
176,120,217348,5,0
216,88,217799,1,0
264,88,218234,1,0
304,104,218629,1,0
328,152,219069,1,0
312,168,219284,1,0
288,176,219494,1,0
264,184,219713,1,0
240,184,219941,1,0
216,176,220149,1,0
200,168,220343,1,0
184,152,220524,1,0
192,128,220793,5,0
240,112,221237,1,0
328,120,222040,1,0
360,160,222478,1,0
328,200,222931,1,0
288,216,223312,1,0
232,208,223795,1,0
208,168,224220,5,0
224,120,224635,1,0
272,104,225104,1,0
312,104,225450,1,0
352,128,225890,5,0
360,144,226066,1,0
360,168,226271,1,0
352,192,226486,1,0
336,208,226705,1,0
312,216,226930,1,0
288,224,227155,1,0
264,224,227345,1,0
240,216,227569,5,0
240,160,228038,1,0
280,120,228548,1,0
248,88,228950,1,0
208,88,229342,1,0
160,120,229850,1,0
176,168,230285,1,0
224,200,230768,1,0
264,184,231129,1,0
280,152,231480,1,0
256,104,231945,1,0
208,120,232379,1,0
208,168,232809,1,0
256,176,233219,1,0
304,160,233673,1,0
312,120,234064,1,0
256,112,234538,1,0
168,144,235338,1,0
192,152,235570,1,0
216,160,235778,1,0
232,160,235948,1,0
264,144,236248,1,0
272,120,236451,1,0
248,112,236648,1,0
224,112,236852,1,0
200,112,237058,1,0
176,112,237268,1,0
208,168,237858,5,0
256,152,238336,5,0
224,112,238810,5,0
184,144,239268,5,0
216,168,239659,5,0
264,152,240089,5,0
304,120,240528,5,0
312,96,240753,1,0
304,80,240944,1,0
256,80,241398,5,0
224,120,241848,5,0
256,160,242300,5,0
296,152,242668,1,0
312,112,243048,5,0
264,80,243517,1,0
216,104,243985,5,0
208,120,244160,1,0
208,144,244360,1,0
224,160,244558,1,0
248,168,244791,5,0
288,144,245178,1,0
296,96,245636,1,0
200,88,246519,1,0
176,128,246939,5,0
216,152,247330,5,0
272,144,247823,5,0
296,104,248228,5,0
264,64,248658,5,0
216,64,249064,5,0
176,80,249469,5,0
176,128,249869,5,0
192,144,250079,5,0
216,152,250314,1,0
240,152,250528,1,0
264,152,250719,1,0
288,144,250939,1,0
304,128,251129,1,0
296,80,251569,1,0
248,88,252032,1,0
224,120,252388,5,0
232,128,252505,1,0
280,136,252931,5,0
312,88,253414,5,0
272,80,253809,5,0
232,96,254161,5,0
224,136,254498,5,0
264,160,254928,5,0
296,160,255188,5,0
328,112,255748,1,0
296,72,256178,5,0
232,80,256764,1,0
208,112,257140,5,0
232,144,257520,5,0
280,152,257984,5,0
320,120,258434,5,0
280,88,258873,5,0
240,104,259288,5,0
232,152,259722,5,0
272,176,260158,5,0
312,152,260562,5,0
280,112,260992,5,0
232,120,261451,5,0
200,160,261890,5,0
224,200,262347,5,0
272,208,262769,5,0
320,200,263189,5,0
352,160,263637,5,0
328,112,264118,1,0
288,88,264537,5,0
232,80,265049,1,0
200,104,265387,1,0
208,152,265818,1,0
256,176,266280,1,0
304,168,266734,1,0
336,136,267120,1,0
328,112,267364,1,0
304,96,267594,1,0
280,88,267808,1,0
256,88,268038,1,0
232,96,268258,1,0
208,112,268556,1,0
192,128,268738,1,0
88,272,270313,1,0
104,248,270582,1,0
120,232,270797,1,0
136,216,271010,1,0
152,200,271251,1,0
176,184,271485,1,0
200,168,271724,1,0
224,160,271927,1,0
248,152,272144,1,0
272,144,272393,1,0
296,152,272603,1,0
312,160,272803,1,0
328,176,273028,1,0
392,248,273873,1,0
328,176,274141,1,0
312,160,274361,1,0
312,160,274568,1,0
296,144,274781,1,0
272,136,274990,1,0
248,136,275188,1,0
224,136,275411,1,0
160,168,276068,1,0
144,192,276288,1,0
144,192,277247,5,0
160,168,277477,1,0
160,168,277688,1,0
184,160,277896,1,0
208,152,278111,1,0
232,144,278350,1,0
256,144,278570,1,0
272,128,278790,1,0
248,64,279371,1,0
128,128,280606,1,0
232,136,281509,1,0
144,168,282364,1,0
232,176,283157,1,0
144,224,284029,1,0
240,240,284898,1,0
168,296,285708,1,0
264,288,286558,1,0
200,224,287393,5,0
216,136,288199,1,0
144,88,288985,1,0
224,40,289810,1,0
296,104,290698,1,0
216,152,291519,1,0
296,192,292327,5,0
256,208,292705,1,0
264,248,293089,5,0
216,256,293530,5,0
