osu file format v14

[General]
AudioFilename: The Prodigy - Fire (Sunrise Version) -Short-.mp3
AudioLeadIn: 2000
PreviewTime: 55117
Countdown: 0
SampleSet: Normal
StackLeniency: 0.7
Mode: 0
LetterboxInBreaks: 1
EpilepsyWarning: 1
WidescreenStoryboard: 1

[Editor]
Bookmarks: 471,7113,13976,20833,27690,34547,41404,44833,51690,55119,58547,65404,68833,72261,79119,85968,92829,99686,106543,113400,120257,127110,133968,140825,147682,151110,154539
DistanceSpacing: 1.1
BeatDivisor: 4
GridSize: 4
TimelineZoom: 3.699999

[Metadata]
Title:Fire (Sunrise Version)
TitleUnicode:Fire (Sunrise Version)
Artist:The Prodigy
ArtistUnicode:The Prodigy
Creator:whymeman
Version:Incinerator
Source:
Tags:Experience Flames Burning
BeatmapID:271591
BeatmapSetID:102921

[Difficulty]
HPDrainRate:6.9
CircleSize:5.1
OverallDifficulty:9.1
ApproachRate:9.5
SliderMultiplier:2
SliderTickRate:1

[Events]
//Background and Video events
0,0,"Background.jpg",0,0
//Break Periods
2,51888,58020
2,86168,92300
//Storyboard Layer 0 (Background)
Sprite,Background,Centre,"StoryBoard/Background Flash Image.png",320,240 F,0,58541,58970,1,0 S,0,58541,58970,1,1.138666
Sprite,Background,Centre,"StoryBoard/Background Flash Image.png",320,240 F,0,58541,58970,1,0 S,0,58541,58970,1,1.277333
Sprite,Background,Centre,"StoryBoard/Background Flash Image.png",320,240 F,0,72255,72684,1,0 S,0,72255,72684,1,1.138666
Sprite,Background,Centre,"StoryBoard/Background Flash Image.png",320,240 F,0,72255,72684,1,0 S,0,72255,72684,1,1.277333
Sprite,Background,Centre,"StoryBoard/Background Flash Image.png",320,240 F,0,106531,106960,1,0 S,0,106531,106960,1,1.138666
Sprite,Background,Centre,"StoryBoard/Background Flash Image.png",320,240 F,0,106531,106960,1,0 S,0,106531,106960,1,1.277333
Sprite,Background,Centre,"StoryBoard/Background Flash Image.png",320,240 F,0,120245,120674,1,0 S,0,120245,120674,1,1.138666
Sprite,Background,Centre,"StoryBoard/Background Flash Image.png",320,240 F,0,120245,120674,1,0 S,0,120245,120674,1,1.277333
//Storyboard Layer 1 (Fail)
//Storyboard Layer 2 (Pass)
//Storyboard Layer 3 (Foreground)
Sprite,Foreground,Centre,"StoryBoard/SpeedUp.png",320,240 F,0,55113,,0 M,0,55113,55220,306,136,306,192 F,0,55113,55220,0,1 M,0,55220,,306,192 F,0,55220,58541,1 M,0,55220,58755,306,192,306,239 F,0,58541,58755,1,0 S,0,58541,58755,1,1.490667
Sprite,Foreground,Centre,"StoryBoard/SpeedUp.png",320,240 M,0,55113,55220,306,136,306,191 F,0,55113,55327,1,0 S,0,55113,55327,1,1.338143
Sprite,Foreground,Centre,"StoryBoard/SpeedUp.png",320,240 F,0,68827,,0 M,0,68827,68934,306,136,306,192 F,0,68827,68934,0,1 M,0,68934,,306,192 F,0,68934,72255,1 M,0,68934,72469,306,192,306,239 F,0,72255,72469,1,0 S,0,72255,72469,1,1.490667
Sprite,Foreground,Centre,"StoryBoard/SpeedUp.png",320,240 M,0,68827,68934,306,136,306,191 F,0,68827,69041,1,0 S,0,68827,69041,1,1.338143
Sprite,Foreground,Centre,"StoryBoard/SpeedUp.png",320,240 F,0,103110,,0 M,0,103110,103217,306,136,306,192 F,0,103110,103217,0,1 M,0,103217,,306,192 F,0,103217,106538,1 M,0,103217,106752,306,192,306,239 F,0,106538,106752,1,0 S,0,106538,106752,1,1.490667
Sprite,Foreground,Centre,"StoryBoard/SpeedUp.png",320,240 M,0,103110,103217,306,136,306,191 F,0,103110,103324,1,0 S,0,103110,103324,1,1.338143
Sprite,Foreground,Centre,"StoryBoard/SpeedUp.png",320,240 M,0,116825,116932,306,136,306,191 F,0,116825,117039,1,0 S,0,116825,117039,1,1.338143
Sprite,Foreground,Centre,"StoryBoard/SpeedUp.png",320,240 F,0,116825,,0 M,0,116825,116932,306,136,306,192 F,0,116825,116932,0,1 M,0,116932,,306,192 F,0,116932,120253,1 M,0,116932,120467,306,192,306,239 F,0,120253,120467,1,0 S,0,120253,120467,1,1.490667
Sprite,Foreground,Centre,"StoryBoard/Slow Down.png",320,240 M,0,82545,85968,320,240,320,306 F,0,85968,86182,1,0
Sprite,Foreground,Centre,"StoryBoard/Slow Down.png",320,240 M,0,82545,,320,240 F,0,82545,82759,1,0 S,0,82545,82759,1,1.373333
Sprite,Foreground,Centre,"StoryBoard/Slow Down.png",320,240 F,0,83402,83616,1,0 S,0,83402,83616,1,1.373333 M,0,83402,83617,320,257,318,260
Sprite,Foreground,Centre,"StoryBoard/Slow Down.png",320,240 F,0,84259,84473,1,0 S,0,84259,84473,1,1.373333 M,0,84259,84474,318,273,318,276
Sprite,Foreground,Centre,"StoryBoard/Slow Down.png",320,240 M,0,85117,85331,320,289,320,293 F,0,85117,85331,1,0 S,0,85117,85331,1,1.373333
Sprite,Foreground,Centre,"StoryBoard/Slow Down.png",320,240 M,0,109968,113391,320,240,320,306 F,0,113391,113605,1,0
Sprite,Foreground,Centre,"StoryBoard/Slow Down.png",320,240 M,0,123682,127105,320,240,320,306 F,0,127105,127319,1,0
Sprite,Foreground,Centre,"StoryBoard/Slow Down.png",320,240 M,0,109968,,320,240 F,0,109968,110182,1,0 S,0,109968,110182,1,1.373333
Sprite,Foreground,Centre,"StoryBoard/Slow Down.png",320,240 M,0,123682,,320,240 F,0,123682,123896,1,0 S,0,123682,123896,1,1.373333
//Storyboard Sound Samples

[TimingPoints]
471,428.571428571429,4,2,1,75,1,0
7117,428.571428571429,4,1,1,75,1,0
7331,-100,4,2,1,75,0,0
7759,-100,4,1,1,75,0,0
8188,-100,4,2,1,75,0,0
8402,-100,4,1,1,75,0,0
8617,-100,4,2,1,75,0,0
8831,-100,4,1,1,75,0,0
9045,-100,4,2,1,75,0,0
9474,-100,4,1,1,75,0,0
9902,-100,4,2,1,75,0,0
10117,-100,4,1,1,75,0,0
10331,-100,4,2,1,75,0,0
10545,-100,4,1,1,75,0,0
10759,-100,4,2,1,75,0,0
11188,-100,4,1,1,75,0,0
11617,-100,4,2,1,75,0,0
11831,-100,4,1,1,75,0,0
12045,-100,4,2,1,75,0,0
12259,-100,4,1,1,75,0,0
12474,-100,4,2,1,75,0,0
12902,-100,4,1,1,75,0,0
13331,-100,4,2,1,75,0,0
13545,-100,4,1,1,75,0,0
13974,-100,4,2,1,75,0,0
14188,-100,4,1,1,75,0,0
17617,-100,4,1,1,35,0,0
17831,-100,4,1,1,75,0,0
18045,-100,4,1,1,35,0,0
18259,-100,4,1,1,75,0,0
18367,-100,4,1,1,35,0,0
18688,-100,4,1,1,75,0,0
21795,-100,4,2,1,75,0,0
21902,-100,4,1,1,75,0,0
23081,-100,4,2,1,75,0,0
23188,-100,4,1,1,75,0,0
24474,-100,4,1,1,35,0,0
24688,-100,4,1,1,75,0,0
24795,-100,4,1,1,35,0,0
25117,-100,4,1,1,75,0,0
25331,-100,4,1,1,35,0,0
25545,-100,4,1,1,75,0,0
25759,-100,4,1,1,35,0,0
25974,-100,4,1,1,5,0,0
27688,-100,4,1,1,75,0,0
41402,-100,4,2,1,5,0,0
44831,-100,4,2,1,75,0,0
55117,-66.6666666666667,4,1,1,75,0,1
58545,-66.6666666666667,4,1,1,75,0,1
59402,-66.6666666666667,4,2,1,75,0,1
59509,-66.6666666666667,4,1,1,75,0,1
61117,-66.6666666666667,4,2,1,75,0,1
61331,-66.6666666666667,4,1,1,75,0,1
62831,-66.6666666666667,4,2,1,75,0,1
62938,-66.6666666666667,4,1,1,75,0,1
64545,-66.6666666666667,4,2,1,75,0,1
64652,-66.6666666666667,4,1,1,75,0,1
66259,-66.6666666666667,4,2,1,75,0,1
66367,-66.6666666666667,4,1,1,75,0,1
67974,-66.6666666666667,4,2,1,75,0,1
68081,-66.6666666666667,4,1,1,75,0,1
68831,-66.6666666666667,4,1,1,75,0,0
68858,-66.6666666666667,4,1,1,75,0,1
69688,-66.6666666666667,4,2,1,75,0,1
69795,-66.6666666666667,4,1,1,75,0,1
71402,-66.6666666666667,4,2,1,75,0,1
71509,-66.6666666666667,4,1,1,75,0,1
72259,-50,4,1,1,75,0,1
73117,-50,4,2,1,75,0,1
73224,-50,4,1,1,75,0,1
73545,-50,4,2,1,75,0,1
73652,-50,4,1,1,75,0,1
74831,-50,4,2,1,75,0,1
74938,-50,4,1,1,75,0,1
75259,-50,4,2,1,75,0,1
75367,-50,4,1,1,75,0,1
76545,-50,4,2,1,75,0,1
76652,-50,4,1,1,75,0,1
76974,-50,4,2,1,75,0,1
77081,-50,4,1,1,75,0,1
78259,-50,4,2,1,75,0,1
78367,-50,4,1,1,75,0,1
79974,-50,4,2,1,75,0,1
80081,-50,4,1,1,75,0,1
80402,-50,4,2,1,75,0,1
80509,-50,4,1,1,75,0,1
81688,-50,4,2,1,75,0,1
81795,-50,4,1,1,75,0,1
82117,-50,4,2,1,75,0,1
82224,-50,4,1,1,75,0,1
83402,-50,4,2,1,75,0,1
83509,-50,4,1,1,75,0,1
83831,-50,4,2,1,75,0,1
83938,-50,4,1,1,75,0,1
85968,428.571428571429,4,2,1,75,1,0
93253,-100,4,1,1,55,0,0
93468,-100,4,2,1,75,0,0
93682,-100,4,1,1,55,0,0
93896,-100,4,2,1,75,0,0
94111,-100,4,1,1,55,0,0
94325,-100,4,2,1,75,0,0
94539,-100,4,1,1,55,0,0
94753,-100,4,2,1,55,0,0
94968,-100,4,1,1,55,0,0
95182,-100,4,2,1,75,0,0
95396,-100,4,1,1,55,0,0
96039,-100,4,2,1,75,0,0
96253,-100,4,1,1,55,0,0
96468,-100,4,2,1,55,0,0
96682,-100,4,1,1,55,0,0
96896,-100,4,2,1,75,0,0
97111,-100,4,1,1,55,0,0
97325,-100,4,2,1,55,0,0
97539,-100,4,1,1,55,0,0
97753,-100,4,2,1,75,0,0
97968,-100,4,1,1,55,0,0
98182,-100,4,2,1,55,0,0
98396,-100,4,1,1,55,0,0
98611,-100,4,2,1,75,0,0
98825,-100,4,1,1,55,0,0
99253,-100,4,2,1,75,0,0
100111,-100,4,1,1,55,0,0
100325,-100,4,2,1,75,0,0
100968,-100,4,1,1,55,0,0
101075,-100,4,2,1,75,0,0
101825,-100,4,1,1,55,0,0
102039,-100,4,2,1,75,0,0
102682,-100,4,1,1,55,0,0
102789,-100,4,2,1,75,0,0
103539,-100,4,1,1,55,0,0
103753,-100,4,2,1,75,0,0
104396,-100,4,1,1,55,0,0
104610,-100,4,2,1,75,0,0
105253,-100,4,1,1,55,0,0
105468,-100,4,2,1,75,0,0
105682,-100,4,1,1,35,0,0
106539,-66.6666666666667,4,1,1,75,0,1
112968,-66.6666666666667,4,1,1,45,0,1
113075,-66.6666666666667,4,2,1,55,0,1
113182,-66.6666666666667,4,1,1,45,0,1
113396,-100,4,1,1,75,0,0
120253,-66.6666666666667,4,1,1,75,0,1
127110,-100,4,1,1,75,0,0
130003,-100,4,1,1,25,0,0
130110,-100,4,1,1,75,0,0
130218,-100,4,1,1,25,0,0
130325,-100,4,1,1,75,0,0
131289,-100,4,1,1,25,0,0
131396,-100,4,1,1,75,0,0
131932,-100,4,1,1,25,0,0
132039,-100,4,1,1,75,0,0
133218,-100,4,1,1,25,0,0
133325,-100,4,1,1,75,0,0
133432,-100,4,1,1,25,0,0
133539,-100,4,1,1,75,0,0
133646,-100,4,1,1,25,0,0
133753,-100,4,1,1,75,0,0
135360,-100,4,1,1,25,0,0
135468,-100,4,1,1,75,0,0
136860,-100,4,1,1,25,0,0
136968,-100,4,1,1,75,0,0
137075,-100,4,1,1,25,0,0
137182,-100,4,1,1,75,0,0
139968,-100,4,1,1,25,0,0
140825,-100,4,2,1,75,0,0
151110,-100,4,2,1,5,0,0
152825,-100,4,2,1,75,0,0
154539,-100,4,2,1,45,0,0

[Colours]
Combo1 : 156,111,80
Combo2 : 222,81,78
Combo3 : 181,163,199
Combo4 : 138,138,138
Combo5 : 114,181,91
Combo6 : 182,90,180

[HitObjects]
256,16,471,5,0,0:0:0:0:
432,192,899,1,0,0:0:0:0:
256,368,1328,1,0,0:0:0:0:
80,192,1756,1,0,0:0:0:0:
432,16,2185,5,0,0:0:0:0:
432,368,2613,1,0,0:0:0:0:
80,368,3042,1,0,0:0:0:0:
80,16,3471,1,0,0:0:0:0:
380,72,3899,5,0,0:0:0:0:
380,312,4328,1,0,0:0:0:0:
132,72,4756,1,0,0:0:0:0:
132,312,5185,1,0,0:0:0:0:
388,192,5613,5,0,0:0:0:0:
256,316,6042,1,0,0:0:0:0:
256,76,6471,1,0,0:0:0:0:
124,192,6899,1,0,0:0:0:0:
200,124,7117,5,0,0:0:0:0:
272,196,7331,1,0,0:0:0:0:
272,196,7438,1,0,0:0:0:0:
152,284,7759,2,0,B|200:328|200:328|256:328|256:328|280:296|280:296|328:296,1,200
420,300,8402,1,0,0:0:0:0:
368,216,8617,1,0,0:0:0:0:
468,212,8831,5,0,0:0:0:0:
368,216,9045,2,0,B|316:216|316:216|288:192|288:192|288:148|288:148|264:120|264:120|224:120,1,200
32,120,9902,1,0,0:0:0:0:
20,168,10009,1,0,0:0:0:0:
8,216,10117,1,0,0:0:0:0:
108,196,10331,1,0,0:0:0:0:
204,228,10545,5,0,0:0:0:0:
180,324,10759,1,0,0:0:0:0:
228,128,11188,2,0,B|268:128|268:128|296:96|296:96|344:96|344:96|380:160|380:160,1,200
424,256,11831,1,0,0:0:0:0:
378,156,12045,1,0,0:0:0:0:
272,348,12259,5,0,0:0:0:0:
324,252,12474,2,0,B|276:224|276:224|240:224|240:224|216:248|216:248|216:288|216:288|196:304|196:304|164:304,2,200
420,300,13545,1,0,0:0:0:0:
400,192,13759,1,0,0:0:0:0:
356,172,13867,1,0,0:0:0:0:
312,152,13974,5,4,0:0:0:0:
336,56,14188,2,0,B|284:56|284:56|224:84,1,100,0|8,0:0|0:0,0:0:0:0:
148,116,14617,1,0,0:0:0:0:
236,164,14831,2,0,L|180:192,1,50
144,208,15045,1,0,0:0:0:0:
44,192,15259,1,0,0:0:0:0:
56,92,15474,1,0,0:0:0:0:
96,184,15688,5,0,0:0:0:0:
20,248,15902,2,0,L|72:272,1,50
112,284,16117,1,8,0:0:0:0:
96,184,16331,1,0,0:0:0:0:
44,100,16545,1,0,0:0:0:0:
88,72,16652,1,0,0:0:0:0:
132,44,16759,1,0,0:0:0:0:
148,144,16974,1,0,0:0:0:0:
216,72,17188,1,0,0:0:0:0:
312,104,17402,5,4,0:0:0:0:
232,164,17617,2,0,L|308:164,1,50
348,164,17831,1,4,0:0:0:0:
256,224,18045,2,0,L|332:224,1,50
372,224,18259,1,4,0:0:0:0:
396,284,18367,1,0,0:0:0:0:
328,284,18474,2,0,L|252:284,1,50
212,284,18688,1,4,0:0:0:0:
128,228,18902,1,0,0:0:0:0:
92,324,19117,5,0,0:0:0:0:
32,244,19331,1,0,0:0:0:0:
80,236,19438,1,0,0:0:0:0:
128,228,19545,1,8,0:0:0:0:
68,148,19759,1,0,0:0:0:0:
168,140,19974,1,0,0:0:0:0:
144,96,20081,1,0,0:0:0:0:
116,52,20188,1,0,0:0:0:0:
216,52,20402,2,0,B|252:52|252:52|276:84|276:84|324:84,1,100
400,80,20831,5,0,0:0:0:0:
356,168,21045,1,0,0:0:0:0:
356,168,21152,2,0,B|332:168|332:168|304:200|304:200|276:200|276:200|256:184|256:184|224:184,1,150
124,184,21688,1,0,0:0:0:0:
84,216,21795,1,0,0:0:0:0:
84,264,21902,2,0,B|84:296|84:296|112:320|112:320|152:320,1,100,0|8,0:0|0:0,0:0:0:0:
244,320,22331,1,0,0:0:0:0:
192,236,22545,5,0,0:0:0:0:
292,236,22759,2,0,B|324:236|324:236|340:272|340:272|368:272,1,100
420,272,23081,1,0,0:0:0:0:
456,236,23188,1,0,0:0:0:0:
376,176,23402,1,0,0:0:0:0:
420,84,23617,1,0,0:0:0:0:
420,84,23724,2,0,B|352:84|352:84|320:56|320:56|272:56,1,150
180,56,24259,5,4,0:0:0:0:
240,140,24474,2,0,L|152:140,1,50
264,200,24688,2,0,L|188:200,1,50,4|0,0:0|0:0,0:0:0:0:
288,260,24902,2,0,L|216:260,1,50
312,320,25117,1,4,0:0:0:0:
212,320,25331,2,0,L|120:320,1,50
96,320,25545,1,4,0:0:0:0:
212,320,25759,1,0,0:0:0:0:
256,192,25974,12,4,27688,0:0:0:0:
408,264,27902,5,0,0:0:0:0:
376,224,28009,1,0,0:0:0:0:
344,184,28117,1,8,0:0:0:0:
432,136,28331,1,0,0:0:0:0:
372,56,28545,1,0,0:0:0:0:
324,72,28652,1,0,0:0:0:0:
276,88,28759,1,8,0:0:0:0:
180,56,28974,1,0,0:0:0:0:
168,104,29081,1,0,0:0:0:0:
156,152,29188,1,8,0:0:0:0:
64,116,29402,5,0,0:0:0:0:
12,200,29617,2,0,L|96:224,1,50
108,224,29831,1,8,0:0:0:0:
28,284,30045,1,0,0:0:0:0:
108,348,30259,1,0,0:0:0:0:
160,344,30367,2,0,L|244:336,1,50,0|8,0:0|0:0,0:0:0:0:
308,324,30688,2,0,L|360:276,1,50
392,308,30902,2,0,L|400:244,1,50,8|0,0:0|0:0,0:0:0:0:
448,264,31117,6,0,L|436:144,1,100
433,116,31438,1,0,0:0:0:0:
428,68,31545,1,8,0:0:0:0:
328,52,31759,1,0,0:0:0:0:
340,152,31974,1,0,0:0:0:0:
292,140,32081,1,0,0:0:0:0:
244,128,32188,1,8,0:0:0:0:
264,32,32402,1,0,0:0:0:0:
216,44,32509,1,0,0:0:0:0:
168,56,32617,1,8,0:0:0:0:
72,80,32831,5,0,0:0:0:0:
148,144,33045,2,0,L|212:132,2,50,0|0|8,0:0|0:0|0:0,0:0:0:0:
84,220,33474,1,0,0:0:0:0:
140,304,33688,2,0,L|172:348,1,50
200,304,33902,2,0,L|248:336,1,50,8|0,0:0|0:0,0:0:0:0:
260,284,34117,2,0,L|312:292,1,50
304,244,34331,2,0,L|356:240,1,50,8|0,0:0|0:0,0:0:0:0:
404,236,34545,5,0,0:0:0:0:
488,180,34759,1,0,0:0:0:0:
452,144,34867,1,0,0:0:0:0:
404,144,34974,2,0,B|368:144|368:144|336:108|336:108|304:108,1,100,8|0,0:0|0:0,0:0:0:0:
272,108,35295,1,0,0:0:0:0:
244,68,35402,1,0,0:0:0:0:
196,68,35509,2,0,B|160:68|160:68|132:96,1,50,0|8,0:0|0:0,0:0:0:0:
84,152,35831,1,0,0:0:0:0:
128,180,35938,1,0,0:0:0:0:
168,212,36045,1,8,0:0:0:0:
96,280,36259,5,0,0:0:0:0:
144,288,36367,1,0,0:0:0:0:
192,296,36474,1,0,0:0:0:0:
240,304,36581,1,0,0:0:0:0:
288,312,36688,1,8,0:0:0:0:
280,212,36902,2,0,L|336:252,1,50
348,196,37117,2,0,L|372:248,1,50
392,284,37331,1,8,0:0:0:0:
412,188,37545,2,0,L|424:116,1,50
372,148,37759,2,0,L|352:84,1,50,8|0,0:0|0:0,0:0:0:0:
344,52,37974,5,0,0:0:0:0:
264,112,38188,2,0,L|196:72,1,50
176,60,38402,1,8,0:0:0:0:
184,160,38617,1,0,0:0:0:0:
252,236,38831,1,0,0:0:0:0:
204,240,38938,2,0,L|136:248,1,50,0|8,0:0|0:0,0:0:0:0:
212,328,39259,1,0,0:0:0:0:
164,336,39367,1,0,0:0:0:0:
116,344,39474,1,8,0:0:0:0:
52,268,39688,5,0,0:0:0:0:
132,208,39902,1,0,0:0:0:0:
88,180,40009,1,0,0:0:0:0:
44,152,40117,1,8,0:0:0:0:
124,92,40331,1,0,0:0:0:0:
220,64,40545,2,0,L|292:40,1,50
264,100,40759,2,0,L|324:92,1,50,8|0,0:0|0:0,0:0:0:0:
300,144,40974,2,0,L|368:156,1,50
324,196,41188,2,0,L|380:220,1,50,8|0,0:0|0:0,0:0:0:0:
256,192,41402,12,0,43224,0:0:0:0:
316,300,44831,5,4,0:0:0:0:
216,296,45045,1,0,0:0:0:0:
172,272,45152,1,0,0:0:0:0:
128,248,45259,1,0,0:0:0:0:
208,188,45474,2,0,B|160:160|160:160|160:112|160:112,1,100,2|0,0:0|0:0,0:0:0:0:
160,64,45795,1,0,0:0:0:0:
200,36,45902,1,0,0:0:0:0:
300,36,46117,1,2,0:0:0:0:
400,48,46331,1,0,0:0:0:0:
344,132,46545,1,2,0:0:0:0:
440,156,46759,1,0,0:0:0:0:
380,236,46974,5,2,0:0:0:0:
464,292,47188,1,0,0:0:0:0:
424,320,47295,1,0,0:0:0:0:
384,348,47402,1,0,0:0:0:0:
296,304,47617,1,2,0:0:0:0:
196,300,47831,1,0,0:0:0:0:
152,320,47938,1,0,0:0:0:0:
108,344,48045,1,0,0:0:0:0:
116,244,48259,1,2,0:0:0:0:
20,220,48474,1,0,0:0:0:0:
40,176,48581,1,0,0:0:0:0:
60,132,48688,2,0,B|76:92|76:92|156:92,1,100,0|2,0:0|0:0,0:0:0:0:
232,92,49117,1,0,0:0:0:0:
280,92,49224,1,0,0:0:0:0:
312,56,49331,2,0,B|332:36|332:36|376:36|376:36|400:60,1,100,0|2,0:0|0:0,0:0:0:0:
428,92,49652,1,0,0:0:0:0:
464,128,49759,1,0,0:0:0:0:
380,184,49974,5,2,0:0:0:0:
460,244,50188,1,0,0:0:0:0:
428,284,50295,1,0,0:0:0:0:
400,324,50402,1,0,0:0:0:0:
340,244,50617,2,0,B|288:244|288:244|244:204,1,100,2|0,0:0|0:0,0:0:0:0:
216,176,50938,1,0,0:0:0:0:
180,144,51045,1,0,0:0:0:0:
112,216,51259,1,2,0:0:0:0:
76,180,51367,1,0,0:0:0:0:
76,132,51474,2,0,B|75:87|75:87|128:40,1,100,0|2,0:0|0:0,0:0:0:0:
256,36,58545,5,4,0:0:0:0:
396,92,58759,1,0,0:0:0:0:
396,92,58867,1,0,0:0:0:0:
396,92,58974,1,8,0:0:0:0:
256,144,59188,1,0,0:0:0:0:
116,92,59402,1,2,0:0:0:0:
116,92,59509,1,0,0:0:0:0:
116,92,59617,1,8,0:0:0:0:
176,228,59831,1,0,0:0:0:0:
176,228,59938,1,0,0:0:0:0:
176,228,60045,1,8,0:0:0:0:
336,228,60259,5,0,0:0:0:0:
460,140,60474,1,0,0:0:0:0:
460,140,60581,1,0,0:0:0:0:
460,140,60688,1,8,0:0:0:0:
488,288,60902,1,0,0:0:0:0:
488,288,61009,1,0,0:0:0:0:
488,288,61117,1,2,0:0:0:0:
336,308,61331,1,0,0:0:0:0:
296,164,61545,1,0,0:0:0:0:
312,92,61652,1,0,0:0:0:0:
256,44,61759,1,8,0:0:0:0:
200,92,61867,1,0,0:0:0:0:
216,164,61974,5,0,0:0:0:0:
176,308,62188,1,0,0:0:0:0:
176,308,62295,1,0,0:0:0:0:
176,308,62402,1,8,0:0:0:0:
24,288,62617,1,0,0:0:0:0:
176,228,62831,1,2,0:0:0:0:
176,228,62938,1,0,0:0:0:0:
176,228,63045,1,8,0:0:0:0:
48,140,63259,1,0,0:0:0:0:
48,140,63367,1,0,0:0:0:0:
48,140,63474,1,8,0:0:0:0:
200,156,63688,5,0,0:0:0:0:
104,36,63902,1,0,0:0:0:0:
104,36,64009,1,0,0:0:0:0:
104,36,64117,1,8,0:0:0:0:
112,188,64331,1,0,0:0:0:0:
256,140,64545,1,2,0:0:0:0:
256,140,64652,1,0,0:0:0:0:
256,140,64759,1,0,0:0:0:0:
400,188,64974,1,0,0:0:0:0:
400,188,65081,1,0,0:0:0:0:
400,188,65188,1,8,0:0:0:0:
408,36,65402,5,4,0:0:0:0:
312,156,65617,1,0,0:0:0:0:
312,156,65724,1,0,0:0:0:0:
312,156,65831,1,8,0:0:0:0:
464,140,66045,1,0,0:0:0:0:
332,212,66259,1,2,0:0:0:0:
332,212,66367,1,0,0:0:0:0:
332,212,66474,1,8,0:0:0:0:
180,212,66688,1,0,0:0:0:0:
180,212,66795,1,0,0:0:0:0:
180,212,66902,1,8,0:0:0:0:
48,140,67117,5,0,0:0:0:0:
200,156,67331,1,0,0:0:0:0:
200,156,67438,1,0,0:0:0:0:
200,156,67545,1,8,0:0:0:0:
256,16,67759,1,0,0:0:0:0:
256,16,67867,1,0,0:0:0:0:
256,16,67974,1,2,0:0:0:0:
136,108,68188,1,0,0:0:0:0:
216,236,68402,1,0,0:0:0:0:
196,308,68509,1,0,0:0:0:0:
256,356,68617,1,8,0:0:0:0:
316,308,68724,1,0,0:0:0:0:
296,236,68831,5,4,0:0:0:0:
376,108,69045,1,0,0:0:0:0:
376,108,69152,1,0,0:0:0:0:
376,108,69259,1,8,0:0:0:0:
256,200,69474,1,0,0:0:0:0:
396,256,69688,1,2,0:0:0:0:
396,256,69795,1,0,0:0:0:0:
396,256,69902,1,0,0:0:0:0:
256,308,70117,1,0,0:0:0:0:
256,308,70224,1,0,0:0:0:0:
256,308,70331,1,8,0:0:0:0:
116,256,70545,5,4,0:0:0:0:
256,200,70759,1,0,0:0:0:0:
256,200,70867,1,0,0:0:0:0:
256,200,70974,1,8,0:0:0:0:
136,108,71188,1,0,0:0:0:0:
256,20,71402,1,2,0:0:0:0:
256,20,71509,1,0,0:0:0:0:
256,20,71617,1,8,0:0:0:0:
296,164,71831,1,0,0:0:0:0:
316,236,71938,1,0,0:0:0:0:
256,280,72045,1,8,0:0:0:0:
196,236,72152,1,0,0:0:0:0:
216,164,72259,5,4,0:0:0:0:
412,116,72474,1,0,0:0:0:0:
412,116,72581,1,0,0:0:0:0:
412,116,72688,1,8,0:0:0:0:
256,240,72902,1,0,0:0:0:0:
96,116,73117,1,2,0:0:0:0:
96,116,73224,1,0,0:0:0:0:
96,116,73331,1,8,0:0:0:0:
100,316,73545,1,2,0:0:0:0:
100,316,73652,1,0,0:0:0:0:
100,316,73759,1,8,0:0:0:0:
256,188,73974,5,0,0:0:0:0:
412,316,74188,1,0,0:0:0:0:
412,316,74295,1,0,0:0:0:0:
412,316,74402,1,8,0:0:0:0:
446,119,74617,1,0,0:0:0:0:
446,119,74724,1,0,0:0:0:0:
446,119,74831,1,2,0:0:0:0:
256,188,75045,1,8,0:0:0:0:
66,258,75259,1,2,0:0:0:0:
66,258,75367,1,0,0:0:0:0:
66,258,75474,1,8,0:0:0:0:
256,192,75688,5,0,0:0:0:0:
352,16,75902,1,0,0:0:0:0:
352,16,76009,1,0,0:0:0:0:
352,16,76117,1,8,0:0:0:0:
256,192,76331,1,0,0:0:0:0:
160,368,76545,5,2,0:0:0:0:
160,368,76652,1,0,0:0:0:0:
160,368,76759,1,8,0:0:0:0:
160,16,76974,1,2,0:0:0:0:
160,16,77081,1,0,0:0:0:0:
160,16,77188,1,8,0:0:0:0:
256,192,77402,5,0,0:0:0:0:
352,368,77617,1,0,0:0:0:0:
352,368,77724,1,0,0:0:0:0:
352,368,77831,1,8,0:0:0:0:
256,192,78045,1,0,0:0:0:0:
72,112,78259,1,2,0:0:0:0:
72,112,78367,1,0,0:0:0:0:
72,112,78474,1,8,0:0:0:0:
272,112,78688,1,0,0:0:0:0:
342,183,78795,1,0,0:0:0:0:
291,270,78902,1,0,0:0:0:0:
193,254,79009,1,0,0:0:0:0:
179,151,79117,5,4,0:0:0:0:
392,88,79331,1,0,0:0:0:0:
392,88,79438,1,0,0:0:0:0:
392,88,79545,1,8,0:0:0:0:
256,260,79759,1,0,0:0:0:0:
472,308,79974,1,2,0:0:0:0:
472,308,80081,1,0,0:0:0:0:
472,308,80188,1,8,0:0:0:0:
264,372,80402,1,2,0:0:0:0:
264,372,80509,1,0,0:0:0:0:
264,372,80617,1,8,0:0:0:0:
44,304,80831,5,0,0:0:0:0:
256,260,81045,1,0,0:0:0:0:
256,260,81152,1,0,0:0:0:0:
256,260,81259,1,8,0:0:0:0:
124,84,81474,1,0,0:0:0:0:
124,84,81581,1,0,0:0:0:0:
124,84,81688,1,2,0:0:0:0:
8,272,81902,1,8,0:0:0:0:
216,348,82117,1,2,0:0:0:0:
216,348,82224,1,0,0:0:0:0:
216,348,82331,1,8,0:0:0:0:
92,168,82545,5,0,0:0:0:0:
256,24,82759,1,0,0:0:0:0:
256,24,82867,1,0,0:0:0:0:
256,24,82974,1,8,0:0:0:0:
420,168,83188,1,0,0:0:0:0:
296,348,83402,5,2,0:0:0:0:
296,348,83509,1,0,0:0:0:0:
296,348,83617,1,8,0:0:0:0:
172,164,83831,1,2,0:0:0:0:
256,96,83938,1,0,0:0:0:0:
340,164,84045,1,8,0:0:0:0:
312,268,84152,1,0,0:0:0:0:
200,268,84259,5,0,0:0:0:0:
156,52,84474,1,0,0:0:0:0:
156,52,84581,1,0,0:0:0:0:
156,52,84688,1,8,0:0:0:0:
356,52,84902,1,0,0:0:0:0:
420,360,85117,5,0,0:0:0:0:
92,360,85331,1,0,0:0:0:0:
92,24,85545,1,0,0:0:0:0:
420,24,85759,1,0,0:0:0:0:
256,192,85968,1,4,0:0:0:0:
148,148,92825,5,4,0:0:0:0:
56,188,93039,1,2,0:0:0:0:
140,244,93253,1,0,0:0:0:0:
48,288,93468,1,2,0:0:0:0:
132,344,93682,1,0,0:0:0:0:
48,288,93896,1,2,0:0:0:0:
140,244,94110,1,0,0:0:0:0:
228,296,94325,1,2,0:0:0:0:
224,196,94539,6,0,B|276:196|276:196|312:152,1,100,0|2,0:0|0:0,0:0:0:0:
364,76,94968,2,0,B|388:44|388:44|416:44|416:44|436:72,1,100,0|2,0:0|0:0,0:0:0:0:
484,156,95396,2,0,B|500:184|500:184|500:224|500:224|460:240|460:240|460:268|460:268|436:292|436:292|384:292,1,200
312,292,96039,1,2,0:0:0:0:
212,292,96253,6,0,B|156:292|156:292|120:248,1,100,0|2,0:0|0:0,0:0:0:0:
96,220,96575,1,0,0:0:0:0:
64,180,96682,2,0,B|64:144|64:144|88:116|88:116|132:116,1,100,0|2,0:0|0:0,0:0:0:0:
164,116,97003,1,0,0:0:0:0:
216,116,97110,2,0,B|244:116|244:116|264:140|264:140|264:188,1,100,0|2,0:0|0:0,0:0:0:0:
296,220,97432,1,0,0:0:0:0:
344,224,97539,2,0,B|396:224|396:224|428:184,1,100,0|2,0:0|0:0,0:0:0:0:
452,144,97860,1,0,0:0:0:0:
480,100,97968,6,0,B|480:68|480:68|460:48|460:48|408:48,1,100,0|2,0:0|0:0,0:0:0:0:
372,48,98289,1,0,0:0:0:0:
324,48,98396,2,0,B|288:48|288:48|264:76|264:76|224:76,1,100,0|2,0:0|0:0,0:0:0:0:
136,76,98825,1,0,0:0:0:0:
236,76,99039,1,0,0:0:0:0:
184,164,99253,1,0,0:0:0:0:
136,76,99468,1,0,0:0:0:0:
80,160,99682,5,4,0:0:0:0:
128,248,99896,1,0,0:0:0:0:
172,276,100003,1,0,0:0:0:0:
212,308,100110,2,0,B|260:340|260:340|316:340,1,100
352,340,100432,1,0,0:0:0:0:
400,340,100539,1,2,0:0:0:0:
352,252,100753,1,0,0:0:0:0:
452,268,100968,1,0,0:0:0:0:
432,224,101075,1,0,0:0:0:0:
412,180,101182,1,0,0:0:0:0:
484,108,101396,6,0,B|444:72|444:72|384:72,1,100
348,72,101718,1,0,0:0:0:0:
300,72,101825,2,0,B|264:72|264:72|244:100|244:100|204:100,1,100
116,100,102253,2,0,B|92:100|92:100|64:128|64:128|64:176|64:176|116:212|116:212|116:252,1,200,2|0,0:0|0:0,0:0:0:0:
116,288,102789,1,0,0:0:0:0:
152,324,102896,1,0,0:0:0:0:
200,324,103003,1,0,0:0:0:0:
248,324,103110,6,0,B|308:324|308:324|332:284,1,100
352,244,103432,1,0,0:0:0:0:
352,196,103539,2,0,B|352:160|352:160|328:132|328:132|296:132,1,100
252,132,103860,1,0,0:0:0:0:
216,168,103968,2,0,B|192:196|192:196|152:196|152:196|136:180,1,100,2|0,0:0|0:0,0:0:0:0:
104,140,104289,1,0,0:0:0:0:
100,92,104396,2,0,B|100:56|100:56|120:32|120:32|184:32,1,100
204,32,104718,1,0,0:0:0:0:
252,32,104825,6,0,B|312:32|312:32|344:64,1,100
376,96,105146,1,0,0:0:0:0:
412,128,105253,1,0,0:0:0:0:
352,208,105468,1,0,0:0:0:0:
448,228,105682,1,0,0:0:0:0:
416,268,105789,1,0,0:0:0:0:
384,308,105896,1,0,0:0:0:0:
472,356,106110,1,0,0:0:0:0:
176,316,106539,5,4,0:0:0:0:
96,188,106753,1,0,0:0:0:0:
136,252,106860,1,0,0:0:0:0:
200,212,106968,2,0,B|228:192|228:192|228:148|228:148|260:128|260:128|312:128,1,150.000005722046,8|0,0:0|0:0,0:0:0:0:
444,128,107396,1,0,0:0:0:0:
488,68,107503,1,0,0:0:0:0:
412,56,107610,2,0,B|376:56|376:56|340:76|340:76|340:128|340:128|372:164,1,150.000005722046,8|0,0:0|0:0,0:0:0:0:
404,200,107932,1,0,0:0:0:0:
472,172,108039,1,8,0:0:0:0:
492,244,108146,1,0,0:0:0:0:
420,272,108253,6,0,B|340:272|340:272|312:300|312:300|252:300,1,150.000005722046,4|0,0:0|0:0,0:0:0:0:
196,308,108575,1,0,0:0:0:0:
120,308,108682,2,0,B|96:308|96:308|72:336|72:336|36:336|36:336|12:308|12:308|12:264,1,150.000005722046,8|0,0:0|0:0,0:0:0:0:
16,140,109110,1,0,0:0:0:0:
48,72,109218,1,0,0:0:0:0:
124,72,109325,1,0,0:0:0:0:
160,216,109539,1,0,0:0:0:0:
192,148,109646,1,0,0:0:0:0:
268,148,109753,1,8,0:0:0:0:
304,84,109860,1,0,0:0:0:0:
380,84,109968,6,0,B|420:84|420:84|468:128|468:128|468:200,1,150.000005722046
468,248,110289,1,0,0:0:0:0:
468,324,110396,2,0,B|468:344|468:344|432:376|432:376|404:376|404:376|376:352|376:352|356:352,1,150.000005722046,8|0,0:0|0:0,0:0:0:0:
284,352,110718,1,0,0:0:0:0:
208,352,110825,2,0,B|180:352|180:352|156:328|156:328|156:288|156:288|184:268|184:268|220:268,1,150.000005722046,0|8,0:0|0:0,0:0:0:0:
348,268,111253,1,0,0:0:0:0:
404,220,111360,1,0,0:0:0:0:
404,144,111468,1,8,0:0:0:0:
368,80,111575,1,0,0:0:0:0:
312,32,111682,6,0,B|292:16|292:16|260:16|260:16|224:52|224:52|168:52,1,150.000005722046
108,52,112003,1,0,0:0:0:0:
52,100,112110,2,0,B|20:124|20:124|20:176|20:176|48:192|48:192|48:240,1,150.000005722046,8|0,0:0|0:0,0:0:0:0:
44,292,112432,1,0,0:0:0:0:
96,344,112539,2,0,B|112:360|112:360|148:360|148:360|164:320|164:320|212:320,1,150.000005722046
364,320,112968,1,0,0:0:0:0:
420,272,113075,1,0,0:0:0:0:
420,196,113182,1,0,0:0:0:0:
260,220,113396,5,4,0:0:0:0:
204,304,113610,1,0,0:0:0:0:
168,268,113718,1,0,0:0:0:0:
132,232,113825,1,8,0:0:0:0:
196,156,114039,1,0,0:0:0:0:
100,132,114253,1,0,0:0:0:0:
132,96,114360,1,0,0:0:0:0:
164,60,114468,2,0,B|192:28|192:28|252:28,1,100,8|0,0:0|0:0,0:0:0:0:
300,32,114789,1,0,0:0:0:0:
332,72,114896,1,8,0:0:0:0:
364,112,115003,1,0,0:0:0:0:
396,152,115110,5,0,0:0:0:0:
444,240,115325,2,0,L|424:300,1,50
392,252,115539,2,0,L|312:340,1,100,8|0,0:0|0:0,0:0:0:0:
340,228,115968,2,0,L|236:288,1,100,0|0,0:0|0:0,0:0:0:0:
212,304,116289,1,0,0:0:0:0:
168,328,116396,1,0,0:0:0:0:
180,228,116610,1,8,0:0:0:0:
84,256,116825,5,0,0:0:0:0:
108,160,117039,1,0,0:0:0:0:
156,140,117146,1,0,0:0:0:0:
204,120,117253,1,8,0:0:0:0:
144,40,117468,1,0,0:0:0:0:
244,32,117682,1,0,0:0:0:0:
308,108,117896,2,0,L|268:172,1,50,8|0,0:0|0:0,0:0:0:0:
256,192,118110,1,0,0:0:0:0:
328,260,118325,1,8,0:0:0:0:
228,264,118539,5,0,0:0:0:0:
288,344,118753,1,0,0:0:0:0:
240,356,118860,1,0,0:0:0:0:
192,368,118968,1,8,0:0:0:0:
144,280,119182,1,0,0:0:0:0:
76,352,119396,1,0,0:0:0:0:
52,308,119503,1,0,0:0:0:0:
28,264,119610,2,0,B|28:232|28:232|64:212|64:212|64:184|64:184,1,100,8|0,0:0|0:0,0:0:0:0:
64,136,119932,1,0,0:0:0:0:
108,112,120039,1,8,0:0:0:0:
224,112,120253,5,4,0:0:0:0:
352,32,120468,1,0,0:0:0:0:
412,76,120575,1,0,0:0:0:0:
412,152,120682,1,8,0:0:0:0:
284,228,120896,1,0,0:0:0:0:
412,304,121110,1,0,0:0:0:0:
356,356,121218,1,0,0:0:0:0:
280,356,121325,2,0,B|216:356|216:356|188:304|188:304|132:304,1,150.000005722046,8|0,0:0|0:0,0:0:0:0:
88,308,121646,1,0,0:0:0:0:
44,248,121753,1,8,0:0:0:0:
44,172,121860,1,0,0:0:0:0:
4,108,121968,5,0,0:0:0:0:
132,28,122182,1,0,0:0:0:0:
208,28,122289,1,0,0:0:0:0:
248,92,122396,2,0,B|288:152|288:152|344:152|344:152|372:180,1,150.000005722046,8|0,0:0|0:0,0:0:0:0:
456,284,122825,1,0,0:0:0:0:
332,364,123039,1,0,0:0:0:0:
276,224,123253,1,0,0:0:0:0:
200,224,123360,1,0,0:0:0:0:
172,292,123468,1,8,0:0:0:0:
96,292,123575,1,0,0:0:0:0:
52,232,123682,6,0,B|20:188|20:188|20:148|20:148|76:116,1,150.000005722046
136,84,124003,1,0,0:0:0:0:
212,84,124110,1,8,0:0:0:0:
320,188,124325,1,0,0:0:0:0:
348,40,124539,1,0,0:0:0:0:
416,68,124646,1,0,0:0:0:0:
448,136,124753,2,0,B|464:176|464:176|464:216|464:216|420:248|420:248|420:280,1,150.000005722046,0|0,0:0|0:0,0:0:0:0:
420,336,125075,1,0,0:0:0:0:
352,368,125182,1,8,0:0:0:0:
284,340,125289,1,0,0:0:0:0:
284,264,125396,6,0,B|284:244|284:244|316:220|316:220|316:184|316:184|292:148|292:148|260:148,1,150.000005722046
204,148,125718,1,0,0:0:0:0:
148,200,125825,1,8,0:0:0:0:
284,264,126039,1,0,0:0:0:0:
164,352,126253,1,0,0:0:0:0:
88,352,126360,1,0,0:0:0:0:
40,292,126468,2,0,B|12:256|12:256|12:232|12:232|32:212|32:212|32:192|32:192|48:172|48:172|68:172,1,150.000005722046,8|0,0:0|0:0,0:0:0:0:
128,172,126789,1,0,0:0:0:0:
180,116,126896,1,8,0:0:0:0:
228,56,127003,1,0,0:0:0:0:
304,56,127110,5,4,0:0:0:0:
408,108,127325,1,0,0:0:0:0:
348,188,127539,1,0,0:0:0:0:
408,24,127753,1,0,0:0:0:0:
448,200,127968,1,8,0:0:0:0:
280,140,128182,1,0,0:0:0:0:
360,296,128396,1,0,0:0:0:0:
268,252,128610,1,8,0:0:0:0:
68,132,128825,5,0,0:0:0:0:
160,96,129039,1,8,0:0:0:0:
68,132,129253,1,0,0:0:0:0:
124,212,129468,1,0,0:0:0:0:
88,304,129682,1,8,0:0:0:0:
180,264,129896,2,0,L|248:228,1,50
264,140,130110,2,0,L|196:176,1,50
292,208,130325,1,8,0:0:0:0:
480,344,130539,5,0,0:0:0:0:
436,252,130753,1,0,0:0:0:0:
288,348,130968,1,0,0:0:0:0:
296,248,131182,1,0,0:0:0:0:
300,200,131289,2,0,L|304:112,1,50,0|8,0:0|0:0,0:0:0:0:
136,256,131610,1,0,0:0:0:0:
176,164,131825,1,0,0:0:0:0:
196,120,131932,2,0,L|228:56,1,50,0|8,0:0|0:0,0:0:0:0:
432,76,132253,5,0,0:0:0:0:
304,152,132468,1,8,0:0:0:0:
432,232,132682,1,0,0:0:0:0:
316,324,132896,1,0,0:0:0:0:
168,292,133110,2,0,L|204:224,1,50,8|0,0:0|0:0,0:0:0:0:
100,224,133325,2,0,L|148:192,1,50
80,124,133539,2,0,L|144:124,1,50
120,32,133753,1,8,0:0:0:0:
384,80,133968,5,0,0:0:0:0:
236,80,134182,1,8,0:0:0:0:
276,172,134396,1,0,0:0:0:0:
176,172,134610,1,0,0:0:0:0:
300,252,134825,1,8,0:0:0:0:
152,252,135039,1,0,0:0:0:0:
184,348,135253,1,0,0:0:0:0:
136,348,135360,1,0,0:0:0:0:
84,348,135468,1,0,0:0:0:0:
72,144,135682,5,0,0:0:0:0:
156,200,135896,1,8,0:0:0:0:
172,100,136110,1,0,0:0:0:0:
156,200,136325,1,0,0:0:0:0:
248,164,136539,1,8,0:0:0:0:
244,264,136753,2,0,L|316:316,1,50
340,236,136968,2,0,L|396:276,1,50
360,340,137182,1,8,0:0:0:0:
156,360,137396,5,0,0:0:0:0:
76,300,137610,1,8,0:0:0:0:
168,264,137825,1,0,0:0:0:0:
24,244,138039,1,0,0:0:0:0:
164,184,138253,1,8,0:0:0:0:
20,168,138468,1,0,0:0:0:0:
112,132,138682,1,0,0:0:0:0:
104,232,138896,1,8,0:0:0:0:
256,60,139110,5,0,0:0:0:0:
384,272,139325,1,8,0:0:0:0:
128,272,139539,1,0,0:0:0:0:
256,188,139753,1,0,0:0:0:0:
168,156,139968,5,0,0:0:0:0:
168,156,140075,1,0,0:0:0:0:
220,108,140182,1,0,0:0:0:0:
220,108,140289,1,0,0:0:0:0:
292,108,140396,1,0,0:0:0:0:
292,108,140503,1,0,0:0:0:0:
344,156,140610,1,0,0:0:0:0:
344,156,140718,1,0,0:0:0:0:
256,188,140825,5,4,0:0:0:0:
312,272,141039,1,0,0:0:0:0:
268,292,141146,1,0,0:0:0:0:
220,312,141253,1,0,0:0:0:0:
120,312,141468,2,0,B|66:297|66:297|53:251|53:251,1,100,2|0,0:0|0:0,0:0:0:0:
44,204,141789,1,0,0:0:0:0:
64,160,141896,1,0,0:0:0:0:
148,216,142111,2,0,B|177:164|177:164|223:148,1,100,2|0,0:0|0:0,0:0:0:0:
312,128,142539,1,2,0:0:0:0:
256,212,142753,1,0,0:0:0:0:
352,188,142968,5,2,0:0:0:0:
308,276,143182,1,0,0:0:0:0:
356,264,143289,1,0,0:0:0:0:
404,252,143396,1,0,0:0:0:0:
364,344,143610,1,2,0:0:0:0:
460,312,143825,1,0,0:0:0:0:
472,264,143932,1,0,0:0:0:0:
484,216,144039,1,0,0:0:0:0:
416,144,144253,1,2,0:0:0:0:
484,72,144468,1,0,0:0:0:0:
444,44,144575,1,0,0:0:0:0:
396,44,144682,2,0,B|352:44|352:44|303:91,1,100,0|2,0:0|0:0,0:0:0:0:
344,176,145111,1,0,0:0:0:0:
296,196,145218,1,0,0:0:0:0:
248,216,145325,2,0,B|224:228|224:228|224:272|224:272|168:304,1,100,0|2,0:0|0:0,0:0:0:0:
152,308,145646,1,0,0:0:0:0:
104,308,145753,1,0,0:0:0:0:
148,220,145968,5,2,0:0:0:0:
48,224,146182,1,0,0:0:0:0:
20,184,146289,1,0,0:0:0:0:
20,136,146396,1,0,0:0:0:0:
120,152,146610,1,2,0:0:0:0:
108,52,146825,1,0,0:0:0:0:
156,52,146932,1,0,0:0:0:0:
192,88,147039,1,0,0:0:0:0:
252,168,147253,2,0,L|288:216,1,50,2|0,0:0|0:0,0:0:0:0:
236,224,147468,2,0,L|312:328,1,100,0|2,0:0|0:0,0:0:0:0:
336,212,147896,5,0,0:0:0:0:
368,252,148003,1,0,0:0:0:0:
396,292,148110,1,0,0:0:0:0:
432,196,148325,1,2,0:0:0:0:
392,104,148539,1,0,0:0:0:0:
440,120,148646,1,0,0:0:0:0:
488,136,148753,1,0,0:0:0:0:
468,40,148968,1,2,0:0:0:0:
368,28,149182,1,0,0:0:0:0:
284,84,149396,1,2,0:0:0:0:
244,112,149503,1,0,0:0:0:0:
204,140,149610,1,0,0:0:0:0:
296,176,149825,5,2,0:0:0:0:
340,268,150039,1,0,0:0:0:0:
292,280,150146,1,0,0:0:0:0:
244,292,150253,1,0,0:0:0:0:
172,364,150468,2,0,B|126:338|126:338|116:276,1,100,2|0,0:0|0:0,0:0:0:0:
108,240,150789,1,0,0:0:0:0:
100,192,150896,1,0,0:0:0:0:
256,192,151110,12,2,152825,0:0:0:0:
136,88,153253,5,0,0:0:0:0:
376,88,153468,1,2,0:0:0:0:
260,256,153682,1,0,0:0:0:0:
104,168,153896,1,0,0:0:0:0:
176,324,154110,1,2,0:0:0:0:
256,344,154218,1,0,0:0:0:0:
336,324,154325,1,0,0:0:0:0:
408,168,154539,1,4,0:0:0:0:
