osu file format v5

[General]
AudioFilename: The Prodigy - Colours.mp3
AudioLeadIn: 0
PreviewTime: -1
Countdown: 0
SampleSet: Normal
StackLeniency: 0.7
Mode: 0
LetterboxInBreaks: 1
EditorBookmarks: 1764,14825,18091,27887,31152,37683,50744,54009,57274,60540,63805,70336,73601,83397,86662,93193,106254,109519,112785,116050,119315,135642,145438,151968,165029,178091,191152,197683,204213

[Metadata]
Title:Colours
Artist:The Prodigy
Creator:CheZDa
Version:Normal
Source:
Tags:

[Difficulty]
HPDrainRate:5
CircleSize:4
OverallDifficulty:5
SliderMultiplier:1.2
SliderTickRate:1

[Events]
//Background and Video events
0,0,"prodigy.jpg"
//Break Periods
2,31352,36687
2,54209,56374
2,86862,92198
2,131658,134442
2,151760,163979
//Storyboard Layer 0 (Background)
//Storyboard Layer 1 (Failing)
//Storyboard Layer 2 (Passing)
//Storyboard Layer 3 (Foreground)
//Storyboard Sound Samples
//Background Colour Transformations
3,100,255,255,255

[TimingPoints]
132,408.163265306122,4,1,0,69,1
8295,-100,4,2,0,71,0
14825,-100,4,1,0,71,0
145438,-100,4,2,0,78,0
171560,-100,4,1,0,78,0

[Colours]
Combo1 : 255,172,60
Combo2 : 244,0,6
Combo3 : 165,22,143
Combo4 : 108,123,255
Combo5 : 182,244,113

[HitObjects]
256,304,1764,1,4
168,304,2070,1,0
168,216,2376,1,0
168,152,2580,2,0,B|216:88|272:160,1,120
368,216,3397,5,0
456,216,3703,1,0
456,128,4009,1,0
456,64,4213,2,0,B|408:0|352:72,1,120
240,64,5029,5,0
152,64,5336,1,0
152,152,5642,1,8
152,208,5846,1,0
152,296,6152,1,0
240,296,6458,1,0
296,296,6662,5,0
296,208,6968,1,0
384,208,7274,1,8
440,208,7478,2,2,B|520:208|504:128,1,120,2|10
384,133,8295,5,0
384,224,8601,1,0
384,312,8907,1,8
320,312,9111,2,0,B|272:368|209:306,1,120,0|8
96,312,9927,5,0
96,224,10233,1,0
184,224,10539,1,8
240,224,10743,2,0,B|320:176|228:129,1,120,0|8
184,136,11356,1,0
120,136,11560,5,0
120,48,11866,1,0
32,48,12172,1,8
32,104,12376,2,0,B|32:232,1,120,0|8
32,344,13193,5,0
120,344,13499,1,0
192,288,13805,1,8
192,224,14009,2,0,B|192:96,1,120,0|8
280,104,15234,1,8
320,144,15438,1,8
280,256,15846,5,0
320,296,16050,1,8
440,216,16866,1,8
480,176,17070,1,8
360,176,17478,5,0
320,216,17683,1,8
200,216,18091,5,0
200,128,18397,1,0
200,40,18703,1,8
136,40,18907,1,0
56,128,19315,1,8
56,248,19723,5,0
56,336,20029,1,0
144,336,20335,1,8
100,292,20539,1,0
220,292,20948,1,0
339,292,21356,6,4,B|340:176,1,90,4|0
432,200,21968,1,0
432,136,22172,1,0
312,136,22580,1,8
312,16,22989,5,0
224,16,23295,1,0
136,16,23601,1,8
136,72,23805,6,0,B|80:120|152:152,1,90
208,200,24519,5,0
208,200,24621,1,8
208,288,24927,1,0
296,288,25234,5,8
352,288,25438,2,0,B|464:288,1,90
440,136,26254,5,0
352,136,26560,1,0
352,48,26866,1,8
288,48,27070,2,0,B|184:48,1,90
136,48,27580,1,0
96,232,28296,5,8
136,272,28500,1,8
256,272,28908,1,0
296,232,29112,1,8
376,112,29928,5,8
416,72,30132,1,8
416,192,30540,1,0
376,232,30745,1,8
256,232,31152,5,4
432,192,37887,5,0
432,128,38091,1,8
344,128,38397,1,0
256,128,38703,1,0
256,192,38907,1,8
136,192,39315,1,0
72,192,39519,1,0
72,248,39723,1,8
72,336,40029,1,0
72,248,40336,5,0
136,248,40540,1,8
136,128,40948,1,0
136,64,41152,1,0
192,64,41356,1,8
280,64,41662,1,0
192,64,41968,1,0
192,128,42172,1,8
192,248,42580,5,0
192,304,42785,1,0
248,304,42989,1,0
304,304,43193,1,8
304,304,43295,1,0
392,304,43601,1,0
392,240,43805,1,8
392,120,44213,5,4
392,56,44417,1,0
328,56,44621,1,8
240,56,44927,1,0
328,56,45234,1,0
328,120,45438,1,8
328,240,45846,5,0
264,240,46050,1,0
264,176,46254,1,8
176,176,46560,1,0
264,176,46866,1,0
264,112,47070,1,8
264,240,47478,1,0
264,296,47683,1,0
200,296,47887,1,8
112,296,48193,5,0
112,208,48499,1,0
112,144,48703,1,8
240,144,49111,1,0
240,80,49315,1,0
240,16,49519,1,0
152,16,49825,1,0
64,16,50132,1,0
64,72,50336,5,8
64,192,50744,1,0
184,192,51152,2,0,B|184:256,1,60
244,252,51560,2,0,B|244:188,1,60,0|0
304,192,51968,2,0,B|304:256,1,60
364,252,52376,2,0,B|364:188,1,60,0|0
364,131,52785,1,2
364,71,52989,1,2
304,71,53193,1,2
184,72,53601,5,4
120,72,53805,5,4
120,128,54009,5,4
448,64,57274,5,0
408,104,57478,1,0
368,64,57683,1,0
328,104,57887,1,0
368,144,58091,1,0
328,184,58295,1,0
368,224,58499,6,0,L|328:272|288:224|240:272,1,180
208,224,59315,1,0
168,264,59519,1,0
128,224,59723,1,0
168,184,59927,1,0
128,136,60132,1,0
248,136,60540,6,0,B|248:88,4,30
304,136,61152,1,0
360,136,61356,2,0,B|456:136,1,90
450,285,62172,6,0,B|450:333,4,30
394,285,62784,1,0
338,285,62988,2,0,B|242:285,1,90
160,288,63601,1,0
96,288,63805,1,0
96,200,64111,5,0
96,112,64417,1,0
152,112,64621,2,0,B|240:112|240:112|264:128|248:152,1,120
256,256,65438,5,0
344,256,65744,1,0
432,256,66050,1,0
432,192,66254,2,0,B|432:104|432:104|416:80|392:96,1,120
288,88,67070,5,0
192,88,67376,1,0
192,176,67683,1,0
248,176,67887,2,0,B|248:264|248:264|232:288|208:272,1,120
104,280,68703,5,0
16,280,69009,1,0
16,192,69315,1,0
72,192,69519,2,0,B|160:192|160:192|184:176|168:152,1,120
304,120,70745,1,8
264,160,70949,1,8
264,280,71357,1,0
224,320,71561,1,8
104,240,72377,5,8
64,200,72581,1,8
64,80,72989,1,0
104,40,73194,1,8
224,40,73601,5,0
312,40,73907,1,0
312,128,74213,1,8
368,128,74417,1,0
456,128,74723,1,0
456,128,74825,1,8
456,248,75233,5,0
368,248,75539,1,0
280,248,75845,1,8
280,184,76049,1,0
280,64,76458,1,0
160,64,76866,6,4,B|104:64|104:128,1,90,4|0
104,208,77478,1,0
104,264,77682,1,0
192,264,77988,1,0
344,264,78499,5,0
344,176,78805,1,0
256,176,79111,1,8
192,176,79315,2,0,B|192:280,1,90,0|0
312,264,80029,5,0
312,264,80131,1,8
400,264,80437,1,0
488,264,80744,1,8
488,200,80948,2,0,B|488:104,1,90
336,112,81764,5,0
336,24,82070,1,0
248,24,82376,1,8
248,80,82580,2,0,B|152:80,1,90
64,80,83193,1,0
64,256,83805,5,8
104,296,84010,1,8
224,296,84418,1,0
264,336,84622,1,8
240,96,85438,5,8
280,136,85642,1,8
400,136,86050,1,0
440,176,86255,1,8
440,296,86662,5,4
112,320,93398,5,0
168,320,93602,1,8
168,232,93908,1,0
168,320,94214,1,0
224,320,94418,1,8
344,320,94826,1,0
400,320,95030,1,0
456,320,95234,1,8
456,232,95540,1,0
456,144,95847,5,0
392,144,96051,1,8
272,144,96459,1,0
208,144,96663,1,0
144,144,96867,1,8
144,232,97173,1,0
144,144,97479,1,0
80,144,97683,1,8
80,24,98091,5,0
136,24,98296,1,0
192,24,98500,1,0
248,24,98704,1,8
248,24,98806,1,0
248,112,99112,1,0
248,24,99417,1,0
336,24,99724,5,4
392,24,99928,1,0
392,80,100132,1,8
480,80,100438,1,0
392,80,100745,1,0
392,136,100949,1,8
392,256,101356,5,0
328,256,101560,1,0
328,192,101764,1,8
240,192,102070,1,0
328,192,102376,1,0
328,128,102580,1,8
208,128,102989,5,0
144,128,103193,1,0
144,184,103397,1,8
56,184,103703,1,0
144,184,104009,1,0
144,240,104213,1,8
264,240,104621,5,0
264,296,104825,1,0
320,296,105029,1,8
376,296,105234,1,8
376,296,105336,1,0
376,208,105642,1,0
376,144,105846,1,8
304,64,106254,5,0
264,104,106458,1,0
224,64,106663,1,0
184,104,106867,1,0
144,64,107071,1,0
112,112,107275,1,0
72,160,107479,6,0,L|112:208|152:160|200:208,1,180
152,240,108295,1,0
192,280,108499,1,0
232,240,108703,1,0
272,280,108907,1,0
312,320,109112,1,0
392,232,109519,6,0,B|440:232,4,30
392,176,110131,1,0
392,120,110335,2,0,B|392:24,1,90
242,28,111151,6,0,B|194:28,4,30
242,84,111763,1,0
242,140,111967,2,0,B|242:236,1,90
184,232,112478,1,0
392,232,113194,5,8
352,192,113398,1,8
352,72,113806,1,0
312,32,114010,1,8
72,32,114826,5,8
32,72,115030,1,8
32,192,115438,1,0
72,232,115643,1,8
192,232,116050,5,0
192,320,116356,1,0
280,320,116662,1,0
336,320,116866,1,0
424,320,117172,1,0
424,232,117478,1,0
360,232,117683,1,0
360,144,117989,1,0
360,232,118295,1,0
296,232,118499,2,0,B|176:232,1,90
208,232,118907,1,0
80,232,119315,6,0,B|8:232,2,60
120,192,119927,1,0
80,152,120131,2,0,B|8:152,2,60
120,112,120744,1,0
80,72,120948,2,0,B|16:72,2,60
160,72,121764,1,2
240,72,122172,1,2
360,72,122580,6,0,B|432:72,2,60
320,112,123192,1,0
360,152,123396,2,0,B|432:152,2,60
320,192,124009,1,0
360,232,124213,2,0,B|424:232,2,60
280,232,125029,1,2
200,232,125437,1,2
80,232,125846,6,0,B|80:152,2,60
128,200,126458,1,0
176,168,126662,2,0,B|176:104,2,60
224,136,127275,1,0
272,104,127479,2,0,B|272:40,2,60
312,144,128295,1,2
392,144,128703,1,2
312,184,129111,6,0,B|312:264,2,60
264,216,129723,1,0
216,248,129927,2,0,B|216:312,2,60
168,280,130540,1,0
120,312,130744,2,0,B|120:376,2,60
72,280,131356,1,0
72,280,131458,1,0
256,192,135642,12,4,143805
416,296,145438,5,0
416,176,145846,1,0
296,176,146254,1,0
296,296,146662,2,0,L|208:296,1,60
176,296,147070,1,0
56,296,147478,1,0
56,176,147887,1,0
176,176,148295,2,0,L|176:96,1,60
176,56,148703,5,0
296,56,149111,1,0
416,56,149519,1,0
416,176,149927,1,0
296,176,150336,2,4,B|288:120|224:120|217:192,1,120
224,296,151152,2,4,B|232:352|296:352|303:280,1,120
120,104,165029,5,0
120,192,165336,1,0
120,280,165642,1,0
176,280,165846,1,4
392,280,166662,5,0
392,192,166969,1,0
392,104,167275,1,0
336,104,167479,1,4
248,328,168295,5,0
184,264,168602,1,0
120,200,168908,1,0
160,160,169112,1,4
264,56,169927,5,0
328,120,170234,1,0
392,184,170540,1,0
352,224,170744,1,4
288,160,171050,1,0
208,240,171560,5,0
208,240,171764,1,0
208,240,171968,1,0
120,152,172376,1,0
120,152,172580,1,0
120,152,172785,1,0
208,72,173193,5,0
208,72,173397,1,0
208,72,173601,1,0
328,72,174009,1,0
328,72,174213,1,0
328,72,174417,1,0
408,152,174825,5,0
408,152,175029,1,0
408,152,175234,1,0
328,240,175642,1,0
328,240,175846,1,0
328,240,176050,1,0
208,240,176458,1,0
144,240,176662,2,0,B|144:176,4,60
80,240,177683,2,4,B|80:288,4,30
80,176,178295,5,0
80,112,178499,1,8
168,112,178805,1,0
80,112,179111,1,0
80,48,179315,1,8
200,48,179723,1,0
256,48,179927,1,0
312,48,180131,1,8
312,136,180437,1,0
312,48,180744,5,0
368,48,180948,1,8
368,168,181356,1,0
368,224,181560,1,0
368,280,181764,1,8
280,280,182070,1,0
368,280,182376,1,0
368,336,182580,1,8
248,336,182988,5,0
184,336,183193,1,0
120,336,183397,1,0
120,272,183601,1,8
120,152,184009,1,0
120,208,184213,1,0
208,208,184519,5,4
296,208,184825,1,0
296,144,185029,1,8
384,144,185335,1,0
296,144,185642,1,0
296,80,185846,1,12
176,80,186254,5,0
176,136,186458,1,0
176,192,186662,1,8
88,192,186968,1,0
176,192,187274,1,0
176,248,187478,1,8
296,248,187886,1,0
352,248,188091,1,0
408,248,188295,1,8
408,336,188601,5,0
408,248,188907,1,0
408,184,189111,1,8
408,64,189519,1,0
344,64,189723,1,0
280,64,189927,1,0
216,64,190131,1,8
216,184,190540,1,0
216,120,190744,5,8
152,304,191560,1,8
192,264,191764,1,8
312,264,192172,5,0
352,304,192376,1,8
352,64,193192,1,8
312,104,193396,1,8
192,104,193804,5,0
152,64,194009,1,8
256,192,194417,12,0,197274
360,80,198091,5,8
320,120,198295,1,8
200,120,198703,5,0
160,80,198907,1,8
160,320,199723,1,8
200,280,199927,1,8
320,280,200335,5,0
360,320,200540,1,8
256,192,200948,12,4,204213
