osu file format v13

[General]
AudioFilename: The Proclaimers - I'm Gonna Be.mp3
AudioLeadIn: 0
PreviewTime: 148483
Countdown: 0
SampleSet: Soft
StackLeniency: 0.7
Mode: 0
LetterboxInBreaks: 0
WidescreenStoryboard: 0

[Editor]
Bookmarks: 7246
DistanceSpacing: 1
BeatDivisor: 4
GridSize: 4
TimelineZoom: 1

[Metadata]
Title:I'm Gonna Be (500 Miles)
TitleUnicode:I'm Gonna Be (500 Miles)
Artist:The Proclaimers
ArtistUnicode:The Proclaimers
Creator:Inyuschan
Version:Normal
Source:
Tags:Sunshine on Leith how i met your mother himym
BeatmapID:515548
BeatmapSetID:220256

[Difficulty]
HPDrainRate:4
CircleSize:3
OverallDifficulty:4
ApproachRate:5
SliderMultiplier:1.3
SliderTickRate:1

[Events]
//Background and Video events
0,0,"BG.jpg",0,0
//Break Periods
2,109779,111561
//Storyboard Layer 0 (Background)
//Storyboard Layer 1 (Fail)
//Storyboard Layer 2 (Pass)
//Storyboard Layer 3 (Foreground)
//Storyboard Sound Samples
//Background Colour Transformations
3,100,0,0,0

[TimingPoints]
420,454.545454545455,4,2,0,50,1,0
36796,454.545454545455,4,2,0,60,1,1
51355,454.545454545455,4,2,0,50,1,0
65917,454.545454545455,4,2,0,50,1,0
80462,-100,4,2,0,60,0,1
95022,454.545454545455,4,2,0,60,1,0
105943,454.545454545455,4,2,0,50,1,0
120505,454.545454545455,4,2,0,50,1,0
145074,454.545454545455,4,3,0,50,1,0
146892,-100,4,2,0,30,0,0
147346,-100,4,2,0,40,0,0
147801,-100,4,2,0,50,0,0
148700,454.545454545455,4,2,0,60,1,1
163264,454.545454545455,4,2,0,60,1,0
166907,454.545454545455,4,2,0,50,1,0
177828,454.545454545455,4,2,0,50,1,0
199650,454.545454545455,4,2,0,50,1,0
207377,-100,4,2,0,45,0,0
207831,-100,4,2,0,40,0,0
208740,-100,4,2,0,35,0,0
209650,-100,4,2,0,30,0,0
210559,-100,4,2,0,25,0,0
211013,-100,4,2,0,20,0,0
211468,-100,4,2,0,15,0,0
212377,-100,4,2,0,10,0,0
212831,-100,4,2,0,5,0,0

[Colours]
Combo1 : 202,185,159
Combo2 : 174,204,134
Combo3 : 244,217,159
Combo4 : 215,217,208

[HitObjects]
424,192,7238,6,0,L|384:260,1,65,2|0,0:0|0:0,0:0:0:0:
352,300,7692,2,0,P|304:332|224:332,1,130,0|2,0:0|0:0,0:0:0:0:
128,260,8601,1,0,0:0:0:0:
128,124,9056,2,0,L|192:72,1,65,2|0,0:0|0:0,0:0:0:0:
236,56,9510,2,0,P|292:56|364:96,1,130,0|2,0:0|0:0,0:0:0:0:
436,192,10420,1,0,0:0:0:0:
356,294,10874,1,2,0:0:0:0:
300,328,11101,1,0,0:0:0:0:
236,328,11329,6,0,B|168:328|168:328|112:288,1,130,0|2,0:0|0:0,0:0:0:0:
92,164,12238,2,0,B|92:100|92:100|148:48,1,130,0|2,0:0|0:0,0:0:0:0:
256,112,13147,1,0,0:0:0:0:
371,55,13601,2,0,B|420:100|420:100|420:164,2,130,2|0|2,0:0|0:0|0:0,0:0:0:0:
236,32,14965,6,0,P|200:32|120:96,1,130,0|2,0:0|0:0,0:0:0:0:
56,192,15874,2,0,L|148:292,1,130,0|2,0:0|0:0,0:0:0:0:
192,332,16556,1,0,0:0:0:0:
252,360,16783,2,0,P|320:360|380:308,1,130,0|2,0:0|0:0,0:0:0:0:
404,200,17692,2,0,P|336:200|276:252,1,130,0|2,0:0|0:0,0:0:0:0:
168,284,18601,6,0,L|96:160,1,130,0|2,0:0|0:0,0:0:0:0:
72,44,19510,2,0,P|132:44|196:104,1,130,0|2,0:0|0:0,0:0:0:0:
256,196,20420,1,0,0:0:0:0:
325,84,20874,2,0,P|376:45|440:44,2,130,2|0|2,0:0|0:0|0:0,0:0:0:0:
256,196,22238,6,0,L|200:252,1,65
168,292,22692,2,0,P|100:292|48:240,1,130,8|0,0:0|0:0,0:0:0:0:
32,124,23601,2,0,P|100:124|152:176,1,130,2|0,0:0|0:0,0:0:0:0:
224,268,24510,1,8,0:0:0:0:
340,324,24965,2,0,P|384:324|452:260,1,130,0|2,0:0|0:0,0:0:0:0:
444,208,25647,1,0,0:0:0:0:
432,144,25874,6,0,P|388:100|320:100,1,130,0|8,0:0|0:0,0:0:0:0:
188,98,26783,2,0,P|125:99|80:144,2,130,0|2|0,0:0|0:0|0:0,0:0:0:0:
284,188,28147,2,0,L|384:280,2,130,8|0|2,0:0|0:0|0:0,0:0:0:0:
208,80,29510,6,0,P|164:136|164:200,1,130,0|8,0:0|0:0,0:0:0:0:
256,284,30420,1,0,0:0:0:0:
372,344,30874,1,2,0:0:0:0:
488,284,31329,2,0,B|488:220|488:220|456:156,1,130,0|8,0:0|0:0,0:0:0:0:
356,84,32238,2,0,B|288:84|288:84|220:124,1,130,0|2,0:0|0:0,0:0:0:0:
192,164,32920,1,0,0:0:0:0:
144,204,33147,6,0,L|48:304,2,130,0|8|0,0:0|0:0|0:0,0:0:0:0:
256,140,34510,1,2,0:0:0:0:
368,204,34965,2,0,L|464:304,2,130,0|8|0,0:0|0:0|0:0,0:0:0:0:
276,122,36329,2,0,P|252:158|248:194,1,65,2|0,0:0|0:0,0:0:0:0:
256,244,36796,6,0,P|256:284|188:348,1,130,4|8,0:0|0:0,0:0:0:0:
84,272,37705,2,0,P|72:208|112:144,1,130,2|8,0:0|0:0,0:0:0:0:
192,60,38614,1,2,0:0:0:0:
320,60,39068,1,8,0:0:0:0:
410,152,39523,2,0,P|440:209|428:272,1,130,2|8,0:0|0:0,0:0:0:0:
368,296,40205,1,0,0:0:0:0:
308,316,40432,6,0,L|168:340,2,130,2|8|2,0:0|0:0|0:0,0:0:0:0:
408,232,41796,2,0,P|416:208|416:160,1,65,8|0,0:0|0:0,0:0:0:0:
384,112,42250,2,0,P|328:76|252:88,1,130,2|8,0:0|0:0,0:0:0:0:
224,204,43159,2,0,P|168:240|92:228,1,130,2|8,0:0|0:0,0:0:0:0:
68,180,43841,1,0,0:0:0:0:
44,120,44068,5,2,0:0:0:0:
144,40,44523,1,8,0:0:0:0:
256,104,44977,1,2,0:0:0:0:
368,40,45432,1,8,0:0:0:0:
468,120,45886,2,0,P|496:184|496:248,1,130,2|8,0:0|0:0,0:0:0:0:
432,356,46796,2,0,P|392:356|316:296,1,130,2|8,0:0|0:0,0:0:0:0:
256,292,47477,1,0,0:0:0:0:
191,305,47705,6,0,P|143:348|80:356,1,130,2|8,0:0|0:0,0:0:0:0:
24,236,48614,2,0,P|71:193|135:185,1,130,2|8,0:0|0:0,0:0:0:0:
256,236,49523,2,0,P|319:228|367:185,2,130,2|8|2,0:0|0:0|0:0,0:0:0:0:
132,196,50886,2,0,P|120:176|120:124,1,65,8|8,0:0|3:0,0:0:0:0:
160,88,51355,6,0,P|196:48|280:48,2,130,4|8|0,0:0|0:0|0:0,0:0:0:0:
180,216,52718,2,0,L|224:272,1,65,8|0,0:0|0:0,0:0:0:0:
272,304,53173,2,0,B|340:304|340:304|404:256,2,130,0|8|0,0:0|0:0|0:0,0:0:0:0:
204,192,54536,1,8,0:0:0:0:
272,80,54991,6,0,B|340:80|340:80|404:128,1,130,0|8,0:0|0:0,0:0:0:0:
428,240,55900,2,0,L|388:296,1,65
340,336,56355,1,8,0:0:0:0:
218,306,56809,1,0,0:0:0:0:
156,192,57264,1,8,0:0:0:0:
218,77,57718,2,0,P|275:48|340:48,1,130,0|8,0:0|0:0,0:0:0:0:
384,96,58400,1,0,0:0:0:0:
432,140,58627,6,0,P|456:196|424:280,2,130,0|8|0,0:0|0:0|0:0,0:0:0:0:
324,68,59991,2,0,L|256:68,1,65,8|0,0:0|0:0,0:0:0:0:
196,80,60445,2,0,P|144:100|96:184,1,130,0|8,0:0|0:0,0:0:0:0:
76,288,61355,2,0,P|152:288|204:240,1,130,0|8,0:0|0:0,0:0:0:0:
256,236,62036,1,0,0:0:0:0:
318,257,62264,6,0,P|372:292|436:288,2,130,0|8|0,0:0|0:0|0:0,0:0:0:0:
220,172,63627,1,8,0:0:0:0:
144,68,64082,2,0,P|192:40|272:56,1,130,0|8,0:0|0:0,0:0:0:0:
372,120,64991,2,0,P|412:180|400:252,1,130,0|8,0:0|0:0,0:0:0:0:
360,276,65673,1,0,0:0:0:0:
304,312,65917,6,0,B|236:352|236:352|240:216|100:208,1,260,4|0,0:0|0:0,0:0:0:0:
32,148,67280,1,8,0:0:0:0:
144,80,67735,1,0,0:0:0:0:
256,12,68189,1,8,0:0:0:0:
368,80,68644,1,0,0:0:0:0:
480,148,69098,2,0,L|480:220,1,65,8|0,0:0|0:0,0:0:0:0:
476,280,69553,6,0,P|420:320|348:320,1,130,0|8,0:0|0:0,0:0:0:0:
256,244,70462,1,0,0:0:0:0:
151,323,70917,2,0,P|87:318|36:280,1,130,8|0,0:0|0:0,0:0:0:0:
40,148,71826,1,8,0:0:0:0:
151,84,72280,1,0,0:0:0:0:
256,164,72735,1,8,0:0:0:0:
361,84,73189,6,0,P|493:190|353:298,1,390,0|8,0:0|0:0,0:0:0:0:
256,224,75007,2,0,P|208:224|144:280,2,130,0|8|0,0:0|0:0|0:0,0:0:0:0:
360,300,76371,2,0,L|412:236,1,65,8|0,0:0|0:0,0:0:0:0:
452,208,76826,6,0,P|472:148|432:80,1,130,0|8,0:0|0:0,0:0:0:0:
324,40,77735,1,0,0:0:0:0:
188,40,78189,1,8,0:0:0:0:
66,90,78644,2,0,P|40:147|60:208,1,130,0|8,0:0|0:0,0:0:0:0:
188,240,79553,1,0,0:0:0:0:
324,240,80007,2,0,L|388:184,1,65,8|0,3:0|0:0,0:0:0:0:
420,152,80462,6,0,P|424:104|364:44,2,130,4|8|2,0:0|0:0|0:0,0:0:0:0:
344,256,81826,1,8,0:0:0:0:
256,352,82280,2,0,P|188:352|132:304,1,130,2|8,0:0|0:0,0:0:0:0:
104,192,83189,1,2,0:0:0:0:
139,67,83644,2,0,P|168:48|216:48,1,65,8|0,0:0|0:0,0:0:0:0:
256,72,84098,6,0,L|376:128,1,130,2|8,0:0|0:0,0:0:0:0:
484,192,85007,1,2,0:0:0:0:
373,257,85462,1,8,0:0:0:0:
255,312,85917,1,2,0:0:0:0:
128,340,86371,2,0,B|80:288|80:288|80:200,2,130,8|2|8,0:0|0:0|0:0,0:0:0:0:
256,324,87735,5,2,0:0:0:0:
368,260,88189,1,8,0:0:0:0:
368,124,88644,1,2,0:0:0:0:
256,60,89098,1,8,0:0:0:0:
144,124,89553,2,0,P|80:160|52:228,2,130,2|8|2,0:0|0:0|0:0,0:0:0:0:
244,208,90917,2,0,L|308:256,1,65,8|0,0:0|0:0,0:0:0:0:
352,280,91371,6,0,P|396:280|472:228,2,130,2|8|2,0:0|0:0|0:0,0:0:0:0:
256,192,92735,1,8,0:0:0:0:
160,280,93189,2,0,P|116:280|40:228,2,130,2|8|2,0:0|0:0|0:0,0:0:0:0:
256,192,94553,1,8,0:0:0:0:
316,76,95022,6,0,P|448:192|316:291,1,390,4|8,0:0|0:0,0:0:0:0:
195,291,96840,2,0,P|63:183|196:76,1,390,2|8,0:0|0:0,0:0:0:0:
320,120,98658,6,0,B|352:120|388:52|388:52|388:136|476:192,2,260,2|2|2,0:0|0:0|0:0,0:0:0:0:
192,120,100931,2,0,B|160:120|124:52|124:52|124:136|36:192,1,260,8|8,0:0|0:0,0:0:0:0:
112,288,102294,6,0,B|216:288|256:178|256:178|296:288|400:288,1,390,2|8,0:0|0:0,0:0:0:0:
488,192,104112,1,2,0:0:0:0:
488,64,104567,2,0,P|408:64|368:116,1,130,8|2,0:0|0:0,0:0:0:0:
256,148,105476,1,8,0:0:0:0:
136,96,105943,6,0,P|86:56|24:64,2,130,2|8|2,0:0|0:0|0:0,0:0:0:0:
256,148,107306,1,8,0:0:0:0:
380,192,107761,2,0,B|304:192|256:328|256:328|208:192|128:192,1,390,2|8,0:0|0:0,0:0:0:0:
64,68,109579,5,4,0:0:0:0:
256,52,112761,6,0,L|184:52,2,65,2|0|0,0:0|0:0|0:0,0:0:0:0:
356,136,113670,2,0,P|384:192|344:256,1,130,8|0,0:0|0:0,0:0:0:0:
256,332,114579,1,2,0:0:0:0:
155,248,115033,2,0,P|127:192|156:136,1,130,0|8,0:0|0:0,0:0:0:0:
256,52,115943,1,0,0:0:0:0:
356,136,116397,2,0,L|396:212,1,65,2|0,0:0|0:0,0:0:0:0:
416,252,116852,6,0,L|312:344,1,130,0|8,0:0|0:0,0:0:0:0:
193,338,117761,2,0,L|96:252,2,130,0|2|0,0:0|0:0|0:0,0:0:0:0:
324,348,119124,2,0,P|368:348|416:320,1,65,8|0,0:0|0:0,0:0:0:0:
436,300,119579,2,0,P|484:248|468:168,1,130,0|2,0:0|0:0,0:0:0:0:
384,104,120505,5,0,0:0:0:0:
256,72,120959,1,8,0:0:0:0:
128,104,121414,1,0,0:0:0:0:
32,192,121868,2,0,P|72:232|148:232,1,130,2|0,0:0|0:0,0:0:0:0:
256,172,122777,1,8,0:0:0:0:
369,234,123232,2,0,P|433:234|480:192,1,130,0|2,0:0|0:0,0:0:0:0:
452,64,124141,6,0,P|388:63|341:106,1,130,0|8,0:0|0:0,0:0:0:0:
256,204,125050,2,0,P|192:204|145:161,1,130,0|2,0:0|0:0,0:0:0:0:
240,72,125959,2,0,P|193:29|129:29,2,130,0|8|0,0:0|0:0|0:0,0:0:0:0:
320,176,127323,1,2,0:0:0:0:
376,292,127777,5,0,0:0:0:0:
256,340,128232,1,8,0:0:0:0:
136,292,128686,1,0,0:0:0:0:
16,244,129141,1,8,0:0:0:0:
52,120,129595,2,0,P|96:64|160:64,1,130,0|8,0:0|0:0,0:0:0:0:
256,136,130505,1,0,0:0:0:0:
361,60,130959,6,0,P|423:68|460:120,1,130,8|0,0:0|0:0,0:0:0:0:
424,244,131868,1,8,0:0:0:0:
348,348,132323,2,0,L|208:288,1,130,0|8,0:0|0:0,0:0:0:0:
148,192,133232,1,0,0:0:0:0:
228,87,133686,2,0,L|348:36,2,130,8|0|8,0:0|0:0|0:0,0:0:0:0:
116,152,135050,6,0,B|160:224|240:208|240:208|324:304,1,260
432,336,136414,2,0,P|480:284|480:212,1,130,8|0,0:0|0:0,0:0:0:0:
496,96,137323,2,0,P|440:96|376:148,1,130,8|0,0:0|0:0,0:0:0:0:
256,168,138232,1,8,0:0:0:0:
130,138,138686,6,0,P|79:98|16:96,2,130,0|8|0,0:0|0:0|0:0,0:0:0:0:
208,244,140050,1,8,0:0:0:0:
288,344,140505,2,0,P|340:344|408:296,1,130,0|8,0:0|0:0,0:0:0:0:
436,176,141414,2,0,P|384:176|316:224,1,130,0|8,0:0|0:0,0:0:0:0:
256,332,142323,5,4,0:0:0:0:
36,192,143232,1,4,0:0:0:0:
256,192,143459,12,4,145074,3:0:0:0:
116,80,146892,5,2,0:0:0:0:
48,192,147346,1,2,0:0:0:0:
116,304,147801,1,2,0:0:0:0:
240,268,148255,2,0,P|264:232|268:196,1,65,8|0,3:0|0:0,0:0:0:0:
256,148,148700,6,0,P|256:108|324:44,1,130,4|8,0:0|0:0,0:0:0:0:
428,112,149609,2,0,P|440:176|400:240,1,130,2|8,0:0|0:0,0:0:0:0:
320,324,150518,1,2,0:0:0:0:
192,324,150972,1,8,0:0:0:0:
102,232,151427,2,0,P|72:175|84:112,1,130,2|8,0:0|0:0,0:0:0:0:
144,88,152109,1,0,0:0:0:0:
204,68,152336,6,0,L|344:44,2,130,2|8|2,0:0|0:0|0:0,0:0:0:0:
104,152,153700,2,0,P|96:176|96:224,1,65,8|0,0:0|0:0,0:0:0:0:
128,272,154154,2,0,P|184:308|260:296,1,130,2|8,0:0|0:0,0:0:0:0:
288,180,155063,2,0,P|344:144|420:156,1,130,2|8,0:0|0:0,0:0:0:0:
444,204,155745,1,0,0:0:0:0:
468,264,155972,5,2,0:0:0:0:
368,344,156427,1,8,0:0:0:0:
256,280,156881,1,2,0:0:0:0:
144,344,157336,1,8,0:0:0:0:
44,264,157790,2,0,P|16:200|16:136,1,130,2|8,0:0|0:0,0:0:0:0:
80,28,158700,2,0,P|120:28|196:88,1,130,2|8,0:0|0:0,0:0:0:0:
256,92,159381,1,0,0:0:0:0:
321,79,159609,6,0,P|369:36|432:28,1,130,2|8,0:0|0:0,0:0:0:0:
488,148,160518,2,0,P|441:191|377:199,1,130,2|8,0:0|0:0,0:0:0:0:
256,148,161427,2,0,P|193:156|145:199,2,130,2|8|2,0:0|0:0|0:0,0:0:0:0:
380,188,162790,2,0,P|392:208|392:260,1,65,8|8,0:0|3:0,0:0:0:0:
352,296,163264,6,0,P|316:336|232:336,1,130,4|8,0:0|0:0,0:0:0:0:
144,260,164173,1,2,0:0:0:0:
144,124,164627,1,8,0:0:0:0:
243,42,165082,2,0,P|306:43|352:88,2,130,2|8|2,0:0|0:0|0:0,0:0:0:0:
144,124,166445,1,8,0:0:0:0:
112,252,166907,6,0,B|216:252|256:362|256:362|296:252|400:252,1,390,2|8,0:0|0:0,0:0:0:0:
400,132,168725,2,0,B|296:132|256:22|256:22|216:132|112:132,1,390,2|8,0:0|0:0,0:0:0:0:
28,232,170543,6,0,L|136:316,1,130,4|8,0:0|0:0,0:0:0:0:
256,348,171452,1,2,0:0:0:0:
381,311,171907,2,0,L|484:232,2,130,8|2|8,0:0|0:0|0:0,0:0:0:0:
256,348,173270,1,2,0:0:0:0:
156,264,173725,2,0,P|132:224|132:192,1,65,8|0,0:0|0:0,0:0:0:0:
148,144,174179,6,0,P|255:12|363:144,1,390,2|8,0:0|0:0,0:0:0:0:
256,216,175997,2,0,L|256:352,2,130,2|8|2,0:0|0:0|0:0,0:0:0:0:
324,104,177361,1,8,0:0:0:0:
420,192,177816,5,4,0:0:0:0:
452,320,178282,2,0,P|376:320|336:284,1,130,8|2,0:0|0:0,0:0:0:0:
256,184,179191,1,8,0:0:0:0:
174,286,179646,2,0,P|123:324|60:320,2,130,2|8|2,0:0|0:0|0:0,0:0:0:0:
224,164,181009,2,0,P|240:128|272:104,1,65,8|0,0:0|0:0,0:0:0:0:
320,80,181464,6,0,B|480:192|480:192|320:304,1,390,2|8,0:0|0:0,0:0:0:0:
192,304,183282,2,0,B|32:192|32:192|192:80,1,390,2|8,0:0|0:0,0:0:0:0:
316,44,185100,6,0,P|360:44|440:112,1,130,4|8,0:0|0:0,0:0:0:0:
508,192,186009,1,2,0:0:0:0:
429,293,186464,2,0,P|379:333|316:340,1,130,8|2,0:0|0:0,0:0:0:0:
256,224,187373,2,0,P|206:183|142:177,2,130,8|2|8,0:0|0:0|0:0,0:0:0:0:
272,352,188737,6,0,B|336:352|368:288|368:288|368:132,1,260,2|2,0:0|0:0,0:0:0:0:
256,84,190100,1,8,0:0:0:0:
144,150,190555,2,0,P|88:152|32:104,2,130,2|8|2,0:0|0:0|0:0,0:0:0:0:
256,84,191918,2,0,L|324:124,1,65,8|8,0:0|3:0,0:0:0:0:
368,150,192373,6,0,P|424:152|480:104,2,130,4|8|2,0:0|0:0|0:0,0:0:0:0:
280,56,193737,2,0,P|256:56|212:80,1,65,8|0,0:0|0:0,0:0:0:0:
176,120,194191,2,0,L|88:216,2,130,2|8|2,0:0|0:0|0:0,0:0:0:0:
256,20,195555,1,8,0:0:0:0:
336,120,196009,6,0,L|424:216,1,130,2|8,0:0|0:0,0:0:0:0:
488,328,196918,2,0,P|420:348|344:312,1,130,2|8,0:0|0:0,0:0:0:0:
256,260,197828,1,2,0:0:0:0:
146,330,198282,2,0,P|84:348|24:328,2,130,8|2|8,0:0|0:0|0:0,0:0:0:0:
160,208,199650,6,0,B|240:208|256:136|256:136|272:208|368:208,1,260,4|2,0:0|0:0,0:0:0:0:
472,156,201013,1,8,0:0:0:0:
380,64,201468,2,0,P|255:31|120:72,1,260,2|2,0:0|0:0,0:0:0:0:
40,156,202831,1,8,0:0:0:0:
36,284,203286,6,0,P|84:284|144:220,1,130,2|8,0:0|0:0,0:0:0:0:
188,108,204195,1,2,0:0:0:0:
324,108,204650,1,8,0:0:0:0:
370,230,205104,2,0,P|412:277|476:284,2,130,2|8|2,0:0|0:0|0:0,0:0:0:0:
256,148,206468,1,8,0:0:0:0:
256,192,206922,12,0,213059,0:0:0:0:
