osu file format v13

[General]
AudioFilename: The Proclaimers - I'm Gonna Be.mp3
AudioLeadIn: 0
PreviewTime: 148483
Countdown: 0
SampleSet: Soft
StackLeniency: 0.7
Mode: 0
LetterboxInBreaks: 0
WidescreenStoryboard: 0

[Editor]
Bookmarks: 7246
DistanceSpacing: 1
BeatDivisor: 4
GridSize: 4
TimelineZoom: 1

[Metadata]
Title:I'm Gonna Be (500 Miles)
TitleUnicode:I'm Gonna Be (500 Miles)
Artist:The Proclaimers
ArtistUnicode:The Proclaimers
Creator:Inyuschan
Version:Hard
Source:
Tags:Sunshine on Leith how i met your mother himym
BeatmapID:515547
BeatmapSetID:220256

[Difficulty]
HPDrainRate:6
CircleSize:4
OverallDifficulty:6
ApproachRate:7
SliderMultiplier:1.6
SliderTickRate:1

[Events]
//Background and Video events
0,0,"BG.jpg",0,0
//Break Periods
2,109779,111861
//Storyboard Layer 0 (Background)
//Storyboard Layer 1 (Fail)
//Storyboard Layer 2 (Pass)
//Storyboard Layer 3 (Foreground)
//Storyboard Sound Samples
//Background Colour Transformations
3,100,0,0,0

[TimingPoints]
420,454.545454545455,4,2,0,50,1,0
36796,454.545454545455,4,2,0,60,1,1
51355,454.545454545455,4,2,0,50,1,0
65917,454.545454545455,4,2,0,50,1,0
80462,-100,4,2,0,60,0,1
95022,454.545454545455,4,2,0,60,1,0
105943,454.545454545455,4,2,0,50,1,0
120505,454.545454545455,4,2,0,50,1,0
145074,454.545454545455,4,3,0,50,1,0
146892,-100,4,2,0,30,0,0
147346,-100,4,2,0,40,0,0
147801,-100,4,2,0,50,0,0
148700,454.545454545455,4,2,0,60,1,1
163264,454.545454545455,4,2,0,60,1,0
166907,454.545454545455,4,2,0,50,1,0
177828,454.545454545455,4,2,0,50,1,0
199650,454.545454545455,4,2,0,50,1,0
207377,-100,4,2,0,45,0,0
207831,-100,4,2,0,40,0,0
208740,-100,4,2,0,35,0,0
209650,-100,4,2,0,30,0,0
210559,-100,4,2,0,25,0,0
211013,-100,4,2,0,20,0,0
211468,-100,4,2,0,15,0,0
212377,-100,4,2,0,10,0,0
212831,-100,4,2,0,5,0,0

[Colours]
Combo1 : 202,185,159
Combo2 : 174,204,134
Combo3 : 244,217,159
Combo4 : 215,217,208

[HitObjects]
144,48,7238,6,0,P|168:48|220:80,1,80,2|0,0:0|0:0,0:0:0:0:
296,74,7692,2,0,P|328:52|368:48,1,80,0|0,0:0|0:0,0:0:0:0:
440,84,8147,2,0,P|480:120|480:228,1,160,2|0,0:0|0:0,0:0:0:0:
336,280,9056,1,2,0:0:0:0:
256,296,9283,1,0,0:0:0:0:
176,280,9510,6,0,L|116:208,2,80,0|0|2,0:0|0:0|0:0,0:0:0:0:
256,296,10192,2,0,P|292:344|400:332,1,160
432,280,10874,2,0,P|456:248|456:208,1,80,2|0,0:0|0:0,0:0:0:0:
408,144,11329,6,0,P|352:104|264:104,2,160,0|2|0,0:0|0:0|0:0,0:0:0:0:
380,220,12465,1,0,0:0:0:0:
364,300,12692,2,0,P|403:302|436:280,1,80,2|0,0:0|0:0,0:0:0:0:
380,220,13147,6,0,P|336:220|280:316,1,160,0|2,0:0|0:0,0:0:0:0:
132,164,14056,2,0,P|192:164|236:68,1,160,0|2,0:0|0:0,0:0:0:0:
160,92,14738,1,0,0:0:0:0:
160,92,14965,6,0,L|280:236,1,160,0|2,0:0|0:0,0:0:0:0:
380,324,15874,1,0,0:0:0:0:
472,192,16329,2,0,B|452:156|452:156|452:96,1,80,2|0,0:0|0:0,0:0:0:0:
411,48,16783,6,0,P|449:36|488:44,1,80
472,191,17238,2,0,P|434:203|396:196,1,80,2|0,0:0|0:0,0:0:0:0:
324,156,17692,1,0,0:0:0:0:
256,116,17920,1,0,0:0:0:0:
188,156,18147,1,2,0:0:0:0:
216,232,18374,1,0,0:0:0:0:
296,232,18601,6,0,P|316:232|392:344,2,160,0|2|0,0:0|0:0|0:0,0:0:0:0:
236,312,19738,2,0,L|316:312,1,80,0|2,0:0|0:0,0:0:0:0:
216,232,20192,1,0,0:0:0:0:
204,152,20420,6,0,P|156:176|152:284,1,160,0|2,0:0|0:0,0:0:0:0:
308,232,21329,2,0,P|356:208|364:100,1,160,0|2,0:0|0:0,0:0:0:0:
312,56,22010,1,0,0:0:0:0:
200,56,22238,5,0,0:0:0:0:
256,112,22465,1,0,0:0:0:0:
320,160,22692,2,0,B|256:208|256:208|192:160,2,160,8|0|2,0:0|0:0|0:0,0:0:0:0:
256,112,23829,1,0,0:0:0:0:
256,112,24056,6,0,L|256:284,1,160,0|8,0:0|0:0,0:0:0:0:
408,320,24965,2,0,L|480:353,2,80,0|0|2,0:0|0:0|0:0,0:0:0:0:
476,245,25647,1,0,0:0:0:0:
476,245,25874,6,0,L|404:212,1,80
328,188,26329,1,8,0:0:0:0:
256,156,26556,2,0,P|288:120|336:112,1,80
404,212,27010,2,0,P|372:256|320:264,1,80,0|2,0:0|0:0,0:0:0:0:
272,240,27465,1,0,0:0:0:0:
200,204,27692,6,0,P|180:144|248:80,1,160,0|8,0:0|0:0,0:0:0:0:
344,204,28601,2,0,P|348:264|272:328,1,160,0|2,0:0|0:0,0:0:0:0:
212,284,29283,1,0,0:0:0:0:
148,236,29510,6,0,B|112:216|112:216|68:216,1,80
92,296,29965,2,0,L|132:132,1,160,8|0,0:0|0:0,0:0:0:0:
256,40,30874,2,0,B|296:40|296:40|332:60,1,80,2|0,0:0|0:0,0:0:0:0:
396,108,31329,6,0,L|484:108,1,80
396,192,31783,2,0,L|316:192,1,80,8|0,0:0|0:0,0:0:0:0:
268,128,32238,2,0,B|220:192|220:192|268:256,1,160,0|2,0:0|0:0,0:0:0:0:
320,316,32920,1,0,0:0:0:0:
268,256,33147,6,0,L|184:256,1,80
320,316,33601,2,0,P|376:316|444:216,1,160,8|0,0:0|0:0,0:0:0:0:
400,176,34283,1,0,0:0:0:0:
360,108,34510,2,0,P|408:96|460:124,1,80,2|0,0:0|0:0,0:0:0:0:
400,176,34965,6,0,P|400:220|308:280,1,160,0|8,0:0|0:0,0:0:0:0:
112,208,35874,2,0,P|112:164|204:104,1,160,0|2,0:0|0:0,0:0:0:0:
256,160,36556,1,0,0:0:0:0:
312,103,36796,6,0,P|383:132|400:208,1,160,4|8,0:0|0:0,0:0:0:0:
199,280,37705,2,0,P|128:251|112:176,1,160,2|8,0:0|0:0,0:0:0:0:
164,116,38386,1,0,0:0:0:0:
224,64,38614,6,0,B|264:64|264:64|304:84,1,80,2|0,0:0|0:0,0:0:0:0:
164,116,39068,2,0,B|124:116|124:116|84:96,1,80,8|0,0:0|0:0,0:0:0:0:
224,64,39523,2,0,P|244:108|164:200,1,160,2|8,0:0|0:0,0:0:0:0:
124,240,40205,1,0,0:0:0:0:
52,276,40432,5,2,0:0:0:0:
256,152,40886,1,8,0:0:0:0:
460,276,41341,2,0,L|424:192,1,80,2|0,0:0|0:0,0:0:0:0:
488,148,41796,2,0,L|452:64,1,80,8|0,0:0|0:0,0:0:0:0:
388,36,42250,6,0,B|308:36|308:36|236:76,1,160,2|8,0:0|0:0,0:0:0:0:
124,348,43159,2,0,B|204:348|204:348|276:308,1,160,2|8,0:0|0:0,0:0:0:0:
336,260,43841,1,0,0:0:0:0:
404,216,44068,6,0,P|356:180|264:228,1,160,2|8,0:0|0:0,0:0:0:0:
124,76,44977,2,0,P|172:112|264:64,1,160,2|8,0:0|0:0,0:0:0:0:
192,32,45659,1,0,0:0:0:0:
257,78,45886,6,0,B|293:78|293:78|341:98,1,80,2|0,0:0|0:0,0:0:0:0:
392,152,46341,1,8,0:0:0:0:
333,289,46796,2,0,B|293:306|293:306|257:306,2,80,2|0|8,0:0|0:0|0:0,0:0:0:0:
460,196,47705,6,0,P|472:152|460:112,2,80,2|0|8,0:0|0:0|0:0,0:0:0:0:
256,312,48614,1,2,0:0:0:0:
308,168,49068,1,8,0:0:0:0:
256,108,49296,1,0,0:0:0:0:
204,168,49523,6,0,P|160:168|80:256,1,160,2|8,0:0|0:0,0:0:0:0:
220,328,50432,2,0,P|264:328|336:256,1,120,2|2,0:0|3:0,0:0:0:0:
344,252,50886,2,0,L|332:164,1,80,8|8,0:0|3:0,0:0:0:0:
320,92,51355,6,0,B|256:44|256:44|192:92,2,160,4|8|0,0:0|0:0|0:0,0:0:0:0:
444,192,52718,2,0,L|416:280,1,80,8|0,0:0|0:0,0:0:0:0:
344,292,53173,6,0,L|316:380,1,80
231,340,53627,2,0,L|256:264,1,80,8|0,0:0|0:0,0:0:0:0:
304,200,54082,1,0,0:0:0:0:
256,136,54309,2,0,L|256:44,2,80,0|8|0,0:0|0:0|0:0,0:0:0:0:
304,200,54991,6,0,P|332:168|336:128,1,80
256,56,55445,2,0,L|176:56,1,80,8|0,0:0|0:0,0:0:0:0:
96,52,55900,2,0,P|104:96|140:128,1,80
207,125,56355,2,0,P|201:86|176:56,1,80,8|0,0:0|0:0,0:0:0:0:
127,121,56809,6,0,B|91:185|179:217|111:305,1,160,0|8,0:0|0:0,0:0:0:0:
385,263,57718,2,0,B|421:199|333:167|401:79,1,160,0|8,0:0|0:0,0:0:0:0:
444,60,58400,1,0,0:0:0:0:
382,110,58627,6,0,P|350:110|302:142,1,80
316,212,59082,2,0,P|256:256|194:210,2,160,8|0|8,0:0|0:0|0:0,0:0:0:0:
256,156,60218,1,0,0:0:0:0:
196,104,60445,6,0,P|164:104|124:132,1,80
256,156,60900,2,0,P|288:156|328:128,1,80,8|0,0:0|0:0,0:0:0:0:
328,48,61355,2,0,P|372:64|392:192,1,160,0|8,0:0|0:0,0:0:0:0:
372,236,62036,1,0,0:0:0:0:
328,304,62264,6,0,L|240:304,1,80
372,236,62718,2,0,L|452:236,1,80,8|0,0:0|0:0,0:0:0:0:
472,312,63173,1,0,0:0:0:0:
452,236,63400,1,0,0:0:0:0:
472,160,63627,1,8,0:0:0:0:
420,100,63855,1,0,0:0:0:0:
368,40,64082,6,0,P|324:40|216:104,1,160,0|8,0:0|0:0,0:0:0:0:
144,344,64991,2,0,P|188:344|296:280,1,160,0|8,0:0|0:0,0:0:0:0:
336,224,65673,1,0,0:0:0:0:
376,156,65917,6,0,P|388:120|376:76,1,80,4|0,0:0|0:0,0:0:0:0:
308,40,66371,2,0,P|296:76|308:120,1,80,8|0,0:0|0:0,0:0:0:0:
206,115,66826,2,0,P|216:77|204:40,1,80
133,80,67280,2,0,P|123:118|136:156,1,80,8|0,0:0|0:0,0:0:0:0:
184,220,67735,6,0,L|276:220,1,80
136,156,68189,2,0,L|44:156,1,80,8|0,0:0|0:0,0:0:0:0:
184,220,68644,2,0,L|312:336,1,160,0|8,0:0|0:0,0:0:0:0:
380,352,69326,1,0,0:0:0:0:
452,327,69553,6,0,P|472:291|472:247,1,80
394,121,70007,2,0,P|396:161|416:196,1,80,8|0,0:0|0:0,0:0:0:0:
468,88,70462,2,0,L|396:20,1,80
416,196,70917,2,0,L|474:250,1,80,8|0,0:0|0:0,0:0:0:0:
384,124,71371,6,0,P|352:152|376:264,1,160,0|8,0:0|0:0,0:0:0:0:
128,260,72280,2,0,P|160:232|136:120,1,160,0|8,0:0|0:0,0:0:0:0:
92,188,72962,1,0,0:0:0:0:
92,188,73189,6,0,L|260:204,1,160,0|8,0:0|0:0,0:0:0:0:
332,208,73871,1,0,0:0:0:0:
412,212,74098,2,0,B|452:140|452:140|452:60,1,160,0|8,0:0|0:0,0:0:0:0:
384,20,74780,1,0,0:0:0:0:
316,62,75007,6,0,L|248:122,1,80
180,208,75462,1,8,0:0:0:0:
180,208,75576,1,0,0:0:0:0:
180,208,75689,2,0,B|252:252|280:184|336:208,1,160
392,260,76371,2,0,P|360:284|312:284,1,80,8|0,0:0|0:0,0:0:0:0:
333,207,76826,6,0,P|333:167|309:119,1,80
194,130,77280,2,0,P|178:167|179:207,1,80,8|0,0:0|0:0,0:0:0:0:
256,228,77735,2,0,P|232:272|196:288,1,80
332,208,78189,2,0,P|356:164|392:148,1,80,8|0,0:0|0:0,0:0:0:0:
448,192,78644,5,0,0:0:0:0:
256,340,79098,1,8,0:0:0:0:
64,192,79553,1,0,0:0:0:0:
256,44,80007,1,8,3:0:0:0:
216,112,80235,1,0,0:0:0:0:
296,112,80462,6,0,P|352:112|424:196,1,160,4|8,0:0|0:0,0:0:0:0:
216,272,81371,2,0,P|160:272|88:188,1,160,2|8,0:0|0:0,0:0:0:0:
128,132,82053,1,0,0:0:0:0:
184,188,82280,6,0,L|80:332,2,160,2|8|2,0:0|0:0|0:0,0:0:0:0:
256,152,83417,1,0,0:0:0:0:
328,188,83644,2,0,P|356:188|400:224,1,80,8|0,0:0|0:0,0:0:0:0:
332,264,84098,6,0,L|400:108,1,160,2|8,0:0|0:0,0:0:0:0:
116,117,85007,2,0,L|180:264,1,160,2|8,0:0|0:0,0:0:0:0:
256,292,85689,1,0,0:0:0:0:
332,264,85917,6,0,P|368:232|352:104,1,160,2|8,0:0|0:0,0:0:0:0:
141,126,86826,2,0,P|130:203|180:264,1,160,2|8,0:0|0:0,0:0:0:0:
236,208,87507,1,0,0:0:0:0:
280,140,87735,6,0,P|324:120|436:168,1,160,2|8,0:0|0:0,0:0:0:0:
328,280,88644,2,0,P|284:300|172:252,1,160,2|8,0:0|0:0,0:0:0:0:
152,192,89326,1,0,0:0:0:0:
183,117,89553,6,0,L|256:48,2,80,2|0|8,0:0|0:0|0:0,0:0:0:0:
256,260,90462,2,0,L|396:132,1,160,2|8,0:0|0:0,0:0:0:0:
424,88,91144,1,0,0:0:0:0:
374,152,91371,6,0,P|342:152|302:124,1,80,2|0,0:0|0:0,0:0:0:0:
424,88,91826,2,0,P|456:88|496:116,1,80,8|0,0:0|0:0,0:0:0:0:
488,192,92280,2,0,P|476:236|360:296,1,160,2|8,0:0|0:0,0:0:0:0:
312,264,92962,1,0,0:0:0:0:
240,232,93189,6,0,P|188:232|84:312,2,160,2|8|2,0:0|0:0|0:0,0:0:0:0:
340,296,94439,1,2,3:0:0:0:
340,296,94553,2,0,P|364:256|352:208,1,80,8|8,0:0|3:0,0:0:0:0:
322,153,95022,6,0,P|256:112|192:160,1,160,4|8,0:0|0:0,0:0:0:0:
194,230,95703,1,0,0:0:0:0:
194,230,95931,2,0,P|258:272|322:231,1,160,2|8,0:0|0:0,0:0:0:0:
257,188,96612,1,0,0:0:0:0:
257,188,96840,6,0,L|257:360,2,160,2|8|2,0:0|0:0|0:0,0:0:0:0:
204,128,97976,1,0,0:0:0:0:
256,68,98203,1,8,0:0:0:0:
308,128,98431,1,0,0:0:0:0:
356,192,98658,6,0,L|416:264,1,80,2|0,0:0|0:0,0:0:0:0:
343,353,99112,2,0,L|292:292,1,80,8|0,0:0|0:0,0:0:0:0:
144,154,99567,2,0,L|196:216,1,80,2|0,0:0|0:0,0:0:0:0:
407,253,100022,2,0,L|356:192,1,80,8|0,0:0|0:0,0:0:0:0:
308,128,100476,6,0,P|255:78|204:136,2,160,2|8|2,0:0|0:0|0:0,0:0:0:0:
312,288,101840,2,0,P|280:308|228:308,1,80,8|0,0:0|0:0,0:0:0:0:
160,330,102294,6,0,P|179:255|252:232,2,160,2|8|2,0:0|0:0|0:0,0:0:0:0:
320,336,103658,2,0,B|356:336|356:336|400:308,1,80,8|0,0:0|0:0,0:0:0:0:
448,252,104112,6,0,B|448:172|448:172|400:96,2,160,2|8|2,0:0|0:0|0:0,0:0:0:0:
392,312,105249,1,0,0:0:0:0:
305,314,105476,2,0,P|316:275|344:248,1,80,8|0,0:0|0:0,0:0:0:0:
206,314,105943,6,0,P|195:275|168:248,1,80,2|0,0:0|0:0,0:0:0:0:
136,176,106397,2,0,P|136:140|168:88,1,80,8|0,0:0|0:0,0:0:0:0:
216,48,106852,1,2,0:0:0:0:
296,48,107079,1,0,0:0:0:0:
357,100,107306,2,0,P|375:136|376:176,1,80,8|0,0:0|0:0,0:0:0:0:
336,248,107761,6,0,L|240:384,2,160,2|8|2,0:0|0:0|0:0,0:0:0:0:
436,124,109011,1,2,3:0:0:0:
436,124,109124,2,0,P|400:96|348:96,1,80,8|0,0:0|0:0,0:0:0:0:
280,128,109579,5,4,0:0:0:0:
368,336,112761,6,0,P|344:336|292:304,1,80,2|0,0:0|0:0,0:0:0:0:
216,310,113215,2,0,P|184:332|144:336,1,80,0|0,0:0|0:0,0:0:0:0:
72,300,113670,2,0,P|32:264|32:156,1,160,8|0,0:0|0:0,0:0:0:0:
176,104,114579,1,2,0:0:0:0:
256,88,114806,1,0,0:0:0:0:
336,104,115033,6,0,L|396:176,2,80,0|0|8,0:0|0:0|0:0,0:0:0:0:
256,88,115715,2,0,P|220:40|112:52,1,160
80,104,116397,2,0,P|56:136|56:176,1,80,2|0,0:0|0:0,0:0:0:0:
104,240,116852,6,0,P|160:280|248:280,2,160,0|8|0,0:0|0:0|0:0,0:0:0:0:
132,164,117988,1,0,0:0:0:0:
152,84,118215,2,0,P|113:82|76:104,1,80,2|0,0:0|0:0,0:0:0:0:
132,164,118670,6,0,P|192:164|236:68,1,160,0|8,0:0|0:0,0:0:0:0:
380,220,119579,2,0,P|320:220|276:316,1,160,0|2,0:0|0:0,0:0:0:0:
352,292,120261,1,0,0:0:0:0:
352,292,120505,6,0,L|232:148,1,160,0|8,0:0|0:0,0:0:0:0:
144,48,121414,1,0,0:0:0:0:
40,192,121868,2,0,B|60:228|60:228|60:288,1,80,2|0,0:0|0:0,0:0:0:0:
101,336,122323,6,0,P|63:348|24:340,1,80
40,193,122777,2,0,P|78:181|116:188,1,80,8|0,0:0|0:0,0:0:0:0:
256,268,123232,1,0,0:0:0:0:
296,152,123459,1,0,0:0:0:0:
188,228,123686,1,2,0:0:0:0:
324,228,123914,1,0,0:0:0:0:
216,152,124141,6,0,P|196:152|120:40,2,160,0|8|0,0:0|0:0|0:0,0:0:0:0:
256,84,125277,2,0,L|336:84,1,80,0|2,0:0|0:0,0:0:0:0:
404,128,125732,1,0,0:0:0:0:
388,213,125959,6,0,P|331:161|336:84,1,160,0|8,0:0|0:0,0:0:0:0:
123,170,126868,2,0,P|180:222|176:300,1,160,0|2,0:0|0:0,0:0:0:0:
108,252,127550,1,0,0:0:0:0:
108,252,127777,6,0,L|280:172,1,160,0|8,0:0|0:0,0:0:0:0:
396,112,128686,1,0,0:0:0:0:
392,272,129141,2,0,P|356:272|316:296,1,80,8|0,0:0|0:0,0:0:0:0:
264,352,129595,6,0,P|216:352|144:264,1,160,0|8,0:0|0:0,0:0:0:0:
248,32,130505,2,0,P|296:32|368:120,1,160,0|8,0:0|0:0,0:0:0:0:
364,192,131186,1,0,0:0:0:0:
360,272,131414,6,0,B|336:304|336:304|296:320,2,80,0|0|8,0:0|0:0|0:0,0:0:0:0:
284,244,132095,2,0,B|248:228|248:228|208:232,1,80
364,192,132550,2,0,B|400:208|400:208|440:204,2,80,0|8|0,0:0|0:0|0:0,0:0:0:0:
320,80,133232,6,0,B|256:32|256:32|192:80,1,160,0|8,0:0|0:0,0:0:0:0:
192,304,134141,2,0,B|256:352|256:352|320:304,1,160,0|8,0:0|0:0,0:0:0:0:
256,252,134823,1,0,0:0:0:0:
204,192,135050,6,0,P|148:128|208:76,1,160,0|8,0:0|0:0,0:0:0:0:
256,44,135732,1,0,0:0:0:0:
326,79,135959,2,0,P|363:143|308:192,1,160,0|8,0:0|0:0,0:0:0:0:
256,132,136641,1,0,0:0:0:0:
326,80,136868,6,0,L|410:80,1,80
256,44,137323,2,0,L|176:44,1,80,8|0,0:0|0:0,0:0:0:0:
100,68,137777,2,0,B|68:144|68:144|104:228,1,160,0|8,0:0|0:0,0:0:0:0:
152,276,138459,1,0,0:0:0:0:
192,348,138686,6,0,P|140:356|104:340,1,80
152,276,139141,2,0,P|204:268|240:284,1,80,8|0,0:0|0:0,0:0:0:0:
98,215,139595,2,0,L|44:136,1,80
118,38,140050,2,0,L|164:104,1,80,8|0,0:0|0:0,0:0:0:0:
188,180,140505,6,0,B|188:256|188:256|136:332,1,160,0|8,0:0|0:0,0:0:0:0:
324,204,141414,2,0,B|324:128|324:128|376:52,1,160,0|8,0:0|0:0,0:0:0:0:
440,100,142095,1,0,0:0:0:0:
508,140,142323,5,4,0:0:0:0:
256,340,143232,1,4,0:0:0:0:
256,192,143345,12,4,145074,0:0:0:0:
344,344,146892,6,0,B|344:304|344:304|324:264,1,80,2|0,0:0|0:0,0:0:0:0:
185,268,147346,2,0,B|168:304|168:304|168:344,1,80,2|0,0:0|0:0,0:0:0:0:
256,228,147801,2,0,L|256:120,2,80,2|0|8,0:0|0:0|3:0,0:0:0:0:
327,268,148483,1,0,0:0:0:0:
400,300,148700,6,0,P|412:256|320:188,1,160,6|8,0:0|0:0,0:0:0:0:
112,84,149609,2,0,P|100:128|192:196,1,160,2|8,0:0|0:0,0:0:0:0:
256,184,150290,1,0,0:0:0:0:
336,198,150518,6,0,P|402:160|400:84,2,160,2|8|2,0:0|0:0|0:0,0:0:0:0:
296,132,151654,1,0,0:0:0:0:
216,132,151881,1,8,0:0:0:0:
175,198,152109,1,0,0:0:0:0:
128,264,152336,6,0,P|96:212|144:120,1,160,2|8,0:0|0:0,0:0:0:0:
384,120,153245,2,0,P|416:172|368:264,1,160,2|8,0:0|0:0,0:0:0:0:
316,304,153927,1,0,0:0:0:0:
244,344,154154,6,0,L|68:308,2,160,2|8|2,0:0|0:0|0:0,0:0:0:0:
316,304,155290,1,0,0:0:0:0:
380,260,155518,2,0,P|340:232|296:232,1,80,8|0,0:0|0:0,0:0:0:0:
232,256,155972,6,0,P|180:256|112:176,1,160,2|8,0:0|0:0,0:0:0:0:
280,128,156881,2,0,P|332:128|400:208,1,160,2|8,0:0|0:0,0:0:0:0:
368,276,157563,1,0,0:0:0:0:
288,284,157790,6,0,P|288:248|312:212,1,80,2|0,0:0|0:0,0:0:0:0:
400,204,158245,2,0,P|444:172|444:68,2,160,8|2|8,0:0|0:0|0:0,0:0:0:0:
344,148,159381,1,0,0:0:0:0:
292,88,159609,6,0,B|256:68|256:68|220:88,1,80,2|0,0:0|0:0,0:0:0:0:
204,164,160063,2,0,P|255:214|308:164,2,160,8|2|8,0:0|0:0|0:0,0:0:0:0:
216,84,161200,1,0,0:0:0:0:
296,84,161427,6,0,P|360:104|384:204,2,160,2|8|2,0:0|0:0|0:0,0:0:0:0:
240,192,162677,1,2,3:0:0:0:
240,192,162790,2,0,P|272:192|320:156,1,80,8|8,0:0|3:0,0:0:0:0:
248,116,163264,6,0,L|320:288,2,160,4|8|2,0:0|0:0|0:0,0:0:0:0:
220,40,164400,1,0,0:0:0:0:
248,116,164627,2,0,L|328:116,1,80,8|0,0:0|0:0,0:0:0:0:
400,148,165082,6,0,B|436:220|436:220|436:304,1,160,2|8,0:0|0:0,0:0:0:0:
112,236,165991,2,0,B|76:164|76:164|76:80,1,160,2|8,0:0|0:0,0:0:0:0:
148,52,166673,1,0,0:0:0:0:
220,84,166907,6,0,L|300:84,1,80,2|0,0:0|0:0,0:0:0:0:
148,52,167361,2,0,L|68:52,1,80,8|0,0:0|0:0,0:0:0:0:
40,128,167816,2,0,P|40:168|68:208,1,80,2|0,0:0|0:0,0:0:0:0:
140,216,168270,2,0,P|140:176|112:136,1,80,8|0,0:0|0:0,0:0:0:0:
60,200,168725,6,0,P|68:256|172:296,1,160,2|8,0:0|0:0,0:0:0:0:
452,184,169634,2,0,P|444:128|340:88,1,160,2|8,0:0|0:0,0:0:0:0:
304,140,170316,1,0,0:0:0:0:
244,196,170543,6,0,P|188:188|148:84,2,160,4|8|2,0:0|0:0|0:0,0:0:0:0:
384,120,171907,1,8,0:0:0:0:
416,192,172134,1,0,0:0:0:0:
384,264,172361,6,0,B|312:312|288:224|216:292,2,160,2|8|2,0:0|0:0|0:0,0:0:0:0:
336,200,173497,2,0,L|296:128,2,80,0|8|0,0:0|0:0|0:0,0:0:0:0:
384,120,174179,6,0,L|345:50,1,80,2|0,0:0|0:0,0:0:0:0:
472,192,174634,2,0,L|510:261,1,80,8|0,0:0|0:0,0:0:0:0:
464,324,175088,2,0,B|424:336|424:336|380:320,1,80,2|0,0:0|0:0,0:0:0:0:
396,192,175543,2,0,B|436:180|436:180|480:196,1,80,8|0,0:0|0:0,0:0:0:0:
388,322,175997,6,0,B|308:332|308:332|228:300,1,160,2|8,0:0|0:0,0:0:0:0:
123,61,176907,2,0,B|204:52|204:52|264:80,1,120,2|2,0:0|3:0,0:0:0:0:
276,80,177361,2,0,L|360:116,1,80,8|8,0:0|3:0,0:0:0:0:
424,140,177828,6,0,P|474:193|416:244,2,160,4|8|2,0:0|0:0|0:0,0:0:0:0:
236,296,179191,1,8,0:0:0:0:
160,272,179418,1,0,0:0:0:0:
84,244,179646,6,0,P|33:192|83:139,2,160,2|8|2,0:0|0:0|0:0,0:0:0:0:
160,272,180782,2,0,P|132:308|96:324,2,80,0|8|0,0:0|0:0|0:0,0:0:0:0:
160,192,181464,6,0,L|256:192,1,80,2|0,0:0|0:0,0:0:0:0:
380,140,181918,2,0,L|300:140,1,80,8|0,0:0|0:0,0:0:0:0:
240,192,182373,2,0,L|320:244,1,80,2|0,0:0|0:0,0:0:0:0:
447,183,182828,2,0,L|380:140,1,80,8|0,0:0|0:0,0:0:0:0:
320,96,183282,6,0,B|272:96|256:56|256:56|240:96|192:96,1,160,2|8,0:0|0:0,0:0:0:0:
192,288,184191,2,0,B|240:288|256:328|256:328|272:288|320:288,1,160,2|8,0:0|0:0,0:0:0:0:
384,244,184873,1,0,0:0:0:0:
448,196,185100,6,0,P|468:152|400:52,2,160,4|8|2,0:0|0:0|0:0,0:0:0:0:
392,140,186237,2,0,L|320:180,1,80,0|8,0:0|0:0,0:0:0:0:
256,224,186691,1,0,0:0:0:0:
189,178,186918,6,0,L|120:140,2,80,2|0|8,0:0|0:0|0:0,0:0:0:0:
288,308,187828,2,0,P|320:308|364:280,1,80,2|0,0:0|0:0,0:0:0:0:
376,204,188282,2,0,P|344:204|300:232,1,80,8|0,0:0|0:0,0:0:0:0:
288,308,188737,6,0,L|208:308,1,80,2|0,0:0|0:0,0:0:0:0:
376,204,189191,2,0,L|456:204,1,80,8|0,0:0|0:0,0:0:0:0:
308,164,189646,2,0,P|300:204|320:260,1,80,2|0,0:0|0:0,0:0:0:0:
203,241,190100,2,0,P|212:202|204:164,1,80,8|0,0:0|0:0,0:0:0:0:
136,204,190555,5,2,0:0:0:0:
256,44,191009,1,8,0:0:0:0:
388,192,191464,1,2,0:0:0:0:
384,312,191805,1,2,3:0:0:0:
384,312,191918,2,0,P|336:284|304:284,1,80,8|8,0:0|3:0,0:0:0:0:
200,281,192373,6,0,P|129:252|112:176,1,160,6|8,0:0|0:0,0:0:0:0:
313,104,193282,2,0,P|384:133|400:208,1,160,2|8,0:0|0:0,0:0:0:0:
348,268,193964,1,0,0:0:0:0:
288,320,194191,6,0,B|248:320|248:320|208:300,1,80,2|0,0:0|0:0,0:0:0:0:
348,268,194646,2,0,B|388:268|388:268|428:288,1,80,8|0,0:0|0:0,0:0:0:0:
288,320,195100,2,0,P|268:276|340:184,1,160,2|8,0:0|0:0,0:0:0:0:
388,144,195782,1,0,0:0:0:0:
460,108,196009,5,2,0:0:0:0:
256,232,196464,1,8,0:0:0:0:
52,108,196918,2,0,L|88:192,1,80,2|0,0:0|0:0,0:0:0:0:
24,236,197373,2,0,L|60:320,1,80,8|0,0:0|0:0,0:0:0:0:
124,348,197828,6,0,B|204:348|204:348|276:308,1,160,2|8,0:0|0:0,0:0:0:0:
388,36,198737,2,0,B|308:36|308:36|236:76,1,160,2|8,0:0|0:0,0:0:0:0:
176,124,199418,1,0,0:0:0:0:
108,168,199650,6,0,P|156:204|248:156,1,160,4|8,0:0|0:0,0:0:0:0:
388,308,200559,2,0,P|340:272|248:320,1,160,2|8,0:0|0:0,0:0:0:0:
320,352,201240,1,0,0:0:0:0:
255,306,201468,6,0,B|219:306|219:306|171:286,1,80,2|0,0:0|0:0,0:0:0:0:
120,232,201922,1,8,0:0:0:0:
179,95,202377,2,0,B|219:78|219:78|255:78,2,80,2|0|8,0:0|0:0|0:0,0:0:0:0:
52,188,203286,6,0,P|40:232|52:272,2,80,2|0|8,0:0|0:0|0:0,0:0:0:0:
256,72,204195,1,2,0:0:0:0:
204,216,204650,1,8,0:0:0:0:
256,276,204877,1,0,0:0:0:0:
308,216,205104,6,0,P|352:216|432:128,1,160,2|8,0:0|0:0,0:0:0:0:
256,36,206013,1,2,0:0:0:0:
108,192,206468,1,8,0:0:0:0:
256,348,206922,5,4,0:0:0:0:
256,192,207036,12,0,213059,0:0:0:0:
