osu file format v13

[General]
AudioFilename: The Proclaimers - I'm Gonna Be.mp3
AudioLeadIn: 0
PreviewTime: 148483
Countdown: 0
SampleSet: Soft
StackLeniency: 0.7
Mode: 0
LetterboxInBreaks: 0
WidescreenStoryboard: 0

[Editor]
Bookmarks: 7246
DistanceSpacing: 1
BeatDivisor: 4
GridSize: 4
TimelineZoom: 1

[Metadata]
Title:I'm Gonna Be (500 Miles)
TitleUnicode:I'm Gonna Be (500 Miles)
Artist:The Proclaimers
ArtistUnicode:The Proclaimers
Creator:Inyuschan
Version:Easy
Source:
Tags:Sunshine on Leith how i met your mother himym
BeatmapID:515546
BeatmapSetID:220256

[Difficulty]
HPDrainRate:2
CircleSize:2
OverallDifficulty:2
ApproachRate:3
SliderMultiplier:1
SliderTickRate:1

[Events]
//Background and Video events
0,0,"BG.jpg",0,0
//Break Periods
2,109779,111321
//Storyboard Layer 0 (Background)
//Storyboard Layer 1 (Fail)
//Storyboard Layer 2 (Pass)
//Storyboard Layer 3 (Foreground)
//Storyboard Sound Samples
//Background Colour Transformations
3,100,0,0,0

[TimingPoints]
420,454.545454545455,4,2,0,50,1,0
36796,454.545454545455,4,2,0,60,1,1
51355,454.545454545455,4,2,0,50,1,0
65917,454.545454545455,4,2,0,50,1,0
80462,-100,4,2,0,60,0,1
95022,454.545454545455,4,2,0,60,1,0
105943,454.545454545455,4,2,0,50,1,0
120505,454.545454545455,4,2,0,50,1,0
145074,454.545454545455,4,3,0,50,1,0
146892,-100,4,2,0,30,0,0
147801,-100,4,2,0,50,0,0
148700,454.545454545455,4,2,0,60,1,1
163264,454.545454545455,4,2,0,60,1,0
166907,454.545454545455,4,2,0,50,1,0
177828,454.545454545455,4,2,0,50,1,0
199650,454.545454545455,4,2,0,50,1,0
207377,-100,4,2,0,45,0,0
207831,-100,4,2,0,40,0,0
208740,-100,4,2,0,35,0,0
209650,-100,4,2,0,30,0,0
210559,-100,4,2,0,25,0,0
211013,-100,4,2,0,20,0,0
211468,-100,4,2,0,15,0,0
212377,-100,4,2,0,10,0,0
212831,-100,4,2,0,5,0,0

[Colours]
Combo1 : 202,185,159
Combo2 : 174,204,134
Combo3 : 244,217,159
Combo4 : 215,217,208

[HitObjects]
312,56,7238,6,0,P|344:56|416:96,1,100,2|0,0:0|0:0,0:0:0:0:
424,184,8147,2,0,P|392:184|320:144,1,100,2|0,0:0|0:0,0:0:0:0:
256,88,9056,1,2,0:0:0:0:
180,155,9510,2,0,P|137:180|88:184,2,100,0|2|0,0:0|0:0|0:0,0:0:0:0:
256,88,10874,1,2,0:0:0:0:
356,88,11329,6,0,P|412:108|452:236,1,200
376,296,12692,1,2,0:0:0:0:
284,332,13147,2,0,P|224:332|176:284,1,100,0|2,0:0|0:0,0:0:0:0:
172,212,14056,2,0,L|212:104,1,100,0|2,0:0|0:0,0:0:0:0:
305,118,14965,6,0,L|340:212,2,100,0|2|0,0:0|0:0|0:0,0:0:0:0:
256,32,16329,1,2,0:0:0:0:
156,32,16783,2,0,P|108:56|108:192,1,200
168,264,18147,1,2,0:0:0:0:
244,328,18601,6,0,P|332:328|416:252,2,200,0|0|0,0:0|0:0|0:0,0:0:0:0:
207,236,20874,2,0,P|163:272|147:320,2,100,2|0|2,0:0|0:0|0:0,0:0:0:0:
305,236,22238,6,0,P|349:272|365:320,2,100,0|8|0,0:0|0:0|0:0,0:0:0:0:
208,208,23601,1,2,0:0:0:0:
112,184,24056,2,0,P|144:128|200:108,1,100,0|8,0:0|0:0,0:0:0:0:
256,52,24965,1,0,0:0:0:0:
338,112,25420,6,0,P|379:139|400:184,2,100,2|0|8,0:0|0:0|0:0,0:0:0:0:
304,208,26783,2,0,P|262:180|242:136,1,100,0|2,0:0|0:0,0:0:0:0:
256,36,27692,1,0,0:0:0:0:
356,36,28147,2,0,P|408:72|432:200,1,200,8|2,0:0|0:0,0:0:0:0:
448,300,29510,6,0,P|412:300|348:256,1,100,0|8,0:0|0:0,0:0:0:0:
256,244,30420,1,0,0:0:0:0:
154,268,30874,2,0,P|113:296|64:300,1,100,2|0,0:0|0:0,0:0:0:0:
24,208,31783,2,0,P|65:180|114:176,1,100,8|0,0:0|0:0,0:0:0:0:
156,268,32692,1,2,0:0:0:0:
236,332,33147,6,0,B|288:332|288:332|344:296,1,100,0|8,0:0|0:0,0:0:0:0:
408,244,34056,2,0,B|432:196|432:196|420:144,1,100,0|2,0:0|0:0,0:0:0:0:
340,92,34965,2,0,B|316:140|316:140|328:192,1,100,0|8,0:0|0:0,0:0:0:0:
408,244,35874,1,0,0:0:0:0:
332,312,36329,1,2,0:0:0:0:
232,312,36796,6,0,P|192:312|104:192,1,200,4|2,0:0|0:0,0:0:0:0:
168,120,38159,1,8,0:0:0:0:
244,56,38614,2,0,P|284:56|372:176,1,200,2|2,0:0|0:0,0:0:0:0:
340,264,39977,6,0,P|404:264|444:232,2,100,8|2|8,0:0|0:0|0:0,0:0:0:0:
256,212,41341,1,2,0:0:0:0:
172,264,41796,1,8,0:0:0:0:
104,336,42250,2,0,P|69:279|73:235,2,100,2|8|2,0:0|0:0|0:0,0:0:0:0:
184,276,43614,1,8,0:0:0:0:
272,324,44068,6,0,P|336:340|440:240,1,200,2|2,0:0|0:0,0:0:0:0:
504,192,45432,1,8,0:0:0:0:
435,120,45886,2,0,P|368:50|272:60,1,200,2|2,0:0|0:0,0:0:0:0:
216,140,47250,1,8,0:0:0:0:
164,224,47705,6,0,P|124:176|120:124,2,100,2|8|2,0:0|0:0|0:0,0:0:0:0:
256,264,49068,1,8,0:0:0:0:
348,224,49523,2,0,P|388:176|392:124,2,100,2|8|2,0:0|0:0|0:0,0:0:0:0:
264,172,50886,1,8,0:0:0:0:
184,112,51355,6,0,P|116:136|92:288,1,200,4|0,0:0|0:0,0:0:0:0:
152,316,52718,1,8,0:0:0:0:
252,316,53173,2,0,P|292:316|356:280,1,100,0|8,0:0|0:0,0:0:0:0:
372,192,54082,2,0,P|332:192|268:228,1,100,0|8,0:0|0:0,0:0:0:0:
224,304,54991,6,0,B|180:288|180:288|148:236,1,100,0|8,0:0|0:0,0:0:0:0:
108,152,55900,2,0,B|132:104|132:104|172:72,1,100,0|8,0:0|0:0,0:0:0:0:
256,120,56809,1,0,0:0:0:0:
343,75,57264,2,0,B|380:104|380:104|404:152,2,100,8|0|8,0:0|0:0|0:0,0:0:0:0:
256,28,58627,6,0,P|212:28|68:128,1,200
28,192,59991,1,8,0:0:0:0:
81,278,60445,2,0,P|158:341|256:356,1,200
328,288,61809,1,8,0:0:0:0:
396,216,62264,6,0,P|420:172|420:116,1,100,0|8,0:0|0:0,0:0:0:0:
352,52,63173,2,0,P|328:96|328:152,1,100,0|8,0:0|0:0,0:0:0:0:
256,216,64082,1,0,0:0:0:0:
185,144,64536,2,0,P|183:95|160:52,2,100,8|0|8,0:0|0:0|0:0,0:0:0:0:
88,116,65917,6,0,B|84:228|180:240|180:240|352:240,1,300,4|8,0:0|0:0,0:0:0:0:
396,192,67735,2,0,P|432:192|488:232,2,100,0|8|0,0:0|0:0|0:0,0:0:0:0:
324,260,69098,1,8,0:0:0:0:
256,336,69553,5,0,0:0:0:0:
188,260,70007,1,8,0:0:0:0:
188,160,70462,2,0,P|184:104|218:59,1,100,0|8,0:0|0:0,0:0:0:0:
305,68,71371,2,0,P|329:111|324:160,1,100,0|8,0:0|0:0,0:0:0:0:
272,244,72280,2,0,L|188:320,1,100,0|8,0:0|0:0,0:0:0:0:
100,332,73189,6,0,B|72:240|140:256|104:124,1,200
92,36,74553,2,0,P|144:36|188:84,1,100,8|0,0:0|0:0,0:0:0:0:
256,132,75462,1,8,0:0:0:0:
332,65,75917,2,0,P|370:34|420:36,1,100,0|8,0:0|0:0,0:0:0:0:
472,120,76826,6,0,L|456:232,1,100,0|8,0:0|0:0,0:0:0:0:
364,256,77735,2,0,L|348:368,2,100,0|8|0,0:0|0:0|0:0,0:0:0:0:
344,160,79098,2,0,B|256:112|256:112|160:164,1,200,8|8,0:0|3:0,0:0:0:0:
168,260,80462,6,0,P|256:360|344:256,1,300,4|8,0:0|0:0,0:0:0:0:
280,184,82280,2,0,P|336:160|384:168,1,100,2|8,0:0|0:0,0:0:0:0:
440,236,83189,2,0,P|468:188|468:124,1,100,2|8,0:0|0:0,0:0:0:0:
400,76,84098,6,0,P|348:48|300:48,1,100,2|8,0:0|0:0,0:0:0:0:
203,46,85007,2,0,P|154:50|112:76,1,100,2|8,0:0|0:0,0:0:0:0:
92,176,85917,2,0,P|92:212|48:276,2,100,2|8|2,0:0|0:0|0:0,0:0:0:0:
92,76,87280,6,0,P|136:80|184:128,1,100,8|2,0:0|0:0,0:0:0:0:
256,176,88189,1,8,0:0:0:0:
334,114,88644,2,0,P|371:82|420:76,1,100,2|8,0:0|0:0,0:0:0:0:
464,168,89553,2,0,P|464:224|424:276,1,100,2|8,0:0|0:0,0:0:0:0:
360,320,90462,2,0,L|256:320,1,100,2|8,0:0|0:0,0:0:0:0:
208,236,91371,6,0,L|104:236,2,100,2|8|2,0:0|0:0|0:0,0:0:0:0:
288,180,92735,1,8,0:0:0:0:
368,120,93189,2,0,B|396:76|396:76|396:16,2,100,2|8|2,0:0|0:0|0:0,0:0:0:0:
288,180,94553,1,8,0:0:0:0:
204,232,95022,6,0,P|156:264|56:168,2,200,4|2|2,0:0|0:0|0:0,0:0:0:0:
308,232,97294,2,0,P|356:264|456:168,1,200,8|8,0:0|0:0,0:0:0:0:
384,124,98658,6,0,P|420:96|480:96,2,100,2|8|2,0:0|0:0|0:0,0:0:0:0:
308,188,100022,1,8,0:0:0:0:
208,188,100476,1,2,0:0:0:0:
128,124,100931,2,0,P|92:96|32:96,2,100,8|2|8,0:0|0:0|0:0,0:0:0:0:
128,224,102294,6,0,B|216:220|232:116|232:116|304:116,1,200,2|2,0:0|0:0,0:0:0:0:
340,184,103658,2,0,P|364:148|364:92,2,100,8|2|8,0:0|0:0|0:0,0:0:0:0:
256,236,105022,1,2,0:0:0:0:
172,184,105476,6,0,P|148:148|148:92,1,100,8|2,0:0|0:0,0:0:0:0:
240,48,106397,1,8,0:0:0:0:
340,48,106852,2,0,P|376:48|436:92,1,100,2|8,0:0|0:0,0:0:0:0:
256,192,107761,12,4,109579,0:0:0:0:
436,316,112761,6,0,P|384:316|336:276,1,100,2|0,0:0|0:0,0:0:0:0:
256,244,113670,1,8,0:0:0:0:
166,289,114124,2,0,P|125:316|76:316,1,100,0|2,0:0|0:0,0:0:0:0:
44,220,115033,2,0,B|40:128|152:168|184:68,1,200
256,24,116397,1,2,0:0:0:0:
335,86,116852,6,0,B|360:168|472:128|468:220,1,200
396,288,118215,1,2,0:0:0:0:
308,340,118670,2,0,P|264:340|212:296,2,100,0|8|0,0:0|0:0|0:0,0:0:0:0:
396,288,120033,1,2,0:0:0:0:
396,188,120505,6,0,P|396:152|272:40,1,200
216,108,121868,1,2,0:0:0:0:
148,180,122323,2,0,P|108:196|40:168,2,100,0|8|0,0:0|0:0|0:0,0:0:0:0:
208,100,123686,1,2,0:0:0:0:
304,100,124141,5,0,0:0:0:0:
364,180,124595,2,0,P|404:196|472:168,2,100,8|0|2,0:0|0:0|0:0,0:0:0:0:
340,84,125959,2,0,P|256:38|169:92,1,200
140,180,127323,1,2,0:0:0:0:
96,272,127777,6,0,B|168:304|224:240|224:240|304:264,1,200
360,312,129141,2,0,P|376:264|364:212,2,100,8|0|8,0:0|0:0|0:0,0:0:0:0:
256,332,130505,1,0,0:0:0:0:
152,312,130959,6,0,P|136:264|148:212,1,100,8|0,0:0|0:0,0:0:0:0:
212,140,131868,1,8,0:0:0:0:
288,76,132323,2,0,P|236:44|184:44,2,100,0|8|0,0:0|0:0|0:0,0:0:0:0:
372,132,133686,2,0,L|328:232,1,100,8|0,0:0|0:0,0:0:0:0:
256,288,134595,1,8,0:0:0:0:
180,223,135050,6,0,L|140:132,2,100,0|8|0,0:0|0:0|0:0,0:0:0:0:
256,288,136414,1,8,0:0:0:0:
336,348,136868,2,0,B|432:280|432:280|456:168,1,200
380,128,138232,1,8,0:0:0:0:
300,68,138686,6,0,B|200:64|200:64|104:124,1,200
48,192,140050,1,8,0:0:0:0:
115,267,140505,2,0,B|200:320|200:320|300:316,1,200
372,244,141868,1,8,0:0:0:0:
436,168,142323,5,4,0:0:0:0:
256,84,143232,1,4,0:0:0:0:
256,192,143459,12,4,145074,3:0:0:0:
216,332,146892,5,2,0:0:0:0:
104,164,147801,1,2,0:0:0:0:
280,72,148700,6,0,P|320:72|408:192,1,200,4|2,0:0|0:0,0:0:0:0:
344,264,150063,1,8,0:0:0:0:
268,328,150518,2,0,P|228:328|140:208,1,200,2|2,0:0|0:0,0:0:0:0:
172,120,151881,6,0,P|108:120|68:152,2,100,8|2|8,0:0|0:0|0:0,0:0:0:0:
256,172,153245,1,2,0:0:0:0:
340,120,153700,1,8,0:0:0:0:
408,48,154154,2,0,P|443:105|439:149,2,100,2|8|2,0:0|0:0|0:0,0:0:0:0:
328,108,155518,1,8,0:0:0:0:
240,60,155972,6,0,P|176:44|72:144,1,200,2|2,0:0|0:0,0:0:0:0:
8,192,157336,1,8,0:0:0:0:
77,264,157790,2,0,P|144:334|240:324,1,200,2|2,0:0|0:0,0:0:0:0:
296,244,159154,1,8,0:0:0:0:
348,160,159609,6,0,P|388:208|392:260,2,100,2|8|2,0:0|0:0|0:0,0:0:0:0:
256,120,160972,1,8,0:0:0:0:
164,160,161427,2,0,P|124:208|120:260,2,100,2|8|2,0:0|0:0|0:0,0:0:0:0:
248,212,162790,1,8,0:0:0:0:
336,260,163264,6,0,P|408:260|496:148,1,200,4|2,0:0|0:0,0:0:0:0:
424,100,164627,2,0,P|384:80|316:80,1,100,8|2,0:0|0:0,0:0:0:0:
256,144,165536,1,8,0:0:0:0:
182,76,165991,2,0,P|132:78|88:100,1,100,2|8,0:0|0:0,0:0:0:0:
60,196,166907,6,0,B|60:272|60:272|128:256|192:336,1,200,2|2,0:0|0:0,0:0:0:0:
256,364,168270,1,8,0:0:0:0:
340,312,168725,2,0,B|384:256|452:272|452:272|452:196,1,200,2|2,0:0|0:0,0:0:0:0:
368,144,170088,6,0,P|408:100|456:92,2,100,8|4|8,0:0|0:0|0:0,0:0:0:0:
304,224,171452,1,2,0:0:0:0:
208,224,171907,1,8,0:0:0:0:
144,144,172361,2,0,P|104:100|56:92,2,100,2|8|2,0:0|0:0|0:0,0:0:0:0:
140,244,173725,6,0,P|140:288|184:344,1,100,8|2,0:0|0:0,0:0:0:0:
256,284,174634,1,8,0:0:0:0:
342,334,175088,2,0,P|370:293|372:244,1,100,2|8,0:0|0:0,0:0:0:0:
308,168,175997,2,0,B|264:152|264:76|264:76|176:116,1,200,2|2,0:0|0:0,0:0:0:0:
100,172,177361,1,8,0:0:0:0:
20,232,177828,6,0,P|64:284|192:288,1,200,4|2,0:0|0:0,0:0:0:0:
256,216,179191,1,8,0:0:0:0:
323,289,179646,2,0,P|420:297|492:232,1,200,2|2,0:0|0:0,0:0:0:0:
448,144,181009,1,8,0:0:0:0:
384,64,181464,6,0,B|296:64|256:128|256:128|216:64|128:64,1,300,2|8,0:0|0:0,0:0:0:0:
64,144,183282,1,2,0:0:0:0:
64,244,183737,2,0,P|64:292|100:340,1,100,8|2,0:0|0:0,0:0:0:0:
192,352,184646,1,8,0:0:0:0:
292,352,185100,6,0,P|360:356|448:248,1,200,4|2,0:0|0:0,0:0:0:0:
380,192,186464,1,8,0:0:0:0:
445,117,186918,2,0,P|388:39|292:32,1,200,2|2,0:0|0:0,0:0:0:0:
240,112,188282,1,8,0:0:0:0:
176,192,188737,6,0,B|232:208|256:248|256:248|280:208|337:194,2,200,2|2|2,0:0|0:0|0:0,0:0:0:0:
112,116,191009,2,0,P|76:176|84:220,2,100,8|2|8,0:0|0:0|0:0,0:0:0:0:
208,84,192373,5,4,0:0:0:0:
304,84,192828,1,8,0:0:0:0:
400,116,193282,2,0,P|436:176|428:220,1,100,2|8,0:0|0:0,0:0:0:0:
380,288,194191,2,0,L|300:364,1,100,2|8,0:0|0:0,0:0:0:0:
204,356,195100,2,0,L|132:288,1,100,2|8,0:0|0:0,0:0:0:0:
104,192,196009,6,0,B|168:176|220:228|220:228|276:160,1,200,2|2,0:0|0:0,0:0:0:0:
336,100,197373,2,0,P|376:100|452:148,2,100,8|2|8,0:0|0:0|0:0,0:0:0:0:
256,160,198737,1,2,0:0:0:0:
176,100,199191,6,0,P|136:100|60:148,1,100,8|4,0:0|0:0,0:0:0:0:
36,212,200104,1,8,0:0:0:0:
82,300,200559,2,0,B|146:300|170:344|170:344|270:344,1,200,2|2,0:0|0:0,0:0:0:0:
356,296,201922,2,0,P|396:252|396:184,2,100,8|2|8,0:0|0:0|0:0,0:0:0:0:
300,212,203286,6,0,L|204:148,1,100,2|8,0:0|0:0,0:0:0:0:
140,220,204195,2,0,L|44:156,2,100,2|8|2,0:0|0:0|0:0,0:0:0:0:
204,296,205559,1,8,0:0:0:0:
308,296,206013,1,2,0:0:0:0:
372,220,206468,1,8,0:0:0:0:
256,192,206922,12,0,213059,0:0:0:0:
