osu file format v12

[General]
AudioFilename: Kill Me.mp3
AudioLeadIn: 0
PreviewTime: 62201
Countdown: 0
SampleSet: Normal
StackLeniency: 0.7
Mode: 0
LetterboxInBreaks: 0
WidescreenStoryboard: 0

[Editor]
Bookmarks: 22506,25203,100034,109473,113518,125652,143686
DistanceSpacing: 1.2
BeatDivisor: 4
GridSize: 4

[Metadata]
Title:Kill Me
TitleUnicode:Kill Me
Artist:The Pretty Reckless
ArtistUnicode:The Pretty Reckless
Creator:Zero__wind
Version:Kill!!!
Source:
Tags:Taylor Momsen
BeatmapID:260006
BeatmapSetID:97187

[Difficulty]
HPDrainRate:7
CircleSize:4
OverallDifficulty:8
ApproachRate:9
SliderMultiplier:1.8
SliderTickRate:1

[Events]
//Background and Video events
0,0,"bg.jpg",0,0
//Break Periods
2,150796,158760
//Storyboard Layer 0 (Background)
//Storyboard Layer 1 (Fail)
//Storyboard Layer 2 (Pass)
//Storyboard Layer 3 (Foreground)
//Storyboard Sound Samples
//Background Colour Transformations
3,100,163,162,255

[TimingPoints]
19136,337.078651685393,4,1,1,50,1,0
23180,-100,4,1,2,60,0,0
23349,-100,4,1,1,60,0,0
24023,-100,4,1,2,60,0,0
24529,-100,4,1,1,50,0,0
28574,-100,4,1,2,70,0,0
28742,-100,4,1,1,70,0,0
29248,-100,4,1,1,85,0,0
29922,-100,4,1,1,100,0,1
30090,-100,4,1,1,100,0,0
30596,-100,4,1,2,100,0,0
30933,-100,4,1,1,100,0,0
31776,-100,4,1,2,100,0,0
32450,-100,4,1,1,100,0,0
33293,-100,4,1,2,100,0,0
33461,-100,4,1,1,100,0,0
34641,-100,4,1,2,100,0,0
34810,-100,4,1,1,100,0,0
35989,-100,4,1,2,100,0,0
36327,-100,4,1,1,100,0,0
37169,-100,4,1,2,100,0,0
37843,-100,4,1,1,100,0,0
38686,-100,4,1,2,100,0,0
38855,-100,4,1,1,100,0,0
39360,-100,4,1,2,100,0,0
39529,-100,4,1,1,100,0,0
40709,-100,4,1,1,95,0,0
41383,-100,4,1,2,95,0,0
41551,-100,4,1,1,95,0,0
42562,-100,4,1,2,95,0,0
43237,-100,4,1,1,95,0,0
44079,-100,4,1,2,95,0,0
44248,-100,4,1,1,95,0,0
45428,-100,4,1,2,95,0,0
45765,-100,4,1,1,95,0,0
46776,-100,4,1,2,95,0,0
47113,-100,4,1,1,95,0,0
47956,-100,4,1,2,95,0,0
48293,-100,4,1,1,95,0,0
48461,-100,4,1,2,95,0,0
48630,-100,4,1,1,95,0,0
49473,-100,4,1,2,95,0,0
49641,-100,4,1,1,95,0,0
50821,-100,4,1,2,95,0,0
50989,-100,4,1,1,95,0,0
51495,-100,4,1,2,95,0,1
52169,-100,4,1,2,95,0,0
52506,-100,4,1,1,95,0,0
53349,-100,4,1,2,95,0,0
54023,-100,4,1,1,95,0,0
54866,-100,4,1,2,95,0,0
55034,-100,4,1,1,95,0,0
56214,-100,4,1,2,95,0,0
56383,-100,4,1,1,95,0,0
57225,-100,4,1,2,95,0,0
57394,-100,4,1,1,95,0,0
57562,-100,4,1,2,95,0,0
57900,-100,4,1,1,95,0,0
58742,-100,4,1,2,95,0,0
59079,-100,4,1,1,95,0,0
59248,-100,4,1,2,95,0,0
59416,-100,4,1,1,95,0,0
59753,-100,4,1,2,95,0,0
59922,-100,4,1,1,95,0,0
60259,-100,4,1,2,95,0,0
60596,-100,4,1,1,95,0,0
62282,-100,4,1,1,85,0,0
62955,-100,4,1,2,85,0,0
64809,-100,4,1,1,85,0,0
65652,-100,4,1,2,85,0,0
66158,-100,4,1,1,85,0,0
66663,-100,4,1,2,85,0,0
66832,-100,4,1,1,85,0,0
67000,-100,4,1,2,85,0,0
67675,-100,4,1,1,85,0,0
68686,-100,4,1,2,85,0,0
68854,-100,4,1,1,85,0,0
71045,-100,4,1,2,85,0,0
71382,-100,4,1,1,85,0,0
71720,-100,4,1,2,85,0,0
72562,-100,4,1,1,85,0,0
73742,-100,4,1,2,85,0,0
74248,-100,4,1,1,85,0,0
75091,-100,4,1,2,85,0,0
75596,-100,4,1,1,85,0,0
76439,-100,4,1,2,85,0,0
76944,-100,4,1,1,85,0,0
77450,-100,4,1,2,85,0,0
78461,-100,4,1,1,85,0,0
79472,-100,4,1,2,85,0,0
79641,-100,4,1,1,85,0,0
80821,-100,4,1,2,85,0,0
80989,-100,4,1,1,85,0,0
81832,-100,4,1,2,85,0,0
82001,-100,4,1,1,85,0,0
82506,-100,4,1,2,85,0,0
82675,-100,4,1,1,85,0,0
83180,-100,4,1,2,100,0,0
83349,-100,4,1,1,100,0,0
84529,-100,4,1,2,100,0,0
84866,-100,4,1,1,100,0,0
85709,-100,4,1,2,100,0,0
86046,-100,4,1,1,100,0,0
86214,-100,4,1,2,100,0,0
86383,-100,4,1,1,100,0,0
87225,-100,4,1,2,100,0,0
87394,-100,4,1,1,100,0,0
88574,-100,4,1,2,100,0,0
88742,-100,4,1,1,100,0,0
89922,-100,4,1,2,100,0,0
90259,-100,4,1,1,100,0,0
91102,-100,4,1,2,100,0,0
91944,-100,4,1,1,100,0,0
92619,-100,4,1,2,100,0,0
92956,-100,4,1,1,100,0,0
93293,-100,4,1,2,100,0,0
94473,-100,4,1,1,100,0,0
94641,-100,4,1,1,80,0,0
95315,-100,4,1,2,70,0,0
95821,-100,4,1,1,50,0,0
95989,-100,4,1,1,70,0,0
96495,-100,4,1,2,80,0,0
97169,-100,4,1,1,70,0,0
97506,-100,4,1,1,50,0,0
97675,-100,4,1,1,70,0,0
98012,-100,4,1,2,80,0,0
98517,-100,4,1,1,70,0,0
99360,-100,4,1,2,70,0,0
99529,-100,4,1,1,70,0,0
100203,-100,4,1,1,60,0,0
100371,-100,4,1,1,70,0,0
100709,-100,4,1,2,70,0,0
101214,-100,4,1,1,50,0,0
101382,-100,4,1,1,70,0,0
101888,-100,4,1,2,70,0,0
102562,-100,4,1,1,70,0,0
102899,-100,4,1,1,50,0,0
103068,-100,4,1,1,70,0,0
103405,-100,4,1,2,80,0,0
103911,-100,4,1,1,70,0,0
104753,-100,4,1,2,70,0,0
105427,-100,4,1,1,80,0,1
105764,-100,4,1,1,80,0,0
106102,-100,4,1,2,80,0,0
106439,-100,4,1,1,80,0,0
106607,-100,4,1,1,50,0,0
106776,-100,4,1,1,60,0,0
107282,-100,4,1,2,60,0,0
108293,-100,4,1,1,30,0,0
108461,-100,4,1,1,60,0,0
108798,-100,4,1,2,60,0,0
109135,-100,4,1,1,60,0,0
110147,-100,4,1,2,60,0,0
110315,-100,4,1,1,60,0,0
110821,-100,4,1,1,95,0,0
111495,-100,4,1,2,95,0,0
112169,-100,4,1,1,95,0,0
112843,-100,4,1,2,95,0,0
113349,-100,4,1,1,95,0,0
113518,-100,4,1,2,95,0,0
113855,-100,4,1,1,95,0,0
114192,-100,4,1,2,95,0,0
114529,-100,4,1,1,95,0,0
116214,-100,4,1,1,80,0,0
116888,-100,4,1,2,80,0,0
117394,-100,4,1,1,80,0,0
117562,-100,4,2,1,80,0,0
117899,-100,4,1,2,80,0,0
118573,-100,4,2,2,80,0,0
118742,-100,4,1,1,80,0,0
119585,-100,4,1,2,80,0,0
120090,-100,4,1,1,50,0,0
120259,-100,4,1,1,80,0,0
120596,-100,4,1,2,80,0,0
121439,-100,4,1,1,50,0,0
121607,-100,4,1,1,80,0,0
122618,-100,4,1,2,80,0,0
122787,-100,4,1,1,80,0,0
124978,-100,4,1,2,80,0,0
125315,-100,4,1,1,80,0,0
126326,-100,4,1,2,80,0,0
126495,-100,4,1,1,80,0,0
127675,-100,4,1,2,80,0,0
128180,-100,4,1,1,80,0,0
128349,-100,4,2,1,80,0,0
128686,-100,4,1,2,80,0,0
129529,-100,4,1,1,80,0,0
130371,-100,4,1,2,80,0,0
130708,-100,4,2,2,80,0,0
130877,-100,4,1,1,80,0,0
131382,-100,4,1,2,80,0,0
132057,-100,4,1,2,100,0,0
132225,-100,4,1,1,80,0,0
133405,-100,4,1,2,80,0,0
133573,-100,4,1,1,80,0,0
134753,-100,4,1,2,80,0,0
134922,-100,4,1,1,80,0,0
135764,-100,4,1,2,80,0,0
136270,-100,4,1,1,80,0,0
136776,-100,4,1,2,80,0,0
137281,-100,4,1,1,80,0,0
137450,-100,4,1,1,90,0,0
137787,-100,4,1,1,95,0,0
138461,-100,4,1,2,95,0,0
138967,-100,4,1,1,95,0,0
139472,-100,4,1,2,95,0,0
140315,-100,4,1,1,95,0,0
141158,-100,4,1,2,95,0,0
141663,-100,4,1,1,95,0,0
142506,-100,4,1,2,95,0,0
143180,-100,4,1,1,95,0,0
143854,-100,4,1,2,95,0,0
144360,-100,4,1,1,95,0,0
144866,-100,4,1,2,100,0,0
145708,-100,4,1,1,95,0,0
146551,-100,4,1,2,95,0,0
147057,-100,4,1,1,95,0,0
147394,-100,4,1,2,100,0,0
147562,-100,4,1,1,95,0,0
147900,-100,4,1,2,95,0,0
159360,-100,4,1,1,60,0,0
160034,-100,4,1,2,60,0,0
160203,-100,4,1,1,60,0,0
161214,-100,4,1,2,60,0,0
161888,-100,4,1,1,60,0,0
162057,-100,4,1,1,70,0,0
162731,-100,4,1,2,70,0,0
162900,-100,4,1,1,70,0,0
163068,-100,4,2,1,70,0,0
163236,-100,4,1,1,70,0,0
164079,-100,4,1,2,70,0,0
164248,-100,4,1,1,70,0,0
164416,-100,4,1,2,70,0,0
164585,-100,4,1,1,70,0,0
164753,-100,4,1,1,80,0,0
165428,-100,4,1,2,80,0,0
165765,-100,4,1,1,80,0,0
166776,-100,4,1,2,80,0,0
166944,-100,4,1,1,80,0,0
167113,-100,4,1,2,80,0,0
167282,-100,4,1,1,80,0,0
167450,-100,4,1,1,90,0,0
168124,-100,4,1,2,90,0,0
168293,-100,4,1,1,90,0,0
169473,-100,4,1,2,90,0,0
169641,-100,4,1,1,90,0,0
169810,-100,4,1,2,90,0,0
169978,-100,4,1,1,90,0,0
170147,-100,4,1,1,100,0,1
170821,-100,4,1,2,100,0,1
170989,-100,4,1,1,100,0,1
172169,-100,4,1,2,100,0,1
172338,-100,4,1,1,100,0,1
172506,-100,4,1,2,100,0,1
172675,-100,4,1,1,100,0,1
173518,-100,4,1,2,100,0,1
173686,-100,4,1,1,100,0,1
174866,-100,4,1,2,100,0,1
175034,-100,4,1,1,100,0,1
175203,-100,4,1,2,100,0,1
175371,-100,4,1,1,100,0,1
176214,-100,4,1,2,100,0,1
176383,-100,4,1,1,100,0,1
177562,-100,4,1,2,100,0,1
177731,-100,4,1,1,100,0,1
177900,-100,4,1,2,100,0,1
178068,-100,4,1,1,100,0,1
178911,-100,4,1,2,100,0,1
179079,-100,4,1,1,100,0,1
179585,-100,4,1,1,100,0,0
182281,-100,4,1,1,80,0,0
182955,-100,4,1,2,80,0,0
183461,-100,4,1,1,80,0,0
183967,-100,4,1,2,80,0,0
184809,-100,4,1,1,80,0,0
185652,-100,4,1,2,80,0,0
186158,-100,4,1,1,80,0,0
186495,-100,4,1,2,80,0,0
186832,-100,4,1,1,80,0,0
187001,-100,4,1,2,80,0,0
187338,-100,4,1,2,100,0,0
187675,-100,4,1,1,80,0,0
190203,-100,4,1,1,50,0,0
190371,-100,4,1,1,80,0,0
190540,-100,4,1,1,50,0,0
190708,-100,4,1,1,80,0,0
191046,-100,4,1,2,80,0,0
191551,-100,4,1,1,80,0,0
191720,-100,4,1,2,80,0,0
193068,-100,4,1,1,80,0,0
193742,-100,4,1,2,80,0,0
194248,-100,4,1,1,80,0,0
194753,-100,4,1,2,80,0,0
195596,-100,4,1,1,80,0,0
196439,-100,4,1,2,80,0,0
196944,-100,4,1,1,80,0,0
197787,-100,4,1,2,80,0,0
198293,-100,4,1,1,80,0,0
201832,-100,4,1,2,80,0,0
202169,-100,4,1,1,80,0,0
202506,-100,4,1,2,80,0,0
203854,-100,4,1,1,80,0,1
204191,-100,4,1,1,80,0,0
204360,-100,4,2,1,80,0,0
204529,-100,4,1,2,80,0,0
205034,-100,4,1,1,80,0,0
205540,-100,4,2,1,80,0,0
205877,-100,4,1,2,80,0,0
206382,-100,4,1,1,50,0,0
206551,-100,4,1,1,80,0,0
207225,-100,4,1,2,80,0,0
207899,-100,4,1,1,80,0,0
208236,-100,4,1,2,80,0,0
208742,-100,4,1,1,80,0,0
212618,-100,4,1,2,80,0,0
212955,-100,4,1,1,80,0,0
213293,-100,4,1,2,80,0,0
213546,-100,4,1,1,80,0,0
214135,-100,4,1,2,80,0,0
214220,-100,4,1,1,80,0,0
214641,-100,4,1,1,100,0,1
214978,-100,4,1,1,100,0,0
215315,-100,4,1,2,100,0,0
215652,-100,4,1,1,100,0,0
217001,-100,4,1,2,100,0,0
217169,-100,4,1,1,100,0,0
217506,-100,4,1,1,100,0,0
217675,-100,4,1,1,100,0,0
218012,-100,4,1,2,100,0,0
218349,-100,4,1,1,100,0,0
218686,-100,4,1,2,100,0,0
219023,-100,4,1,1,100,0,1
219360,-100,4,1,2,100,0,0
219697,-100,4,1,1,100,0,0
220709,-100,4,1,2,100,0,0
221046,-100,4,1,1,100,0,0
222394,-100,4,1,2,100,0,0
222562,-100,4,1,1,100,0,0
223068,-100,4,1,1,100,0,0
223405,-100,4,1,2,100,0,0
223742,-100,4,1,1,100,0,0
224079,-100,4,1,2,100,0,0
224416,-100,4,1,1,100,0,1
224753,-100,4,1,2,100,0,0
225091,-100,4,1,1,100,0,0

[Colours]
Combo1 : 146,79,70
Combo2 : 119,117,167
Combo3 : 204,155,115
Combo4 : 143,162,194

[HitObjects]
235,78,19136,1,4,0:3:0:0:
97,320,19473,1,0,0:0:0:0:
95,158,19641,1,0,0:0:0:0:
236,240,19810,1,10,0:0:0:0:
432,340,20484,5,0,3:0:0:0:
432,340,20652,1,4,0:3:0:0:
448,204,20821,1,0,0:0:0:0:
312,224,20989,2,0,P|351:250|392:268,1,90,2|0,0:0|2:0,0:0:0:0:
308,128,21327,1,0,0:0:0:0:
232,296,21495,1,0,0:0:0:0:
150,223,21664,1,0,0:0:0:0:
96,28,21832,6,0,P|84:92|40:200,1,180,4|0,0:3|0:0,0:0:0:0:
40,308,22338,1,0,0:0:0:0:
148,292,22506,2,2,P|236:320|328:324,1,180,10|0,0:0|0:0,0:0:0:0:
388,120,23180,5,8,0:0:0:0:
296,176,23349,1,0,3:0:0:0:
388,24,23518,1,2,0:0:0:0:
488,192,23686,1,4,0:2:0:0:
288,72,24023,5,8,0:0:0:0:
392,228,24192,1,10,0:0:0:0:
211,187,24360,1,4,0:3:0:0:
204,14,24529,6,0,P|188:104|212:188,1,180,4|0,0:3|0:0,0:0:0:0:
300,248,25034,1,0,0:0:0:0:
365,344,25203,2,2,P|272:336|200:292,1,180,10|0,0:0|0:0,0:0:0:0:
92,128,25877,5,0,3:0:0:0:
92,128,26046,1,4,0:3:0:0:
24,44,26214,1,0,0:0:0:0:
132,36,26383,2,0,P|176:40|224:44,1,90,2|0,0:0|2:0,0:0:0:0:
208,152,26720,1,0,0:0:0:0:
144,236,26888,1,0,0:0:0:0:
40,212,27057,1,0,0:0:0:0:
120,344,27225,6,0,P|200:324|252:244,1,180,4|0,0:3|0:0,0:0:0:0:
352,244,27731,1,0,0:0:0:0:
454,268,27900,2,2,P|408:332|312:340,1,180,2|0,0:0|0:0,0:0:0:0:
332,157,28574,5,8,0:0:0:0:
306,131,28742,1,8,0:0:0:0:
332,105,28911,1,8,0:0:0:0:
356,131,29079,1,8,0:0:0:0:
252,244,29248,5,8,0:0:0:0:
218,56,29416,1,8,0:0:0:0:
406,24,29585,1,8,0:0:0:0:
439,211,29753,1,8,0:0:0:0:
240,356,29922,6,0,P|188:340|164:316,1,90,4|0,0:2|0:0,0:0:0:0:
40,284,30259,2,0,L|96:204,1,90,4|0,3:0|0:0,0:0:0:0:
16,124,30596,2,2,P|88:112|160:28,1,180,10|8,0:0|0:0,0:0:0:0:
364,96,31270,5,4,3:0:0:0:
364,96,31439,1,0,0:0:0:0:
284,168,31607,1,12,0:3:0:0:
353,269,31776,2,2,P|376:224|392:188,1,90,10|0,0:0|2:0,0:0:0:0:
472,116,32113,1,4,0:3:0:0:
256,280,32282,1,0,0:0:0:0:
480,224,32450,1,0,3:0:0:0:
316,356,32619,6,0,P|264:372|228:368,1,90,4|0,0:0|0:0,0:0:0:0:
84,360,32956,2,0,L|160:312,1,90,4|4,0:3|0:3,0:0:0:0:
248,144,33293,1,10,0:0:0:0:
248,144,33461,2,2,L|97:242,1,180,4|0,3:0|3:0,0:0:0:0:
26,74,33967,6,0,L|96:132,1,90,4|8,0:3|2:0,0:0:0:0:
160,20,34304,1,2,0:0:0:0:
160,20,34473,1,2,0:0:0:0:
28,192,34641,1,8,0:0:0:0:
172,100,34810,1,0,0:0:0:0:
228,256,34978,2,2,P|272:276|312:292,1,90,2|4,0:0|0:3,0:0:0:0:
488,264,35315,5,4,0:0:0:0:
404,332,35484,1,0,0:0:0:0:
384,224,35652,1,4,0:3:0:0:
504,360,35821,1,4,0:3:0:0:
460,156,35989,2,2,B|404:112|404:112|364:132|364:132|330:139|292:132,1,180,10|0,0:0|0:0,0:0:0:0:
128,244,36664,5,4,3:0:0:0:
196,328,36832,1,0,0:0:0:0:
220,204,37001,1,4,0:3:0:0:
104,336,37169,2,2,P|52:296|56:184,1,180,10|4,0:0|0:3,0:0:0:0:
112,72,37675,2,0,L|28:24,1,90,10|4,0:0|0:3,0:0:0:0:
140,156,38012,6,0,P|175:126|217:110,1,90,4|0,0:0|0:0,0:0:0:0:
304,176,38349,1,4,0:3:0:0:
188,20,38518,1,4,0:3:0:0:
356,80,38686,1,10,0:0:0:0:
356,80,38855,2,2,P|404:140|388:240,1,180,4|4,0:3|0:3,0:0:0:0:
296,324,39360,5,8,0:0:0:0:
304,176,39529,1,4,0:3:0:0:
472,280,39697,1,0,0:0:0:0:
296,324,39866,1,4,0:3:0:0:
132,308,40034,2,2,B|124:303|124:303|127:292|127:292|116:289|116:289|119:278|119:278|108:275|108:275|111:264|111:264|100:261|100:261|103:250|103:250|92:247|92:247|95:236|95:236|84:233|84:233|87:222|87:222|76:219|76:219|79:209|79:209|68:206|68:206|71:195|71:195|60:192|60:192|63:181|63:181|62:186|62:186|56:176,1,180,2|8,0:0|0:0,0:0:0:0:
200,28,40540,1,8,0:0:0:0:
40,52,40709,6,0,P|76:84|112:104,1,90,4|0,0:0|0:0,0:0:0:0:
200,28,41046,1,0,3:0:0:0:
216,208,41214,1,0,2:0:0:0:
352,80,41383,2,0,L|264:112,1,90,8|0,0:0|2:0,0:0:0:0:
392,240,41720,2,0,L|476:209,1,90,0|8,3:0|2:0,0:0:0:0:
328,176,42057,1,0,3:0:0:0:
456,96,42225,2,0,P|448:48|424:12,1,90,8|0,2:0|3:0,0:0:0:0:
288,312,42562,1,8,0:0:0:0:
288,312,42900,5,4,3:0:0:0:
200,248,43068,1,8,0:0:0:0:
128,328,43237,1,4,3:0:0:0:
44,208,43405,1,0,3:0:0:0:
128,328,43574,5,8,2:0:0:0:
44,208,43742,1,0,3:0:0:0:
180,20,43911,1,0,2:0:0:0:
100,92,44079,2,0,P|52:88|11:91,1,90,8|4,0:0|3:0,0:0:0:0:
303,88,44416,1,0,0:0:0:0:
304,88,44585,6,0,P|232:136|144:168,1,180,4|8,3:0|0:3,0:0:0:0:
264,224,45091,1,0,3:0:0:0:
180,20,45259,1,0,3:0:0:0:
304,88,45428,2,2,B|313:88|313:88|316:99|316:99|327:96|327:96|330:107|330:107|341:104|341:104|344:115|344:115|355:112|355:112|358:123|358:123|369:120|369:120|372:131|372:131|383:128|383:128|385:139|385:139|396:137|396:137|399:147|399:147|410:144|410:144|413:155|413:155|424:152|424:152|427:163|427:163|425:158|425:158|435:164,1,180,10|2,0:0|2:0,0:0:0:0:
440,52,45933,1,4,3:0:0:0:
484,240,46102,6,0,B|448:268|448:268|408:276|408:276|388:320|336:332,1,180,4|4,0:0|3:0,0:0:0:0:
188,304,46607,1,2,2:0:0:0:
168,152,46776,2,0,P|240:164|320:232,1,180,8|0,0:0|3:0,0:0:0:0:
188,304,47282,1,8,2:0:0:0:
26,244,47450,5,0,3:0:0:0:
168,152,47619,1,8,2:0:0:0:
40,68,47787,1,0,3:0:0:0:
26,244,47956,2,0,P|112:220|168:152,1,180,8|0,0:0|3:0,0:0:0:0:
156,32,48461,1,8,0:0:0:0:
40,68,48630,1,0,3:0:0:0:
168,152,48798,6,0,L|252:188,1,90,4|8,3:0|2:0,0:0:0:0:
280,84,49135,1,0,0:0:0:0:
160,248,49304,1,0,2:0:0:0:
328,196,49473,2,0,L|392:128,1,90,8|0,0:0|3:0,0:0:0:0:
360,300,49810,1,0,0:0:0:0:
256,108,49978,1,0,3:0:0:0:
460,32,50147,6,0,P|500:104|484:200,1,180,4|4,0:0|3:0,0:0:0:0:
360,300,50652,1,0,3:0:0:0:
485,197,50821,1,8,0:0:0:0:
504,340,50989,1,0,3:0:0:0:
288,366,51158,2,0,L|205:334,1,90
448,48,51495,5,8,0:0:0:0:
64,336,51720,1,8,0:0:0:0:
64,48,51944,1,8,0:0:0:0:
448,336,52169,1,8,0:0:0:0:
144,124,52506,6,0,L|64:180,1,90,0|0,3:0|2:0,0:0:0:0:
220,184,52843,2,0,L|293:132,1,90,0|0,3:0|2:0,0:0:0:0:
152,240,53180,1,4,3:0:0:0:
248,40,53349,2,0,P|328:28|416:80,1,180,8|4,0:0|3:0,0:0:0:0:
376,220,53855,1,8,0:0:0:0:
293,132,54023,1,0,3:0:0:0:
464,224,54192,5,4,3:0:0:0:
284,240,54360,1,8,2:0:0:0:
384,112,54529,1,0,3:0:0:0:
464,244,54697,1,2,2:0:0:0:
276,336,54866,2,0,P|229:329|197:301,1,90,8|0,0:0|3:0,0:0:0:0:
176,168,55203,1,0,2:0:0:0:
276,336,55371,1,0,3:0:0:0:
80,356,55540,5,4,0:0:0:0:
27,262,55709,2,0,P|7:218|11:174,1,90,8|4,2:0|3:0,0:0:0:0:
208,288,56046,2,0,P|252:268|280:236,1,90,0|8,0:3|0:0,0:0:0:0:
96,36,56383,2,0,P|56:64|40:108,1,90,0|0,3:0|2:0,0:0:0:0:
168,124,56720,1,2,2:0:0:0:
168,124,56804,1,2,2:0:0:0:
168,124,56888,6,0,P|224:124|260:120,1,90,4|0,0:0|3:0,0:0:0:0:
360,52,57225,1,8,0:0:0:0:
364,200,57394,1,0,3:0:0:0:
208,24,57562,1,8,0:0:0:0:
208,24,57731,1,8,0:0:0:0:
360,52,57900,1,0,3:0:0:0:
288,284,58068,6,0,P|248:224|257:120,1,180,2|8,2:0|2:0,0:0:0:0:
364,200,58574,1,0,3:0:0:0:
304,292,58742,1,8,0:0:0:0:
164,332,58911,2,0,L|68:352,1,90,0|0,2:0|3:0,0:0:0:0:
240,232,59248,1,8,0:0:0:0:
368,360,59416,6,0,B|406:318|394:282|394:282|436:268|451:214,1,180,0|8,3:0|0:0,0:0:0:0:
432,52,59922,1,0,3:0:0:0:
432,52,60091,1,0,3:0:0:0:
264,36,60259,1,8,0:0:0:0:
264,36,60428,1,8,0:0:0:0:
104,92,60596,1,0,3:0:0:0:
114,104,60765,1,0,3:0:0:0:
124,116,60933,5,0,3:0:0:0:
134,128,61607,5,0,3:0:0:0:
145,141,62282,5,4,0:2:0:0:
328,256,62619,1,0,3:0:0:0:
128,344,62956,1,2,0:2:0:0:
44,144,63293,6,0,L|80:228,1,90,0|4,2:0|0:3,0:0:0:0:
136,32,63630,2,0,L|45:21,1,90,4|0,3:0|2:0,0:0:0:0:
216,224,63967,2,0,L|270:150,1,90,0|4,2:0|0:3,0:0:0:0:
149,133,64304,1,2,0:2:0:0:
424,36,64641,1,0,0:0:0:0:
244,40,64810,1,2,2:0:0:0:
244,40,64894,1,2,2:0:0:0:
244,40,64978,6,0,P|284:64|332:76,2,90,0|8|0,3:0|0:0|3:0,0:0:0:0:
356,180,65652,2,0,P|428:108|424:36,1,180,2|0,0:2|2:0,0:0:0:0:
325,75,66158,1,8,2:0:0:0:
356,180,66327,2,0,L|408:260,1,90,4|0,3:0|2:0,0:0:0:0:
348,368,66664,2,0,L|298:292,1,90,0|0,2:0|3:0,0:0:0:0:
304,168,67001,2,0,L|460:276,1,180,8|4,0:0|2:0,0:0:0:0:
164,304,67675,5,4,3:0:0:0:
170,310,67843,1,0,3:0:0:0:
176,316,68012,1,0,3:0:0:0:
182,322,68180,1,0,3:0:0:0:
188,328,68349,2,2,L|28:244,1,180,4|0,0:2|2:0,0:0:0:0:
152,228,68855,6,0,L|204:220,1,45,2|2,2:0|2:0,0:0:0:0:
156,136,69023,5,4,3:0:0:0:
162,142,69192,1,0,3:0:0:0:
168,148,69360,1,0,3:0:0:0:
174,154,69529,1,0,3:0:0:0:
180,160,69697,2,2,L|20:76,1,180,4|0,0:2|2:0,0:0:0:0:
144,60,70203,6,0,L|196:52,1,45,2|2,2:0|2:0,0:0:0:0:
264,42,70371,5,4,3:0:0:0:
368,68,70709,1,0,3:0:0:0:
452,136,71046,1,2,0:2:0:0:
464,244,71383,5,4,3:0:0:0:
464,244,71551,1,8,0:0:0:0:
332,220,71720,2,8,L|240:204,1,90
312,324,72057,2,0,L|400:339,1,90,4|0,3:0|2:0,0:0:0:0:
352,244,72394,1,8,0:0:0:0:
408,336,72562,1,4,0:3:0:0:
448,208,72731,1,8,0:0:0:0:
304,324,72900,1,8,0:0:0:0:
96,240,73068,5,4,0:2:0:0:
268,104,73405,1,0,3:0:0:0:
296,320,73742,1,2,0:2:0:0:
169,174,74079,1,0,2:0:0:0:
225,88,74248,5,2,2:0:0:0:
225,88,74332,1,2,2:0:0:0:
225,88,74416,1,0,3:0:0:0:
120,232,74585,1,8,2:0:0:0:
190,61,74753,1,0,2:0:0:0:
73,203,74923,1,8,0:0:0:0:
268,104,75091,1,2,0:2:0:0:
268,104,75428,6,0,P|222:87|185:55,1,90,0|8,2:0|2:0,0:0:0:0:
417,4,75765,2,0,P|402:46|371:77,1,90,4|0,3:0|2:0,0:0:0:0:
268,104,76102,2,0,P|336:144|364:240,1,180,0|2,3:0|0:2,0:0:0:0:
196,376,76776,5,0,0:0:0:0:
170,240,76944,1,8,2:0:0:0:
170,240,77029,1,2,2:0:0:0:
170,240,77113,2,0,L|256:214,1,90,0|8,3:0|0:0,0:0:0:0:
448,324,77450,2,0,P|400:352|364:358,2,90,0|4|8,2:0|3:0|0:0,0:0:0:0:
420,72,78124,1,4,2:0:0:0:
168,32,78461,5,4,3:0:0:0:
107,195,78630,1,0,3:0:0:0:
59,27,78798,1,0,3:0:0:0:
197,135,78967,1,0,3:0:0:0:
22,129,79135,2,0,P|8:224|56:290,1,180,4|0,0:2|2:0,0:0:0:0:
212,240,79641,5,8,2:0:0:0:
212,240,79725,1,2,2:0:0:0:
212,240,79810,1,4,3:0:0:0:
381,203,79978,1,0,3:0:0:0:
265,332,80147,1,0,3:0:0:0:
284,158,80315,1,0,3:0:0:0:
371,311,80484,2,0,P|459:275|488:198,1,180,4|0,0:2|2:0,0:0:0:0:
380,76,80989,5,8,2:0:0:0:
380,76,81074,1,2,2:0:0:0:
380,76,81158,2,0,P|280:44|204:64,2,180,0|0|2,3:0|3:0|0:2,0:0:0:0:
257,242,82169,2,0,P|276:208|284:158,1,90,0|0,3:0|3:0,0:0:0:0:
116,28,82506,2,0,P|97:62|89:112,1,90,8|0,0:0|2:0,0:0:0:0:
136,228,82843,2,0,P|160:308|240:352,1,180,8|8,0:0|0:0,0:0:0:0:
428,272,83349,1,8,0:0:0:0:
260,240,83518,1,8,0:0:0:0:
368,376,83686,1,8,0:0:0:0:
352,168,83855,5,4,0:0:0:0:
460,116,84023,1,0,0:0:0:0:
308,112,84192,1,0,0:0:0:0:
387,12,84360,1,0,0:0:0:0:
240,92,84529,2,2,P|148:88|72:28,1,180,10|0,0:0|3:0,0:0:0:0:
180,208,85203,5,0,3:0:0:0:
177,14,85371,1,8,2:0:0:0:
66,175,85540,1,0,3:0:0:0:
240,92,85709,2,2,P|292:168|300:256,1,180,10|0,0:0|3:0,0:0:0:0:
180,208,86214,1,8,0:0:0:0:
420,176,86383,1,0,3:0:0:0:
340,340,86551,6,0,P|292:348|248:332,1,90,4|0,0:0|0:0,0:0:0:0:
240,92,86888,2,0,P|288:96|328:108,1,90
166,374,87225,1,10,0:0:0:0:
166,374,87394,2,2,P|144:296|180:208,1,180,0|0,3:0|3:0,0:0:0:0:
212,96,87900,5,4,3:0:0:0:
84,148,88068,1,8,2:0:0:0:
180,207,88237,2,2,P|224:220|266:231,1,90,2|0,0:0|3:0,0:0:0:0:
180,208,88574,1,8,0:0:0:0:
52,260,88742,1,0,3:0:0:0:
148,320,88911,1,2,0:0:0:0:
148,320,89248,5,4,0:0:0:0:
266,231,89416,1,0,0:0:0:0:
136,232,89585,1,4,0:3:0:0:
280,320,89753,1,0,0:0:0:0:
440,232,89922,2,2,P|400:136|348:80,1,180,10|0,0:0|0:0,0:0:0:0:
240,244,90596,5,4,3:0:0:0:
136,180,90765,2,0,P|168:140|208:120,1,90,0|0,0:0|3:0,0:0:0:0:
468,76,91102,2,2,P|424:140|331:178,1,180,10|4,0:0|3:0,0:0:0:0:
208,108,91607,1,10,0:0:0:0:
56,168,91776,1,8,0:3:0:0:
212,16,91944,5,4,0:0:0:0:
136,152,92113,1,0,0:0:0:0:
76,28,92282,1,0,3:0:0:0:
216,136,92450,1,4,0:3:0:0:
206,344,92619,2,2,P|132:316|104:226,1,180,10|4,0:0|0:3,0:0:0:0:
104,92,93124,1,0,3:0:0:0:
408,92,93293,1,12,0:0:0:0:
256,192,93461,12,0,94473,3:0:0:0:
256,192,94641,5,4,0:0:0:0:
212,64,95147,5,0,3:0:0:0:
256,192,95315,1,8,0:0:0:0:
212,64,95652,5,4,3:0:0:0:
256,192,95821,1,8,2:0:0:0:
256,192,95905,1,8,2:0:0:0:
256,192,95989,1,0,3:0:0:0:
132,100,96158,1,8,2:0:0:0:
332,136,96327,1,0,3:0:0:0:
136,200,96495,2,0,L|204:136,1,90,8|0,0:0|2:0,0:0:0:0:
376,20,96832,6,0,P|413:43|446:85,1,90,4|8,3:0|0:0,0:0:0:0:
332,136,97169,1,0,3:0:0:0:
380,300,97338,2,0,P|412:260|421:215,1,90,4|8,0:0|2:0,0:0:0:0:
418,150,97591,1,8,2:0:0:0:
418,150,97675,1,0,3:0:0:0:
212,92,98012,6,0,P|260:80|288:44,1,90,8|4,0:0|3:0,0:0:0:0:
75,136,98349,2,0,P|39:94|8:84,1,90,0|0,2:0|3:0,0:0:0:0:
75,280,98686,1,4,3:0:0:0:
212,92,98855,1,8,0:3:0:0:
296,208,99023,1,0,3:0:0:0:
75,136,99192,1,0,3:0:0:0:
211,324,99360,1,8,0:0:0:0:
211,324,99529,2,0,P|296:356|384:352,1,180,0|0,3:0|3:0,0:0:0:0:
378,182,100034,6,0,P|337:184|296:208,1,90,4|8,0:0|2:0,0:0:0:0:
356,256,100287,1,8,2:0:0:0:
432,244,100371,2,0,P|455:203|456:160,1,90,0|0,3:0|2:0,0:0:0:0:
224,24,100709,1,8,0:0:0:0:
224,24,101046,5,4,3:0:0:0:
100,144,101214,1,8,2:0:0:0:
100,144,101298,1,8,2:0:0:0:
100,144,101383,1,4,3:0:0:0:
116,28,101551,1,8,2:0:0:0:
212,120,101720,1,4,3:0:0:0:
24,72,101888,2,0,P|8:168|44:244,1,180,8|0,0:0|0:0,0:0:0:0:
136,332,102394,2,0,P|100:352|52:364,1,90,8|2,0:0|2:0,0:0:0:0:
41,240,102731,5,0,3:0:0:0:
136,332,102900,1,8,2:0:0:0:
136,332,102984,1,8,2:0:0:0:
136,332,103068,2,0,L|240:344,1,90,0|0,3:0|2:0,0:0:0:0:
392,276,103405,2,0,L|302:265,1,90,8|4,0:0|3:0,0:0:0:0:
320,376,103742,1,0,2:0:0:0:
200,236,103911,1,0,3:0:0:0:
406,146,104079,5,0,2:0:0:0:
217,123,104248,1,8,0:0:0:0:
383,30,104416,1,0,3:0:0:0:
304,204,104585,1,2,2:0:0:0:
267,17,104753,1,8,0:0:0:0:
231,11,104838,1,2,0:2:0:0:
195,15,104922,1,2,0:2:0:0:
162,30,105006,1,2,0:2:0:0:
134,53,105091,1,2,0:2:0:0:
115,84,105175,1,2,0:2:0:0:
104,120,105259,1,2,0:2:0:0:
104,156,105343,1,2,0:2:0:0:
110,192,105428,6,0,B|120:208|120:208|104:216|104:216|92:288|156:344,1,180,4|4,0:0|3:0,0:0:0:0:
368,301,106102,2,0,P|364:221|300:149,1,180,8|0,0:0|3:0,0:0:0:0:
232,272,106607,1,8,2:0:0:0:
232,272,106692,1,8,2:0:0:0:
232,272,106776,1,4,0:0:0:0:
344,308,106944,1,8,2:0:0:0:
324,192,107113,1,0,3:0:0:0:
436,228,107282,1,8,0:0:0:0:
76,156,107619,5,4,3:0:0:0:
68,40,107787,1,8,0:0:0:0:
172,88,107956,1,12,0:3:0:0:
164,228,108124,2,0,P|110:266|60:268,1,90,4|8,3:0|2:0,0:0:0:0:
16,252,108377,1,8,2:0:0:0:
16,252,108461,1,0,3:0:0:0:
52,364,108630,1,2,0:2:0:0:
172,88,108798,1,8,0:0:0:0:
172,88,109135,6,0,L|264:124,1,90,8|4,0:3|0:3,0:0:0:0:
272,24,109473,1,4,3:0:0:0:
256,236,109641,1,8,0:0:0:0:
428,184,109810,2,0,P|389:161|344:144,1,90,4|0,3:0|3:0,0:0:0:0:
464,12,110146,1,8,0:0:0:0:
352,244,110315,5,0,3:0:0:0:
488,108,110484,1,8,0:0:0:0:
462,302,110652,1,0,2:0:0:0:
272,352,110821,6,0,P|225:341|194:310,1,90,4|0,0:0|3:0,0:0:0:0:
116,200,111158,1,8,0:3:0:0:
232,192,111327,2,0,P|280:176|312:152,2,90,0|8|8,3:0|0:0|0:0,0:0:0:0:
116,200,111832,1,0,2:0:0:0:
236,60,112001,6,0,P|264:48|324:44,1,90,8|0,0:0|3:0,0:0:0:0:
116,200,112338,2,0,P|120:140|144:104,1,90,4|0,3:0|3:0,0:0:0:0:
236,60,112675,1,0,3:0:0:0:
236,60,112843,2,0,P|180:68|144:60,1,90,8|8,0:0|0:0,0:0:0:0:
116,200,113180,1,0,2:0:0:0:
194,310,113349,1,0,3:0:0:0:
362,320,113518,5,8,0:0:0:0:
456,290,113686,1,8,0:0:0:0:
502,202,113855,1,0,3:0:0:0:
472,109,114023,1,0,3:0:0:0:
376,2,114192,5,8,0:0:0:0:
282,32,114360,1,8,0:0:0:0:
236,120,114529,1,0,3:0:0:0:
266,213,114697,1,0,3:0:0:0:
369,161,114866,5,0,3:0:0:0:
369,179,115540,5,0,3:0:0:0:
369,197,116214,5,4,0:2:0:0:
172,288,116551,1,0,3:0:0:0:
188,72,116888,1,2,0:2:0:0:
284,264,117225,5,0,2:0:0:0:
172,288,117394,1,2,2:0:0:0:
172,288,117478,1,2,2:0:0:0:
172,288,117562,2,0,P|120:316|88:328,1,90,4|8,3:0|2:0,0:0:0:0:
16,232,117900,1,0,2:0:0:0:
172,288,118068,2,0,P|188:240|184:200,1,90,4|2,3:0|0:2,0:0:0:0:
376,112,118574,6,0,L|284:144,1,90,0|0,2:0|0:0,0:0:0:0:
348,8,118911,1,0,3:0:0:0:
476,56,119079,2,0,P|484:112|480:148,1,90,8|0,0:0|3:0,0:0:0:0:
360,324,119585,1,2,0:2:0:0:
480,144,119922,5,0,2:0:0:0:
320,232,120091,1,8,2:0:0:0:
320,232,120175,1,8,2:0:0:0:
320,232,120259,1,0,3:0:0:0:
424,256,120428,1,8,0:0:0:0:
264,320,120596,1,0,2:0:0:0:
456,360,120765,1,4,3:0:0:0:
362,107,120933,1,8,0:0:0:0:
362,107,121270,2,0,L|278:75,1,90,4|0,2:0|2:0,0:0:0:0:
164,100,121607,6,0,L|72:136,1,90,4|0,3:0|3:0,0:0:0:0:
312,240,121944,1,0,3:0:0:0:
164,100,122113,1,0,3:0:0:0:
278,75,122282,2,2,P|260:167|189:215,1,180,4|0,0:2|2:0,0:0:0:0:
36,280,122787,5,2,2:0:0:0:
36,280,122871,1,2,2:0:0:0:
36,280,122956,2,0,L|124:304,1,90,4|0,3:0|3:0,0:0:0:0:
312,240,123293,1,0,3:0:0:0:
122,303,123461,1,0,3:0:0:0:
192,214,123630,2,2,P|232:304|206:380,1,180,4|0,0:2|2:0,0:0:0:0:
456,340,124135,1,2,2:0:0:0:
456,340,124220,1,2,2:0:0:0:
456,340,124304,5,4,3:0:0:0:
484,236,124641,1,0,3:0:0:0:
448,136,124978,1,2,0:2:0:0:
364,68,125315,6,0,L|272:104,1,90,0|8,3:0|2:0,0:0:0:0:
260,224,125652,1,8,0:0:0:0:
260,224,125821,1,8,0:0:0:0:
448,136,125989,1,0,3:0:0:0:
312,184,126158,1,0,3:0:0:0:
360,8,126327,5,2,0:2:0:0:
348,232,126495,1,0,3:0:0:0:
240,104,126664,1,8,0:0:0:0:
428,56,126832,1,8,0:0:0:0:
472,268,127001,5,4,0:2:0:0:
280,368,127338,1,0,3:0:0:0:
92,264,127675,1,2,0:2:0:0:
172,64,128012,5,0,2:0:0:0:
56,140,128180,1,2,2:0:0:0:
56,140,128265,1,2,2:0:0:0:
56,140,128349,2,0,P|29:89|16:52,1,90,0|8,3:0|2:0,0:0:0:0:
172,64,128686,1,0,2:0:0:0:
161,210,128855,2,0,P|136:240|92:264,1,90,4|2,3:0|0:2,0:0:0:0:
292,152,129360,5,0,2:0:0:0:
392,113,129529,1,0,0:0:0:0:
374,217,129697,2,0,P|332:249|296:255,1,90,0|8,3:0|0:0,0:0:0:0:
448,44,130034,1,0,3:0:0:0:
468,336,130371,1,2,0:2:0:0:
468,336,130709,6,0,L|380:296,1,90,0|0,2:0|0:0,0:0:0:0:
248,240,131046,1,0,3:0:0:0:
328,365,131214,2,0,P|363:337|386:298,1,90,8|0,2:0|2:0,0:0:0:0:
364,84,131551,1,4,3:0:0:0:
248,240,131720,1,8,0:0:0:0:
248,240,132057,2,0,L|164:280,1,90,4|0,2:0|2:0,0:0:0:0:
114,138,132394,5,4,3:0:0:0:
248,240,132562,1,0,3:0:0:0:
196,100,132731,1,0,3:0:0:0:
166,278,132900,1,0,3:0:0:0:
340,340,133068,2,2,P|384:252|366:173,1,180,4|0,0:2|2:0,0:0:0:0:
352,32,133574,5,2,2:0:0:0:
352,32,133658,1,2,2:0:0:0:
352,32,133742,1,4,3:0:0:0:
268,132,133911,1,0,3:0:0:0:
472,244,134079,1,0,3:0:0:0:
456,96,134248,1,0,3:0:0:0:
248,240,134416,2,2,P|176:200|160:108,1,180,4|0,0:2|2:0,0:0:0:0:
87,18,134922,5,2,2:0:0:0:
87,18,135006,1,2,2:0:0:0:
87,18,135091,2,0,P|46:80|64:180,2,180,0|0|2,3:0|3:0|0:2,0:0:0:0:
192,336,136102,2,0,L|100:368,1,90,0|0,2:0|3:0,0:0:0:0:
248,240,136439,1,4,3:0:0:0:
392,356,136607,2,0,P|432:320|444:280,1,90,8|2,2:0|0:2,0:0:0:0:
248,240,136944,1,4,3:0:0:0:
372,72,137113,5,2,0:2:0:0:
443,286,137282,1,8,0:0:0:0:
260,112,137450,1,8,0:0:0:0:
463,157,137619,1,8,0:0:0:0:
248,240,137787,6,0,P|159:204|128:129,1,180,4|0,0:0|3:0,0:0:0:0:
372,72,138461,1,2,0:2:0:0:
372,72,138798,2,0,L|276:112,1,90,0|8,2:0|2:0,0:0:0:0:
444,196,139135,5,4,3:0:0:0:
444,16,139304,1,8,0:2:0:0:
288,106,139473,1,0,2:0:0:0:
156,164,139641,1,4,3:0:0:0:
48,68,139810,1,2,0:2:0:0:
156,164,140147,6,0,L|176:64,1,90,0|0,2:0|0:0,0:0:0:0:
28,256,140484,2,0,P|89:334|173:329,1,180,0|0,3:0|3:0,0:0:0:0:
376,240,141158,1,2,0:2:0:0:
376,240,141495,2,0,L|444:304,1,90,0|8,2:0|2:0,0:0:0:0:
496,224,141832,5,0,3:0:0:0:
336,360,142001,1,8,2:0:0:0:
376,240,142169,1,4,0:3:0:0:
453,351,142338,1,8,0:0:0:0:
460,108,142506,5,8,0:0:0:0:
328,48,142675,1,8,0:0:0:0:
184,48,142843,1,8,0:0:0:0:
52,108,143012,1,8,0:0:0:0:
76,240,143180,6,0,P|168:244|244:192,1,180,4|0,0:0|3:0,0:0:0:0:
76,240,143686,2,0,L|132:320,1,90,0|2,2:0|0:2,0:0:0:0:
336,288,144192,2,0,L|420:336,1,90,0|8,2:0|2:0,0:0:0:0:
324,180,144529,5,4,0:3:0:0:
236,332,144697,1,2,2:0:0:0:
414,332,144866,1,0,2:0:0:0:
496,200,145034,1,4,3:0:0:0:
420,76,145203,6,0,P|332:44|248:71,1,180,2|0,0:2|2:0,0:0:0:0:
128,132,145709,1,8,2:0:0:0:
219,234,145877,2,0,P|256:176|252:68,1,180,4|4,0:3|3:0,0:0:0:0:
32,232,146551,2,0,P|38:330|101:373,1,180,2|0,0:2|2:0,0:0:0:0:
208,368,147057,1,8,2:0:0:0:
296,308,147225,5,4,0:3:0:0:
408,288,147394,1,0,0:0:0:0:
256,192,147562,1,0,2:0:0:0:
144,172,147731,1,0,3:0:0:0:
372,32,147900,6,0,L|463:13,1,90,8|4,0:0|0:3,0:0:0:0:
324,124,148237,2,0,L|415:105,1,90,8|0,0:0|2:0,0:0:0:0:
256,192,148574,1,4,0:0:0:0:
256,192,148658,12,8,150596,0:0:0:0:
256,84,159360,5,0,3:0:0:0:
256,84,159529,1,0,3:0:0:0:
256,84,160034,5,8,0:0:0:0:
256,192,160203,1,0,3:0:0:0:
256,84,160709,5,0,3:0:0:0:
256,192,160877,1,0,3:0:0:0:
256,300,161046,1,0,3:0:0:0:
356,344,161214,2,0,B|372:300|352:256|352:256|372:212|356:168,1,180,8|4,0:0|3:0,0:0:0:0:
368,52,161720,2,0,L|456:88,1,90,8|0,0:0|3:0,0:0:0:0:
176,124,162057,6,0,P|209:101|256:84,1,90,4|0,3:0|3:0,0:0:0:0:
96,64,162394,1,0,3:0:0:0:
260,188,162562,1,0,3:0:0:0:
80,352,162731,2,0,P|52:312|40:272,1,90,8|0,0:0|3:0,0:0:0:0:
148,272,163068,2,0,L|240:296,1,90,0|0,3:0|3:0,0:0:0:0:
356,376,163405,5,4,3:0:0:0:
436,296,163574,1,0,3:0:0:0:
416,184,163742,1,0,3:0:0:0:
340,100,163911,1,0,3:0:0:0:
232,68,164079,2,0,L|144:40,1,90,8|0,0:0|3:0,0:0:0:0:
112,144,164416,2,0,L|24:116,1,90,8|0,0:0|3:0,0:0:0:0:
208,156,164753,6,0,P|160:232|75:238,1,180,4|0,3:0|3:0,0:0:0:0:
112,144,165259,1,0,3:0:0:0:
300,88,165428,2,0,P|320:176|274:249,1,180,8|0,0:0|3:0,0:0:0:0:
208,156,165933,1,0,3:0:0:0:
396,4,166102,6,0,P|429:92|400:168,1,180,4|0,3:0|3:0,0:0:0:0:
300,88,166607,1,0,3:0:0:0:
484,244,166776,2,0,P|448:268|400:280,1,90,8|0,0:0|3:0,0:0:0:0:
504,352,167113,2,0,L|416:380,1,90,8|0,0:0|3:0,0:0:0:0:
312,352,167450,5,4,3:0:0:0:
184,280,167619,1,0,3:0:0:0:
332,280,167787,1,0,3:0:0:0:
204,352,167956,1,0,3:0:0:0:
88,348,168124,2,0,P|71:309|68:260,1,90,8|0,0:0|3:0,0:0:0:0:
112,108,168461,1,0,3:0:0:0:
20,164,168630,1,0,3:0:0:0:
152,16,168798,5,4,3:0:0:0:
144,200,168967,1,0,3:0:0:0:
32,48,169135,1,0,3:0:0:0:
224,108,169304,1,0,3:0:0:0:
312,240,169473,2,0,L|312:340,1,90,8|0,0:0|3:0,0:0:0:0:
432,144,169810,2,0,L|432:54,1,90,8|0,0:0|3:0,0:0:0:0:
312,240,170147,5,4,3:2:0:0:
212,200,170315,1,0,3:0:0:0:
108,232,170484,1,0,3:0:0:0:
36,312,170652,1,0,3:0:0:0:
147,310,170821,2,0,P|136:271|108:232,1,90,8|0,0:0|3:0,0:0:0:0:
44,144,171158,1,0,3:0:0:0:
80,40,171327,1,0,3:0:0:0:
188,56,171495,5,4,3:0:0:0:
260,136,171664,1,0,3:0:0:0:
416,96,171832,1,0,3:0:0:0:
320,48,172001,1,0,3:0:0:0:
352,168,172169,2,0,L|408:248,1,90,8|0,0:0|3:0,0:0:0:0:
232,352,172506,2,0,L|319:314,1,90,8|0,0:0|3:0,0:0:0:0:
116,304,172843,5,4,3:0:0:0:
208,248,173012,1,0,3:0:0:0:
120,188,173180,1,0,3:0:0:0:
208,248,173349,1,0,3:0:0:0:
208,140,173518,2,0,L|184:48,1,90,8|0,0:0|3:0,0:0:0:0:
92,112,173855,1,0,3:0:0:0:
208,140,174023,1,0,3:0:0:0:
324,120,174192,5,4,3:0:0:0:
432,76,174360,1,0,3:0:0:0:
336,12,174529,1,0,3:0:0:0:
324,120,174697,1,0,3:0:0:0:
400,200,174866,2,0,L|476:264,1,90,8|0,0:0|3:0,0:0:0:0:
276,288,175203,2,0,L|373:305,1,90,8|0,0:0|3:0,0:0:0:0:
400,200,175540,5,4,3:0:0:0:
324,120,175709,1,0,3:0:0:0:
240,192,175877,1,0,3:0:0:0:
180,100,176046,1,0,3:0:0:0:
128,200,176214,2,0,L|44:248,1,90,8|0,0:0|3:0,0:0:0:0:
52,116,176551,1,0,3:0:0:0:
116,28,176720,1,0,3:0:0:0:
224,56,176888,5,4,3:0:0:0:
296,136,177057,1,0,3:0:0:0:
296,248,177225,1,0,3:0:0:0:
224,328,177394,1,0,3:0:0:0:
130,192,177562,2,0,L|220:192,1,90,8|0,0:0|3:0,0:0:0:0:
368,192,177900,2,0,L|458:192,1,90,8|0,0:0|3:0,0:0:0:0:
372,92,178237,5,4,3:0:0:0:
416,284,178405,1,0,3:0:0:0:
224,328,178574,1,0,3:0:0:0:
64,232,178742,1,0,3:0:0:0:
100,48,178911,2,0,L|168:108,1,90,8|0,0:0|3:0,0:0:0:0:
332,112,179248,1,0,3:0:0:0:
176,272,179416,1,0,3:0:0:0:
256,192,179585,5,2,0:3:0:0:
256,192,182282,5,4,0:2:0:0:
364,8,182619,5,0,3:0:0:0:
148,8,182956,5,2,0:2:0:0:
64,176,183293,5,0,2:0:0:0:
128,376,183461,1,8,2:0:0:0:
128,260,183630,2,0,P|88:288|48:300,1,90,0|0,3:0|2:0,0:0:0:0:
224,188,183967,1,0,2:0:0:0:
208,328,184135,2,0,P|256:348|300:360,1,90,4|2,3:0|0:2,0:0:0:0:
488,260,184641,1,0,2:0:0:0:
384,100,184810,5,2,2:0:0:0:
384,100,184894,1,2,2:0:0:0:
384,100,184978,2,0,P|396:43|408:12,1,90,4|8,3:0|2:0,0:0:0:0:
484,88,185315,1,0,3:0:0:0:
432,184,185484,2,0,P|384:200|344:200,1,90,0|2,2:0|0:2,0:0:0:0:
344,200,185989,5,0,2:0:0:0:
248,136,186158,1,8,2:0:0:0:
132,144,186327,2,0,P|83:123|48:104,1,90,0|0,3:0|2:0,0:0:0:0:
180,40,186664,1,0,2:0:0:0:
208,228,186832,2,0,P|169:255|131:273,1,90,0|8,3:0|0:0,0:0:0:0:
404,344,187338,1,4,2:0:0:0:
340,60,187675,5,4,3:0:0:0:
484,120,187843,1,0,3:0:0:0:
352,140,188012,1,0,3:0:0:0:
496,40,188180,1,0,3:0:0:0:
240,140,188349,2,2,P|276:228|356:256,1,180,4|0,0:2|2:0,0:0:0:0:
72,234,188855,5,2,2:0:0:0:
72,234,188939,1,2,2:0:0:0:
72,234,189023,1,4,3:0:0:0:
231,309,189192,1,0,3:0:0:0:
136,184,189360,1,0,3:0:0:0:
156,338,189529,1,0,3:0:0:0:
240,140,189697,2,2,P|160:76|83:83,1,180,4|0,0:2|2:0,0:0:0:0:
296,28,190203,5,8,2:0:0:0:
296,28,190287,1,8,2:0:0:0:
296,28,190371,1,0,3:0:0:0:
440,144,190540,2,0,L|480:164,2,45,2|2|0,2:0|2:0|3:0,0:0:0:0:
412,28,190877,1,0,2:0:0:0:
312,152,191046,1,8,0:0:0:0:
312,152,191383,5,0,2:0:0:0:
376,244,191551,1,0,3:0:0:0:
284,312,191720,2,0,P|204:344|108:336,1,180,8|4,0:0|3:0,0:0:0:0:
32,128,192225,2,0,L|80:208,1,90,8|8,0:0|0:0,0:0:0:0:
124,40,192562,1,4,3:0:0:0:
280,76,192731,2,0,L|208:136,1,90,8|8,0:0|0:0,0:0:0:0:
32,32,193068,5,4,0:2:0:0:
280,76,193405,1,0,3:0:0:0:
292,328,193742,1,2,0:2:0:0:
464,228,194079,5,0,2:0:0:0:
368,176,194248,1,8,2:0:0:0:
388,280,194416,2,0,P|426:322|460:348,1,90,0|0,3:0|2:0,0:0:0:0:
452,96,194753,1,0,2:0:0:0:
280,192,194922,2,0,P|320:192|368:176,1,90,4|2,3:0|0:2,0:0:0:0:
128,68,195428,5,0,2:0:0:0:
156,172,195596,1,8,2:0:0:0:
56,136,195765,2,0,P|34:103|28:52,1,90,0|0,3:0|2:0,0:0:0:0:
22,272,196102,2,0,P|96:252|156:172,1,180,4|2,3:0|0:2,0:0:0:0:
156,172,196776,5,0,2:0:0:0:
312,240,196944,1,8,2:0:0:0:
200,344,197113,2,0,P|200:292|212:248,1,90,0|8,3:0|2:0,0:0:0:0:
356,104,197450,1,0,2:0:0:0:
256,152,197619,1,0,3:0:0:0:
272,32,197787,2,0,P|360:0|440:32,1,180,8|4,0:0|2:0,0:0:0:0:
472,280,198461,5,4,3:0:0:0:
360,324,198630,1,0,3:0:0:0:
244,240,198798,1,0,3:0:0:0:
356,204,198967,1,0,3:0:0:0:
188,364,199135,2,2,P|124:304|108:216,1,180,4|0,0:2|2:0,0:0:0:0:
42,22,199641,5,2,2:0:0:0:
42,22,199725,1,2,2:0:0:0:
42,22,199810,1,4,3:0:0:0:
154,71,199978,1,0,3:0:0:0:
184,204,200147,1,0,3:0:0:0:
60,152,200315,1,0,3:0:0:0:
280,112,200484,2,2,P|316:200|296:280,1,180,4|0,0:2|2:0,0:0:0:0:
52,336,200989,1,2,2:0:0:0:
52,336,201074,1,2,2:0:0:0:
52,336,201158,5,4,3:0:0:0:
160,368,201495,1,0,3:0:0:0:
268,352,201832,1,8,0:0:0:0:
432,260,202169,5,0,3:0:0:0:
432,260,202338,1,0,3:0:0:0:
384,80,202506,2,0,P|421:44|456:32,1,90,8|4,0:0|3:0,0:0:0:0:
352,184,202843,2,0,P|276:144|240:60,1,180,4|8,0:3|0:0,0:0:0:0:
104,64,203349,1,4,3:0:0:0:
152,168,203518,1,8,0:0:0:0:
240,60,203686,1,8,3:0:0:0:
44,167,203855,6,0,P|73:233|168:276,1,180,4|0,0:0|3:0,0:0:0:0:
168,276,204360,2,0,L|92:328,1,90,0|8,0:0|0:0,0:0:0:0:
364,348,204866,1,0,2:0:0:0:
472,328,205034,1,8,2:0:0:0:
400,240,205203,2,0,P|406:183|424:147,1,90,0|0,3:0|0:0,0:0:0:0:
506,226,205540,1,0,0:0:0:0:
400,240,205709,2,0,L|308:256,1,90,4|8,3:0|0:0,0:0:0:0:
124,144,206214,5,0,2:0:0:0:
192,228,206383,1,8,2:0:0:0:
192,228,206467,1,8,2:0:0:0:
192,228,206551,1,4,3:0:0:0:
76,276,206888,1,0,3:0:0:0:
24,160,207225,1,8,0:0:0:0:
92,52,207562,1,0,2:0:0:0:
308,68,207900,6,0,P|356:64|399:70,1,90,0|8,3:0|2:0,0:0:0:0:
160,148,208237,1,0,2:0:0:0:
204,24,208405,1,4,3:0:0:0:
352,164,208574,2,0,P|300:160|260:144,1,90,8|2,0:0|2:0,0:0:0:0:
460,212,208911,2,0,P|424:252|388:276,1,90,0|8,2:0|2:0,0:0:0:0:
172,256,209248,5,4,3:0:0:0:
160,148,209416,1,0,3:0:0:0:
288,252,209585,1,0,3:0:0:0:
316,356,209753,1,0,3:0:0:0:
112,360,209922,2,2,P|64:288|72:192,1,180,4|0,0:2|2:0,0:0:0:0:
280,88,210428,5,2,2:0:0:0:
280,88,210512,1,2,2:0:0:0:
280,88,210596,1,4,3:0:0:0:
380,136,210765,1,0,3:0:0:0:
240,224,210933,1,0,3:0:0:0:
160,148,211102,1,0,3:0:0:0:
388,32,211270,2,2,P|465:79|478:170,1,180,4|0,0:2|2:0,0:0:0:0:
376,312,211776,5,2,2:0:0:0:
376,312,211860,1,2,2:0:0:0:
376,312,211944,2,0,P|288:348|200:344,2,180,4|0|8,3:0|3:0|0:0,0:0:0:0:
96,228,212956,1,0,3:0:0:0:
284,40,213293,1,8,0:0:0:0:
269,319,213461,5,8,0:0:0:0:
240,296,213546,1,8,0:0:0:0:
220,264,213630,1,8,0:0:0:0:
205,231,213714,1,8,0:0:0:0:
198,194,213798,1,8,0:0:0:0:
202,157,213883,1,8,0:0:0:0:
212,120,213967,1,4,3:0:0:0:
29,31,214135,5,8,0:0:0:0:
47,65,214220,1,8,0:0:0:0:
73,92,214304,1,8,0:0:0:0:
103,113,214388,1,8,0:0:0:0:
138,125,214473,1,8,0:0:0:0:
175,128,214557,1,8,0:0:0:0:
212,120,214641,6,0,P|296:124|356:192,1,180,4|4,0:0|0:3,0:0:0:0:
484,16,215147,1,4,3:0:0:0:
376,33,215315,2,2,P|332:100|356:192,1,180,10|0,0:0|3:0,0:0:0:0:
355,191,215989,5,0,3:0:0:0:
376,320,216158,1,0,0:0:0:0:
244,372,216327,1,12,0:3:0:0:
184,240,216495,2,2,P|229:240|273:248,1,90,2|0,0:0|2:0,0:0:0:0:
132,320,216832,1,0,3:0:0:0:
120,152,217001,1,8,0:0:0:0:
184,240,217169,1,0,3:0:0:0:
68,240,217338,6,0,P|32:200|24:160,1,90,4|2,0:0|2:0,0:0:0:0:
31,93,217591,1,2,2:0:0:0:
31,93,217675,1,4,0:3:0:0:
286,10,217843,1,0,0:0:0:0:
286,10,218012,2,2,P|212:60|124:60,1,180,10|4,0:0|0:3,0:0:0:0:
232,84,218518,6,0,L|316:124,1,90,0|8,3:0|0:0,0:0:0:0:
476,36,218855,1,8,0:0:0:0:
392,272,219023,1,10,0:0:0:0:
372,48,219192,1,10,0:0:0:0:
500,184,219360,5,8,0:0:0:0:
308,216,219529,1,8,0:0:0:0:
436,120,219697,1,10,0:0:0:0:
496,272,219866,1,10,0:0:0:0:
296,332,220034,6,0,P|248:316|208:296,1,90,4|0,0:0|0:0,0:0:0:0:
142,115,220371,2,0,P|160:152|168:200,1,90,4|4,0:3|0:3,0:0:0:0:
48,60,220709,2,2,P|136:28|224:36,1,180,10|0,0:0|3:0,0:0:0:0:
108,288,221383,5,0,3:0:0:0:
48,196,221551,1,0,0:0:0:0:
36,364,221720,1,4,0:3:0:0:
188,364,221888,2,2,P|224:304|240:192,1,180,10|0,0:0|3:0,0:0:0:0:
356,64,222394,1,8,0:0:0:0:
240,196,222562,1,0,3:0:0:0:
396,368,222731,5,4,0:0:0:0:
352,256,222900,1,2,2:0:0:0:
352,256,222984,1,2,2:0:0:0:
352,256,223068,2,0,P|392:216|412:184,1,90,0|0,3:0|2:0,0:0:0:0:
184,32,223405,2,2,P|272:28|356:64,1,180,10|4,0:0|0:3,0:0:0:0:
409,187,223911,1,0,3:0:0:0:
140,272,224079,5,12,0:0:0:0:
100,172,224248,1,8,0:0:0:0:
332,332,224416,5,10,0:0:0:0:
232,372,224585,1,10,0:0:0:0:
388,136,224753,5,12,0:0:0:0:
428,236,224922,1,8,0:0:0:0:
224,48,225091,5,10,0:0:0:0:
324,8,225259,1,14,0:0:0:0:
