osu file format v12

[General]
AudioFilename: Kill Me.mp3
AudioLeadIn: 0
PreviewTime: 62201
Countdown: 0
SampleSet: Normal
StackLeniency: 0.7
Mode: 0
LetterboxInBreaks: 0
WidescreenStoryboard: 0

[Editor]
Bookmarks: 60765,125652
DistanceSpacing: 1.2
BeatDivisor: 4
GridSize: 4

[Metadata]
Title:Kill Me
TitleUnicode:Kill Me
Artist:The Pretty Reckless
ArtistUnicode:The Pretty Reckless
Creator:Zero__wind
Version:Hard
Source:
Tags:Taylor Momsen
BeatmapID:267978
BeatmapSetID:97187

[Difficulty]
HPDrainRate:6
CircleSize:4
OverallDifficulty:6
ApproachRate:8
SliderMultiplier:1.3
SliderTickRate:1

[Events]
//Background and Video events
0,0,"bg.jpg",0,0
//Break Periods
2,84055,92543
2,150796,158610
//Storyboard Layer 0 (Background)
//Storyboard Layer 1 (Fail)
//Storyboard Layer 2 (Pass)
//Storyboard Layer 3 (Foreground)
//Storyboard Sound Samples
//Background Colour Transformations
3,100,163,162,255

[TimingPoints]
19136,337.078651685393,4,1,1,50,1,0
23180,-100,4,1,2,60,0,0
23349,-100,4,1,1,60,0,0
24023,-100,4,1,2,60,0,0
24529,-100,4,1,1,50,0,0
28574,-100,4,1,2,70,0,0
28742,-100,4,1,1,70,0,0
29248,-100,4,1,1,85,0,0
29922,-100,4,1,1,100,0,1
30090,-100,4,1,1,100,0,0
30596,-100,4,1,2,100,0,0
30933,-100,4,1,1,100,0,0
33293,-100,4,1,2,100,0,0
33461,-100,4,1,1,100,0,0
34641,-100,4,1,2,100,0,0
34810,-100,4,1,1,100,0,0
35989,-100,4,1,2,100,0,0
36327,-100,4,1,1,100,0,0
37675,-100,4,1,2,100,0,0
37843,-100,4,1,1,100,0,0
38686,-100,4,1,2,100,0,0
38855,-100,4,1,1,100,0,0
39360,-100,4,1,2,100,0,0
40709,-100,4,1,1,95,0,0
41383,-100,4,1,2,95,0,0
41551,-100,4,1,1,95,0,0
42562,-100,4,1,2,95,0,0
43237,-100,4,1,1,95,0,0
44079,-100,4,1,2,95,0,0
44248,-100,4,1,1,95,0,0
45428,-100,4,1,2,95,0,0
45765,-100,4,1,1,95,0,0
46776,-100,4,1,2,95,0,0
47113,-100,4,1,1,95,0,0
47956,-100,4,1,2,95,0,0
48293,-100,4,1,1,95,0,0
48461,-100,4,1,2,95,0,0
48630,-100,4,1,1,95,0,0
49473,-100,4,1,2,95,0,0
49641,-100,4,1,1,95,0,0
50147,-200,4,1,1,95,0,0
51495,-83.3333333333333,4,1,2,95,0,1
52169,-100,4,1,2,95,0,0
52506,-100,4,1,1,95,0,0
53349,-100,4,1,2,95,0,0
54023,-100,4,1,1,95,0,0
54866,-100,4,1,2,95,0,0
55034,-100,4,1,1,95,0,0
56214,-100,4,1,2,95,0,0
56383,-100,4,1,1,95,0,0
56720,-100,4,1,1,65,0,0
56888,-100,4,1,1,95,0,0
57225,-100,4,1,2,95,0,0
57394,-100,4,1,1,95,0,0
57562,-100,4,1,2,95,0,0
57900,-100,4,1,1,95,0,0
58742,-100,4,1,2,95,0,0
59079,-100,4,1,1,95,0,0
59248,-100,4,1,2,95,0,0
59416,-100,4,1,1,95,0,0
59585,-100,4,1,2,95,0,0
59922,-100,4,1,1,95,0,0
60259,-100,4,1,2,95,0,0
60596,-100,4,1,1,95,0,0
62282,-100,4,1,1,85,0,0
62955,-100,4,1,2,85,0,0
63461,-100,4,1,1,85,0,0
63967,-100,4,1,2,85,0,0
64809,-100,4,1,1,85,0,0
65652,-100,4,1,2,85,0,0
67675,-100,4,1,1,85,0,0
71045,-100,4,1,2,85,0,0
71382,-100,4,1,1,85,0,0
71720,-100,4,1,2,85,0,0
72562,-100,4,1,1,85,0,0
73742,-100,4,1,2,85,0,0
74248,-100,4,1,1,85,0,0
75091,-100,4,1,2,85,0,0
75596,-100,4,1,1,85,0,0
76439,-100,4,1,2,85,0,0
76944,-100,4,1,1,85,0,0
77450,-100,4,1,2,85,0,0
78461,-100,4,1,1,85,0,0
81832,-100,4,1,2,85,0,0
82001,-100,4,1,1,85,0,0
82506,-100,4,1,2,85,0,0
82675,-100,4,1,1,85,0,0
83180,-100,4,1,2,100,0,0
83349,-100,4,1,1,100,0,0
94641,-100,4,1,1,80,0,0
95315,-100,4,1,2,70,0,0
95821,-100,4,1,1,50,0,0
95989,-100,4,1,1,70,0,0
96495,-100,4,1,2,80,0,0
97169,-100,4,1,1,70,0,0
98012,-100,4,1,2,80,0,0
98517,-100,4,1,1,70,0,0
99360,-100,4,1,2,70,0,0
99529,-100,4,1,1,70,0,0
100203,-100,4,1,1,60,0,0
100371,-100,4,1,1,70,0,0
100709,-100,4,1,2,70,0,0
101214,-100,4,1,1,50,0,0
101382,-100,4,1,1,70,0,0
101888,-100,4,1,2,70,0,0
102562,-100,4,1,1,70,0,0
102899,-100,4,1,1,50,0,0
103068,-100,4,1,1,70,0,0
103405,-100,4,1,2,80,0,0
103911,-100,4,1,1,70,0,0
104753,-100,4,1,2,70,0,0
105427,-100,4,1,1,80,0,1
105764,-100,4,1,1,80,0,0
106102,-100,4,1,2,80,0,0
106439,-100,4,1,1,80,0,0
106607,-100,4,1,1,50,0,0
106776,-100,4,1,1,60,0,0
107282,-100,4,1,2,60,0,0
108461,-100,4,1,1,60,0,0
108798,-100,4,1,2,60,0,0
109135,-100,4,1,1,60,0,0
110147,-100,4,1,2,60,0,0
110315,-100,4,1,1,60,0,0
110821,-100,4,1,1,95,0,0
111495,-100,4,1,2,95,0,0
112169,-100,4,1,1,95,0,0
112843,-100,4,1,2,95,0,0
113349,-100,4,1,1,95,0,0
113518,-100,4,1,2,95,0,0
113855,-100,4,1,1,95,0,0
114192,-100,4,1,2,95,0,0
114529,-100,4,1,1,95,0,0
116214,-100,4,1,1,80,0,0
116888,-100,4,1,2,80,0,0
117394,-100,4,1,1,80,0,0
117562,-100,4,2,1,80,0,0
117899,-100,4,1,2,80,0,0
118573,-100,4,2,2,80,0,0
118742,-100,4,1,1,80,0,0
119585,-100,4,1,2,80,0,0
120090,-100,4,1,1,50,0,0
120259,-100,4,1,1,80,0,0
120596,-100,4,1,2,80,0,0
121607,-100,4,1,1,80,0,0
124978,-100,4,1,2,80,0,0
125315,-100,4,1,1,80,0,0
126326,-100,4,1,2,80,0,0
126495,-100,4,1,1,80,0,0
127675,-100,4,1,2,80,0,0
128180,-100,4,1,1,80,0,0
128349,-100,4,2,1,80,0,0
128686,-100,4,1,2,80,0,0
129529,-100,4,1,1,80,0,0
130371,-100,4,1,2,80,0,0
130708,-100,4,2,2,80,0,0
130877,-100,4,1,1,80,0,0
131382,-100,4,1,2,80,0,0
132057,-100,4,1,2,100,0,0
132225,-100,4,1,1,80,0,0
134753,-100,4,1,2,80,0,0
134922,-100,4,1,1,80,0,0
135764,-100,4,1,2,80,0,0
136270,-100,4,1,1,80,0,0
136776,-100,4,1,2,80,0,0
137281,-100,4,1,1,80,0,0
137450,-100,4,1,1,90,0,0
137787,-100,4,1,1,95,0,0
138461,-100,4,1,2,95,0,0
138967,-100,4,1,1,95,0,0
139472,-100,4,1,2,95,0,0
140315,-100,4,1,1,95,0,0
141158,-100,4,1,2,95,0,0
141663,-100,4,1,1,95,0,0
142506,-100,4,1,2,95,0,0
143180,-100,4,1,1,95,0,0
143854,-100,4,1,2,95,0,0
144360,-100,4,1,1,95,0,0
144866,-100,4,1,2,100,0,0
145708,-100,4,1,1,95,0,0
146551,-100,4,1,2,95,0,0
147057,-100,4,1,1,95,0,0
147394,-100,4,1,2,100,0,0
147562,-100,4,1,1,95,0,0
147900,-100,4,1,2,95,0,0
159360,-100,4,1,1,60,0,0
160034,-100,4,1,2,60,0,0
160203,-100,4,1,1,60,0,0
161383,-100,4,1,2,60,0,0
161888,-100,4,1,1,60,0,0
162057,-100,4,1,1,70,0,0
162731,-100,4,1,2,70,0,0
162900,-100,4,1,1,70,0,0
163068,-100,4,2,1,70,0,0
163236,-100,4,1,1,70,0,0
164079,-100,4,1,2,70,0,0
164248,-100,4,1,1,70,0,0
164416,-100,4,1,2,70,0,0
164585,-100,4,1,1,70,0,0
164753,-100,4,1,1,80,0,0
165428,-100,4,1,2,80,0,0
165765,-100,4,1,1,80,0,0
166776,-100,4,1,2,80,0,0
166944,-100,4,1,1,80,0,0
167113,-100,4,1,2,80,0,0
167282,-100,4,1,1,80,0,0
167450,-100,4,1,1,90,0,0
168124,-100,4,1,2,90,0,0
168293,-100,4,1,1,90,0,0
169473,-100,4,1,2,90,0,0
169641,-100,4,1,1,90,0,0
169810,-100,4,1,2,90,0,0
169978,-100,4,1,1,90,0,0
170147,-100,4,1,1,100,0,1
170821,-100,4,1,2,100,0,1
170989,-100,4,1,1,100,0,1
172169,-100,4,1,2,100,0,1
172338,-100,4,1,1,100,0,1
172506,-100,4,1,2,100,0,1
172675,-100,4,1,1,100,0,1
173518,-100,4,1,2,100,0,1
173686,-100,4,1,1,100,0,1
174866,-100,4,1,2,100,0,1
175034,-100,4,1,1,100,0,1
175203,-100,4,1,2,100,0,1
175371,-100,4,1,1,100,0,1
176214,-100,4,1,2,100,0,1
176383,-100,4,1,1,100,0,1
177562,-100,4,1,2,100,0,1
177731,-100,4,1,1,100,0,1
177900,-100,4,1,2,100,0,1
178068,-100,4,1,1,100,0,1
178911,-100,4,1,2,100,0,1
179079,-100,4,1,1,100,0,1
179585,-100,4,1,1,100,0,0
182281,-100,4,1,1,80,0,0
182955,-100,4,1,2,80,0,0
183461,-100,4,1,1,80,0,0
183967,-100,4,1,2,80,0,0
184809,-100,4,1,1,80,0,0
185652,-100,4,1,2,80,0,0
186158,-100,4,1,1,80,0,0
186495,-100,4,1,2,80,0,0
186832,-100,4,1,1,80,0,0
187001,-100,4,1,2,80,0,0
187338,-100,4,1,2,100,0,0
187675,-100,4,1,1,80,0,0
190540,-100,4,1,1,50,0,0
190708,-100,4,1,1,80,0,0
191046,-100,4,1,2,80,0,0
191551,-100,4,1,1,80,0,0
191720,-100,4,1,2,80,0,0
193068,-100,4,1,1,80,0,0
193742,-100,4,1,2,80,0,0
194248,-100,4,1,1,80,0,0
194753,-100,4,1,2,80,0,0
195596,-100,4,1,1,80,0,0
196439,-100,4,1,2,80,0,0
196944,-100,4,1,1,80,0,0
197787,-100,4,1,2,80,0,0
198293,-100,4,1,1,80,0,0
201832,-100,4,1,2,80,0,0
202169,-100,4,1,1,80,0,0
202506,-100,4,1,2,80,0,0
203854,-100,4,1,1,80,0,1
204191,-100,4,1,1,80,0,0
204360,-100,4,2,1,80,0,0
204529,-100,4,1,2,80,0,0
205034,-100,4,1,1,80,0,0
205540,-100,4,2,1,80,0,0
205877,-100,4,1,2,80,0,0
206382,-100,4,1,1,50,0,0
206551,-100,4,1,1,80,0,0
207225,-100,4,1,2,80,0,0
207899,-100,4,1,1,80,0,0
208236,-100,4,1,2,80,0,0
208742,-100,4,1,1,80,0,0
212618,-100,4,1,2,80,0,0
212955,-100,4,1,1,80,0,0
213293,-100,4,1,2,80,0,0
213546,-100,4,1,1,80,0,0
214135,-100,4,1,2,80,0,0
214220,-100,4,1,1,80,0,0
214641,-100,4,1,1,100,0,1
214978,-100,4,1,1,100,0,0
215315,-100,4,1,2,100,0,0
215652,-100,4,1,1,100,0,0
217001,-100,4,1,2,100,0,0
217169,-100,4,1,1,80,0,0
217506,-100,4,1,1,100,0,0
217675,-100,4,1,1,100,0,0
218012,-100,4,1,2,100,0,0
218349,-100,4,1,1,100,0,0
218686,-100,4,1,2,100,0,0
219023,-100,4,1,1,100,0,1
219360,-100,4,1,2,100,0,0
219697,-100,4,1,1,100,0,0
220709,-100,4,1,2,100,0,0
221046,-100,4,1,1,100,0,0
222394,-100,4,1,2,100,0,0
222562,-100,4,1,1,100,0,0
222900,-100,4,1,1,80,0,0
223068,-100,4,1,1,100,0,0
223405,-100,4,1,2,100,0,0
223742,-100,4,1,1,100,0,0
224079,-100,4,1,2,100,0,0
224416,-100,4,1,1,100,0,1
224753,-100,4,1,2,100,0,0
225091,-100,4,1,1,100,0,0

[Colours]
Combo1 : 146,79,70
Combo2 : 119,117,167
Combo3 : 204,155,115
Combo4 : 143,162,194

[HitObjects]
100,68,19136,2,0,P|67:126|84:187,1,130,4|0,0:3|0:0,0:0:0:0:
144,136,19641,1,0,0:0:0:0:
248,124,19810,2,2,P|304:96|332:32,1,130,10|2,0:0|2:0,0:0:0:0:
440,244,20484,6,0,L|500:284,2,65,0|0|0,3:0|0:0|0:0,0:0:0:0:
372,168,20989,2,2,P|306:180|264:228,1,130,10|2,0:0|0:0,0:0:0:0:
261,330,21495,1,0,0:0:0:0:
348,256,21664,1,0,0:0:0:0:
261,330,21832,6,0,P|192:352|140:332,1,130,4|0,0:3|0:0,0:0:0:0:
68,256,22338,1,0,0:0:0:0:
140,332,22506,2,2,P|173:258|164:212,1,130,10|2,0:0|2:0,0:0:0:0:
164,212,23180,5,8,0:0:0:0:
236,72,23349,1,0,3:0:0:0:
160,116,23518,1,8,0:0:0:0:
240,168,23687,1,4,0:2:0:0:
240,168,24023,2,0,L|304:188,2,65,8|8|4,0:0|0:0|0:3,0:0:0:0:
160,116,24529,6,0,P|96:80|80:24,1,130,4|0,0:3|0:0,0:0:0:0:
168,28,25034,1,0,0:0:0:0:
160,116,25203,2,2,P|130:181|79:210,1,130,10|2,0:0|2:0,0:0:0:0:
268,352,25877,6,0,L|332:368,2,65,0|0|0,3:0|0:0|0:0,0:0:0:0:
168,328,26383,2,2,P|166:263|212:212,1,130,10|2,0:0|0:0,0:0:0:0:
300,176,26888,1,0,0:0:0:0:
240,80,27057,1,0,0:0:0:0:
300,176,27225,6,0,P|364:192|420:160,1,130,4|0,0:3|0:0,0:0:0:0:
484,72,27731,1,0,0:0:0:0:
512,156,27900,2,2,P|490:224|443:253,1,130,2|2,0:0|2:0,0:0:0:0:
443,253,28574,6,0,B|417:275|417:275|387:285,1,65,8|8,0:0|0:0,0:0:0:0:
448,356,28911,2,0,L|508:380,1,65,8|8,0:0|0:0,0:0:0:0:
328,356,29248,2,0,B|306:329|306:329|296:299,1,65,8|8,0:0|0:0,0:0:0:0:
379,208,29585,2,0,L|416:152,1,65,8|8,0:0|0:0,0:0:0:0:
384,284,29922,6,0,L|320:304,1,65,4|0,0:2|0:0,0:0:0:0:
224,272,30259,1,4,3:0:0:0:
156,312,30428,1,0,0:0:0:0:
72,368,30596,2,2,P|9:330|2:277,1,130,8|8,0:0|0:0,0:0:0:0:
92,72,31270,6,0,P|109:40|128:20,2,65,0|0|4,3:0|0:0|3:0,0:0:0:0:
76,168,31776,2,2,P|143:154|181:109,1,130,10|4,0:0|3:0,0:0:0:0:
276,68,32282,1,8,0:0:0:0:
344,108,32450,1,0,0:0:0:0:
388,188,32619,6,0,P|400:227|412:247,1,65,4|0,0:0|0:0,0:0:0:0:
432,108,32956,2,0,P|420:69|408:49,1,65,4|0,0:3|0:0,0:0:0:0:
388,188,33293,1,8,0:0:0:0:
388,188,33461,2,2,P|456:195|506:163,1,130,4|0,3:0|3:0,0:0:0:0:
486,265,33967,5,4,0:3:0:0:
508,340,34135,1,8,2:0:0:0:
412,328,34304,2,2,L|348:344,1,65
214,331,34641,5,8,0:0:0:0:
192,256,34809,1,0,0:0:0:0:
288,268,34978,2,2,L|352:252,1,65,2|4,0:0|0:3,0:0:0:0:
214,331,35315,6,0,P|172:332|145:320,1,65,4|0,0:0|0:0,0:0:0:0:
112,212,35652,1,4,0:3:0:0:
192,256,35821,1,4,0:3:0:0:
80,292,35989,2,2,P|32:244|29:184,1,130,10|10,0:0|0:0,0:0:0:0:
280,152,36664,6,0,P|320:142|344:128,2,65,0|0|4,3:0|0:0|3:0,0:0:0:0:
172,164,37169,2,2,P|129:117|132:52,1,130,10|4,0:0|3:0,0:0:0:0:
44,88,37675,1,10,0:0:0:0:
72,164,37843,1,4,0:3:0:0:
200,91,38012,6,0,L|264:64,1,65,4|0,0:0|0:0,0:0:0:0:
364,120,38349,2,0,L|428:120,1,65,4|4,0:3|0:3,0:0:0:0:
280,168,38686,1,8,0:0:0:0:
280,168,38855,2,2,P|284:238|316:288,1,130,4|0,3:0|3:0,0:0:0:0:
196,244,39360,6,0,L|136:212,1,65,8|4,0:0|0:0,0:0:0:0:
236,340,39697,2,0,L|300:360,1,65,2|4,0:0|0:0,0:0:0:0:
148,324,40034,2,2,L|96:368,2,65,0|8|8,0:0|0:0|0:0,0:0:0:0:
280,280,40540,1,4,3:0:0:0:
280,280,40709,6,0,P|284:208|252:160,1,130,4|0,0:0|3:0,0:0:0:0:
48,140,41383,2,0,P|117:129|160:88,1,130,8|0,0:0|3:0,0:0:0:0:
324,76,42057,2,0,P|356:95|388:100,2,65,0|8|0,3:0|2:0|3:0,0:0:0:0:
221,20,42562,2,0,P|207:82|232:144,1,130,8|4,0:0|3:0,0:0:0:0:
288,244,43068,2,0,L|348:276,1,65,8|0,0:0|3:0,0:0:0:0:
360,376,43405,6,0,P|425:335|446:287,1,130,4|0,3:0|3:0,0:0:0:0:
432,92,44079,2,0,L|488:60,1,65,8|0,0:0|3:0,0:0:0:0:
368,216,44585,2,0,P|303:179|288:128,1,130,4|8,3:0|0:0,0:0:0:0:
216,204,45091,1,0,3:0:0:0:
152,248,45259,1,0,3:0:0:0:
56,220,45428,2,2,P|8:176|0:112,1,130,10|2,0:0|2:0,0:0:0:0:
116,120,45933,1,4,3:0:0:0:
216,204,46102,6,0,L|344:240,1,130,4|0,0:0|3:0,0:0:0:0:
243,311,46607,1,2,2:0:0:0:
148,280,46776,2,0,L|28:328,1,130,8|0,0:0|3:0,0:0:0:0:
243,311,47450,2,0,P|304:292|341:239,1,130,0|0,3:0|3:0,0:0:0:0:
341,239,47956,1,8,0:0:0:0:
256,64,48293,2,0,P|283:40|296:12,2,65,0|8|0,3:0|0:0|3:0,0:0:0:0:
244,168,48798,6,0,P|184:140|153:86,1,130,4|0,3:0|3:0,0:0:0:0:
52,32,49304,1,0,2:0:0:0:
45,146,49472,2,0,P|95:138|153:86,1,130,8|0,0:0|2:0,0:0:0:0:
52,32,49978,1,0,3:0:0:0:
45,146,50147,6,0,B|24:260|96:324,1,195,4|0,3:0|2:0,0:0:0:0:
254,316,51495,6,0,L|368:344,1,116.999996429443,12|8,0:0|0:0,0:0:0:0:
241,196,51916,2,0,L|128:224,1,116.999996429443,8|8,0:0|0:0,0:0:0:0:
340,252,52506,6,0,L|404:268,1,65,0|0,3:0|2:0,0:0:0:0:
500,200,52843,1,4,3:0:0:0:
241,196,53180,2,0,P|216:158|212:132,1,65,0|8,3:0|0:0,0:0:0:0:
440,76,53686,2,0,P|477:54|492:32,2,65,4|8|0,0:3|0:0|3:0,0:0:0:0:
332,124,54192,6,0,P|280:80|272:20,1,130,0|0,3:0|3:0,0:0:0:0:
356,41,54697,1,0,2:0:0:0:
271,21,54866,2,0,L|208:40,1,65,8|0,0:0|3:0,0:0:0:0:
124,100,55203,1,0,2:0:0:0:
56,60,55371,1,0,3:0:0:0:
52,164,55540,6,0,L|72:228,1,65,4|0,0:0|0:0,0:0:0:0:
16,316,55877,1,4,3:0:0:0:
16,316,56046,1,4,3:0:0:0:
108,324,56214,2,0,P|160:283|188:224,1,130,8|0,0:0|2:0,0:0:0:0:
248,312,56720,1,2,2:0:0:0:
248,312,56804,1,2,2:0:0:0:
248,312,56888,6,0,P|300:352|360:344,1,130,4|8,0:3|0:0,0:0:0:0:
404,248,57394,1,0,3:0:0:0:
452,336,57562,2,0,L|511:362,1,65,8|8,0:0|0:0,0:0:0:0:
492,248,57900,2,0,P|483:211|469:188,2,65,0|8|0,3:0|2:0|3:0,0:0:0:0:
432,64,58574,6,0,P|447:31|468:12,2,65,0|8|0,3:0|0:0|2:0,0:0:0:0:
364,144,59079,1,0,3:0:0:0:
289,29,59248,1,8,0:0:0:0:
360,44,59416,1,0,3:0:0:0:
294,108,59585,6,0,L|222:92,1,65,8|8,0:0|0:0,0:0:0:0:
128,104,59922,1,0,3:0:0:0:
148,192,60091,1,0,3:0:0:0:
248,184,60259,6,0,L|320:200,1,65,8|8,0:0|0:0,0:0:0:0:
414,188,60596,1,0,3:0:0:0:
372,268,60765,1,0,3:0:0:0:
292,312,60933,5,0,3:0:0:0:
140,346,61607,1,0,3:0:0:0:
48,220,62282,5,4,0:2:0:0:
48,63,62619,1,0,3:0:0:0:
183,142,62956,1,2,0:2:0:0:
128,288,63293,6,0,P|99:311|71:321,1,65,0|8,2:0|2:0,0:0:0:0:
48,220,63630,2,0,P|59:161|108:112,1,130,0|0,3:0|2:0,0:0:0:0:
216,72,64135,1,4,3:0:0:0:
216,72,64304,1,2,0:2:0:0:
428,220,64641,1,0,2:0:0:0:
344,156,64810,1,2,2:0:0:0:
344,156,64894,1,2,2:0:0:0:
344,156,64978,6,0,P|361:88|404:48,1,130,0|0,3:0|3:0,0:0:0:0:
428,220,65652,2,0,P|411:288|368:328,1,130,2|0,0:2|2:0,0:0:0:0:
132,332,66327,6,0,P|71:368|13:365,1,130,4|0,3:0|2:0,0:0:0:0:
117,227,67001,2,0,P|177:190|235:193,1,130,8|4,0:0|2:0,0:0:0:0:
50,275,67675,5,0,3:0:0:0:
50,275,67843,1,0,3:0:0:0:
132,332,68012,1,0,3:0:0:0:
132,332,68180,1,0,3:0:0:0:
220,284,68349,2,2,P|291:263|320:156,1,195,4|2,0:2|2:0,0:0:0:0:
217,98,69023,5,0,3:0:0:0:
234,192,69192,1,0,3:0:0:0:
217,98,69360,1,0,3:0:0:0:
234,192,69529,1,0,3:0:0:0:
299,264,69697,2,2,P|369:329|461:317,1,195,4|2,0:2|2:0,0:0:0:0:
461,316,70371,5,4,3:0:0:0:
464,160,70709,1,0,3:0:0:0:
396,20,71046,1,2,0:2:0:0:
401,179,71383,2,0,L|464:160,1,65,0|8,3:0|0:0,0:0:0:0:
336,72,71720,6,0,L|284:32,1,65,8|8,0:0|0:0,0:0:0:0:
337,165,72057,2,0,L|401:179,1,65,4|0,3:0|2:0,0:0:0:0:
284,32,72394,2,0,L|220:48,1,65,8|4,0:0|0:3,0:0:0:0:
273,180,72731,2,0,L|337:165,1,65,8|8,0:0|0:0,0:0:0:0:
168,112,73068,5,4,0:2:0:0:
20,64,73405,1,0,3:0:0:0:
52,216,73742,1,2,0:2:0:0:
168,112,74079,5,0,2:0:0:0:
176,216,74248,1,2,2:0:0:0:
176,216,74332,1,2,2:0:0:0:
176,216,74416,2,0,L|240:248,1,65,0|0,3:0|2:0,0:0:0:0:
32,364,74922,2,0,L|96:336,1,65,0|2,3:0|0:2,0:0:0:0:
248,336,75428,1,0,2:0:0:0:
248,336,75596,1,8,2:0:0:0:
248,336,75765,6,0,B|321:311|324:232,1,130,4|0,3:0|3:0,0:0:0:0:
491,141,76439,2,0,B|432:90|362:127,1,130,2|0,0:2|2:0,0:0:0:0:
420,216,76944,1,2,2:0:0:0:
420,216,77029,1,2,2:0:0:0:
420,216,77113,2,0,P|450:248|472:264,2,65,0|8|0,3:0|0:0|2:0,0:0:0:0:
264,100,77787,2,0,P|313:44|366:31,1,130,8|4,0:0|2:0,0:0:0:0:
420,216,78461,5,0,3:0:0:0:
420,216,78630,1,0,3:0:0:0:
352,128,78798,1,0,3:0:0:0:
352,128,78967,1,0,3:0:0:0:
257,187,79135,2,2,P|191:147|200:40,1,195,4|2,0:2|2:0,0:0:0:0:
82,49,79810,5,0,3:0:0:0:
4,112,79978,1,0,3:0:0:0:
82,49,80147,1,0,3:0:0:0:
4,112,80315,1,0,3:0:0:0:
96,152,80484,2,2,P|155:228|140:323,1,195,4|2,0:2|2:0,0:0:0:0:
52,254,81158,5,4,3:0:0:0:
170,353,81495,1,0,3:0:0:0:
300,268,81832,1,2,0:2:0:0:
144,293,82169,2,0,L|170:353,1,65,4|0,3:0|3:0,0:0:0:0:
288,356,82506,6,0,P|368:324|388:288,1,130,8|8,0:0|0:0,0:0:0:0:
272,93,83180,2,0,L|212:116,1,65,8|8,0:0|0:0,0:0:0:0:
239,290,83518,2,0,L|300:268,1,65,8|8,0:0|0:0,0:0:0:0:
256,192,83855,1,4,0:0:0:0:
256,192,93293,12,4,94641,0:0:0:0:
256,192,95315,5,8,0:0:0:0:
256,192,95821,1,2,2:0:0:0:
256,192,95905,1,2,2:0:0:0:
256,192,95989,2,0,P|316:171|352:116,1,130,0|0,3:0|3:0,0:0:0:0:
416,56,96495,2,0,L|480:84,1,65,8|0,0:0|2:0,0:0:0:0:
448,276,97001,2,0,L|512:304,1,65,8|0,0:0|3:0,0:0:0:0:
412,372,97338,6,0,P|360:336|344:268,1,130,4|0,3:0|3:0,0:0:0:0:
244,244,97843,1,0,2:0:0:0:
200,332,98012,2,0,L|140:356,1,65,8|4,0:0|3:0,0:0:0:0:
24,336,98349,2,0,L|33:272,1,65,0|4,2:0|3:0,0:0:0:0:
109,182,98686,2,0,L|159:221,1,65,0|8,3:0|2:0,0:0:0:0:
13,192,99023,2,0,P|17:157|32:124,1,65,4|0,3:0|3:0,0:0:0:0:
130,72,99360,1,8,0:0:0:0:
130,72,99529,2,0,L|231:151,1,130,0|4,3:0|3:0,0:0:0:0:
292,252,100034,5,4,3:0:0:0:
376,228,100203,1,2,2:0:0:0:
376,228,100287,1,2,2:0:0:0:
376,228,100371,2,0,P|408:202|420:180,1,65,0|0,3:0|2:0,0:0:0:0:
292,252,100709,2,0,L|384:344,1,130,8|4,0:0|3:0,0:0:0:0:
268,352,101214,5,2,2:0:0:0:
268,352,101298,1,2,2:0:0:0:
268,352,101383,2,0,L|200:372,1,65,0|8,3:0|2:0,0:0:0:0:
188,245,101720,1,0,3:0:0:0:
226,147,101888,2,0,P|266:178|292:252,1,130,8|4,0:0|3:0,0:0:0:0:
188,245,102394,2,0,L|132:276,1,65,8|0,0:0|3:0,0:0:0:0:
57,367,102731,5,4,3:0:0:0:
40,280,102900,1,2,2:0:0:0:
40,280,102984,1,2,2:0:0:0:
40,280,103068,2,0,P|44:244|60:216,1,65,0|0,3:0|2:0,0:0:0:0:
108,68,103405,2,0,L|172:100,1,65,8|4,0:0|3:0,0:0:0:0:
48,144,103742,2,0,P|24:112|16:84,1,65,0|0,2:0|3:0,0:0:0:0:
144,176,104079,1,4,3:0:0:0:
144,176,104248,2,0,P|200:168|248:112,1,130,8|0,0:0|3:0,0:0:0:0:
308,16,104753,5,8,0:0:0:0:
319,22,104838,1,2,0:2:0:0:
329,28,104922,1,2,0:2:0:0:
340,34,105006,1,2,0:2:0:0:
351,41,105091,2,0,L|380:58,3,32.5,2|2|2|2,0:2|0:2|0:2|0:2,0:0:0:0:
390,63,105428,6,0,P|456:60|508:24,1,130,4|4,0:0|3:0,0:0:0:0:
452,212,106102,2,0,P|451:284|480:332,1,130,8|0,0:0|3:0,0:0:0:0:
336,284,106607,1,2,2:0:0:0:
336,284,106692,1,2,2:0:0:0:
336,284,106776,2,0,L|216:332,1,130,4|4,0:0|3:0,0:0:0:0:
70,275,107282,1,8,0:0:0:0:
70,275,107619,2,0,P|60:320|64:344,2,65,4|8|4,3:0|0:0|3:0,0:0:0:0:
124,172,108124,6,0,P|148:104|128:48,1,130,4|0,0:3|3:0,0:0:0:0:
48,108,108630,1,0,3:0:0:0:
124,172,108798,2,0,L|248:212,1,130,8|0,0:0|3:0,0:0:0:0:
304,304,109304,1,0,3:0:0:0:
220,372,109473,6,0,P|169:337|150:272,1,130,4|0,3:0|3:0,0:0:0:0:
242,284,109978,2,0,L|304:304,1,65,0|8,3:0|0:0,0:0:0:0:
408,360,110315,2,0,P|452:352|472:336,2,65,0|0|0,3:0|2:0|3:0,0:0:0:0:
396,256,110821,6,0,P|402:187|444:144,1,130,0|0,3:0|3:0,0:0:0:0:
368,72,111327,1,0,3:0:0:0:
272,88,111495,2,0,L|208:72,1,65,8|8,0:0|0:0,0:0:0:0:
368,72,111832,1,4,3:0:0:0:
300,168,112001,2,0,P|232:184|176:164,1,130,8|0,0:0|3:0,0:0:0:0:
88,96,112506,2,0,P|80:60|84:24,1,65,4|0,3:0|3:0,0:0:0:0:
12,144,112843,1,8,0:0:0:0:
12,144,113012,2,0,L|116:224,1,130,8|0,0:0|3:0,0:0:0:0:
68,316,113518,6,0,L|136:324,1,65,8|8,0:0|0:0,0:0:0:0:
224,248,113855,1,0,3:0:0:0:
224,248,114023,1,0,3:0:0:0:
292,328,114192,6,0,L|345:285,1,65,8|8,0:0|0:0,0:0:0:0:
354,169,114529,1,0,3:0:0:0:
354,169,114697,1,0,3:0:0:0:
440,228,114866,5,0,3:0:0:0:
444,72,115540,1,0,3:0:0:0:
290,92,116214,5,4,0:2:0:0:
144,40,116551,1,0,3:0:0:0:
32,148,116888,2,0,P|36:208|84:256,1,130,2|0,0:2|2:0,0:0:0:0:
182,195,117394,1,2,2:0:0:0:
182,195,117478,1,2,2:0:0:0:
182,195,117562,2,0,L|124:168,1,65,0|0,3:0|2:0,0:0:0:0:
36,364,118068,2,0,L|104:336,1,65,4|2,3:0|0:2,0:0:0:0:
252,324,118574,1,0,0:0:0:0:
252,324,118742,1,8,2:0:0:0:
252,324,118911,6,0,P|256:264|308:220,1,130,0|0,3:0|3:0,0:0:0:0:
452,196,119585,1,2,0:2:0:0:
368,320,119922,5,0,2:0:0:0:
306,220,120091,1,2,2:0:0:0:
306,220,120175,1,2,2:0:0:0:
306,220,120259,2,0,P|272:176|276:104,1,130,4|0,3:0|2:0,0:0:0:0:
232,256,120933,1,8,0:0:0:0:
348,148,121270,1,4,2:0:0:0:
300,296,121607,5,0,3:0:0:0:
232,256,121776,1,0,3:0:0:0:
160,288,121944,1,0,3:0:0:0:
92,248,122113,1,0,3:0:0:0:
116,372,122282,2,2,P|208:344|232:256,1,195,4|2,0:2|2:0,0:0:0:0:
200,158,122956,5,0,3:0:0:0:
161,89,123125,1,0,3:0:0:0:
82,81,123293,1,0,3:0:0:0:
43,12,123462,1,0,3:0:0:0:
2,131,123631,2,2,P|95:152|160:88,1,195,4|2,0:2|2:0,0:0:0:0:
161,89,124304,5,4,3:0:0:0:
316,116,124641,1,0,3:0:0:0:
472,120,124978,1,2,0:2:0:0:
330,52,125315,2,0,L|316:116,1,65,0|8,3:0|2:0,0:0:0:0:
376,232,125652,6,0,L|420:280,1,65,8|8,0:0|0:0,0:0:0:0:
276,168,125989,2,0,L|316:116,1,65,0|0,3:0|3:0,0:0:0:0:
376,232,126327,2,0,L|316:256,1,65,2|0,0:2|3:0,0:0:0:0:
184,248,126664,1,0,0:0:0:0:
276,168,126832,1,8,0:0:0:0:
268,312,127001,6,0,P|207:351|152:348,1,130,4|0,0:2|3:0,0:0:0:0:
8,288,127675,2,0,P|72:284|114:237,1,130,2|0,0:2|2:0,0:0:0:0:
88,124,128180,1,2,2:0:0:0:
88,124,128265,1,2,2:0:0:0:
88,124,128349,2,0,L|32:92,1,65,0|0,3:0|2:0,0:0:0:0:
276,184,128855,2,0,L|332:152,1,65,4|2,3:0|0:2,0:0:0:0:
184,100,129360,1,0,2:0:0:0:
184,100,129529,1,8,2:0:0:0:
184,100,129697,6,0,P|161:166|176:224,1,130,0|0,3:0|3:0,0:0:0:0:
288,332,130371,1,2,0:2:0:0:
436,280,130709,2,0,P|488:234|504:176,1,130,0|0,0:0|3:0,0:0:0:0:
444,96,131214,1,8,2:0:0:0:
359,154,131383,2,0,L|412:192,2,65,0|4|8,2:0|3:0|0:0,0:0:0:0:
208,12,132057,1,4,2:0:0:0:
208,12,132394,5,0,3:0:0:0:
212,92,132562,1,0,3:0:0:0:
140,128,132731,1,0,3:0:0:0:
136,48,132899,1,0,3:0:0:0:
288,44,133068,2,2,P|296:120|205:180,1,195,4|2,0:2|2:0,0:0:0:0:
66,255,133742,5,0,3:0:0:0:
128,290,133910,1,0,3:0:0:0:
200,252,134079,1,0,3:0:0:0:
137,203,134247,1,0,3:0:0:0:
46,324,134416,2,2,P|103:374|208:331,1,195,4|2,0:2|2:0,0:0:0:0:
205,337,135091,5,4,3:0:0:0:
356,372,135428,1,0,3:0:0:0:
428,232,135765,1,2,0:2:0:0:
307,329,136102,2,0,L|356:372,1,65,0|0,2:0|3:0,0:0:0:0:
472,312,136439,2,0,P|510:253|508:196,1,130,0|2,3:0|0:2,0:0:0:0:
340,80,137113,5,8,0:0:0:0:
388,152,137282,1,8,0:0:0:0:
472,32,137450,1,8,0:0:0:0:
388,11,137619,1,8,0:0:0:0:
252,60,137787,6,0,P|264:124|320:168,2,130,4|0|2,0:0|3:0|0:2,0:0:0:0:
472,116,138798,1,0,2:0:0:0:
388,248,139135,2,0,P|360:268|332:280,1,65,0|8,3:0|2:0,0:0:0:0:
232,308,139473,1,0,2:0:0:0:
311,364,139641,1,4,3:0:0:0:
408,352,139810,2,0,P|472:312|491:261,1,130,2|0,0:2|2:0,0:0:0:0:
376,144,140484,6,0,L|256:200,1,130,0|0,3:0|3:0,0:0:0:0:
92,324,141158,1,2,0:2:0:0:
24,184,141495,1,0,2:0:0:0:
112,56,141832,2,0,P|164:24|232:32,1,130,0|0,3:0|3:0,0:0:0:0:
164,172,142506,5,2,0:2:0:0:
112,244,142675,1,8,0:0:0:0:
272,196,142843,1,8,0:0:0:0:
220,268,143012,1,8,0:0:0:0:
336,264,143180,6,0,P|406:251|452:216,1,130,4|0,0:2|3:0,0:0:0:0:
352,96,143855,1,2,0:2:0:0:
484,12,144192,2,0,P|500:48|496:80,1,65,0|8,2:0|2:0,0:0:0:0:
428,152,144529,2,0,P|356:188|308:184,1,130,0|0,3:0|2:0,0:0:0:0:
260,36,145203,1,2,0:2:0:0:
260,36,145540,2,0,L|200:64,1,65,0|8,2:0|2:0,0:0:0:0:
116,144,145877,6,0,P|91:74|44:44,1,130,0|0,3:0|3:0,0:0:0:0:
44,200,146551,2,0,P|112:232|172:220,1,130,2|0,0:2|2:0,0:0:0:0:
316,184,147225,2,0,L|376:220,2,65,0|0|0,3:0|0:0|2:0,0:0:0:0:
225,144,147731,1,0,3:0:0:0:
304,88,147900,2,0,L|356:44,1,65,8|4,0:0|0:3,0:0:0:0:
316,184,148237,2,0,L|420:96,1,130,8|4,0:0|0:0,0:0:0:0:
256,192,148658,12,8,150596,0:0:0:0:
396,35,159360,6,0,L|396:99,1,65,0|0,3:0|3:0,0:0:0:0:
396,100,160034,6,0,L|396:167,1,65,8|0,0:0|3:0,0:0:0:0:
396,165,160709,6,0,L|396:231,1,65,0|0,3:0|3:0,0:0:0:0:
396,308,161046,2,0,L|396:372,2,65,0|0|8,3:0|3:0|0:0,0:0:0:0:
396,230,161551,1,4,3:0:0:0:
311,279,161720,2,0,L|247:303,1,65,8|0,0:0|3:0,0:0:0:0:
136,364,162057,6,0,P|72:342|40:292,1,130,4|0,0:0|3:0,0:0:0:0:
52,176,162562,1,0,3:0:0:0:
112,116,162731,2,0,L|164:76,1,65,8|0,0:0|3:0,0:0:0:0:
65,40,163068,2,0,L|13:80,1,65,0|0,3:0|3:0,0:0:0:0:
52,176,163405,2,0,P|108:200|172:176,1,130,4|0,3:0|3:0,0:0:0:0:
252,112,163911,1,0,3:0:0:0:
336,172,164079,2,0,L|400:188,1,65,8|0,0:0|3:0,0:0:0:0:
340,60,164416,2,0,L|385:12,1,65,8|0,0:0|3:0,0:0:0:0:
252,112,164753,6,0,P|240:184|264:236,1,130,4|0,3:0|3:0,0:0:0:0:
196,304,165259,1,0,3:0:0:0:
120,364,165428,2,0,P|52:371|3:337,1,130,8|0,0:0|3:0,0:0:0:0:
132,236,165933,1,0,3:0:0:0:
236,220,166102,2,0,P|296:240|336:292,1,130,4|0,3:0|3:0,0:0:0:0:
416,356,166607,1,0,3:0:0:0:
484,276,166776,2,0,L|508:216,1,65,8|0,0:0|3:0,0:0:0:0:
380,188,167113,2,0,L|340:137,1,65,8|0,0:0|3:0,0:0:0:0:
268,44,167450,6,0,P|212:16|144:24,1,130,4|0,3:0|3:0,0:0:0:0:
61,78,167956,1,0,3:0:0:0:
16,144,168124,2,0,L|36:212,2,65,8|0|0,0:0|3:0|3:0,0:0:0:0:
61,78,168630,1,0,3:0:0:0:
136,168,168798,2,0,P|137:238|100:292,1,130,4|0,3:0|3:0,0:0:0:0:
24,352,169304,1,0,3:0:0:0:
155,366,169473,2,0,L|220:373,1,65,8|0,0:0|3:0,0:0:0:0:
105,287,169810,2,0,L|171:295,1,65,8|0,0:0|3:0,0:0:0:0:
248,224,170147,6,0,P|296:272|314:331,1,130,4|0,3:2|3:0,0:0:0:0:
400,272,170652,1,0,3:0:0:0:
480,204,170821,2,0,L|472:136,1,65,8|0,0:0|3:0,0:0:0:0:
384,44,171158,2,0,L|391:108,1,65,0|0,3:0|3:0,0:0:0:0:
275,95,171495,2,0,P|206:102|152:72,1,130,4|0,3:0|3:0,0:0:0:0:
229,11,172001,1,0,3:0:0:0:
154,74,172169,2,0,L|116:128,1,65,8|0,0:0|3:0,0:0:0:0:
80,16,172506,2,0,L|41:69,1,65,8|0,0:0|3:0,0:0:0:0:
21,172,172843,6,0,P|68:221|127:232,1,130,4|0,3:0|3:0,0:0:0:0:
205,160,173349,1,0,3:0:0:0:
224,264,173518,2,0,L|184:316,1,65,8|0,0:0|3:0,0:0:0:0:
84,344,173855,2,0,P|55:324|40:296,1,65,0|0,3:0|3:0,0:0:0:0:
127,231,174192,2,0,P|173:177|227:163,1,130,4|0,3:0|3:0,0:0:0:0:
296,240,174697,1,0,3:0:0:0:
400,244,174866,2,0,L|464:268,1,65,8|0,0:0|3:0,0:0:0:0:
348,328,175203,2,0,L|412:352,1,65,8|0,0:0|3:0,0:0:0:0:
460,266,175540,6,0,P|496:198|492:144,1,130,4|0,3:0|3:0,0:0:0:0:
430,64,176046,1,0,3:0:0:0:
344,96,176214,2,0,L|284:64,1,65,8|0,0:0|3:0,0:0:0:0:
179,21,176551,2,0,L|208:80,1,65,0|0,3:0|3:0,0:0:0:0:
268,180,176888,2,0,P|335:190|391:161,1,130,4|0,3:0|3:0,0:0:0:0:
268,180,177394,1,0,3:0:0:0:
304,264,177562,2,0,L|348:316,1,65,8|0,0:0|3:0,0:0:0:0:
188,272,177900,2,0,L|232:324,1,65,8|0,0:0|3:0,0:0:0:0:
136,188,178237,6,0,P|94:244|95:302,1,130,4|0,3:0|3:0,0:0:0:0:
16,368,178742,1,0,3:0:0:0:
94,301,178911,2,0,L|36:264,1,65,8|0,0:0|3:0,0:0:0:0:
136,188,179248,2,0,L|200:164,1,65,0|0,3:0|3:0,0:0:0:0:
336,236,179585,5,2,0:3:0:0:
336,236,182282,5,4,0:2:0:0:
448,344,182619,1,0,3:0:0:0:
485,192,182956,1,2,0:2:0:0:
420,52,183293,6,0,P|364:8|308:4,1,130,0|0,2:0|3:0,0:0:0:0:
316,140,183798,2,0,P|260:136|204:92,1,130,0|4,2:0|3:0,0:0:0:0:
110,20,184304,1,2,0:2:0:0:
110,20,184641,2,0,P|91:52|68:68,1,65,0|8,2:0|2:0,0:0:0:0:
112,160,184978,5,0,3:0:0:0:
169,373,185315,1,0,3:0:0:0:
246,238,185652,1,2,0:2:0:0:
34,295,185989,1,0,2:0:0:0:
169,373,186327,2,0,P|236:372|292:344,1,130,0|0,3:0|2:0,0:0:0:0:
404,316,186832,2,0,L|468:340,1,65,0|8,3:0|0:0,0:0:0:0:
321,224,187338,1,4,2:0:0:0:
400,104,187675,5,0,3:0:0:0:
472,72,187843,1,0,3:0:0:0:
380,20,188012,1,0,3:0:0:0:
319,70,188180,1,0,3:0:0:0:
365,178,188349,2,2,P|464:152|472:72,1,195,4|2,0:2|2:0,0:0:0:0:
283,143,189023,5,0,3:0:0:0:
211,175,189191,1,0,3:0:0:0:
303,227,189360,1,0,3:0:0:0:
365,178,189528,1,0,3:0:0:0:
319,70,189697,2,2,P|219:96|210:174,1,195,4|2,0:2|2:0,0:0:0:0:
211,175,190371,5,4,3:0:0:0:
144,256,190540,1,2,2:0:0:0:
144,256,190624,1,2,2:0:0:0:
144,256,190709,2,0,P|93:279|20:264,1,130,0|2,3:0|0:2,0:0:0:0:
48,113,191383,2,0,L|76:172,1,65,0|0,2:0|3:0,0:0:0:0:
144,256,191720,2,0,P|128:320|88:368,1,130,8|4,0:0|3:0,0:0:0:0:
216,348,192225,5,8,0:0:0:0:
258,240,192394,1,8,0:0:0:0:
144,256,192562,1,4,3:0:0:0:
216,348,192731,2,0,L|284:360,1,65,8|8,0:0|0:0,0:0:0:0:
364,232,193068,6,0,P|394:168|378:112,1,130,4|0,0:2|3:0,0:0:0:0:
184,152,193742,1,2,0:2:0:0:
364,232,194079,2,0,L|430:236,2,65,0|8|0,2:0|2:0|3:0,0:0:0:0:
240,220,194585,2,0,B|175:250|165:322,1,130,0|4,2:0|0:3,0:0:0:0:
268,322,195091,1,2,0:2:0:0:
76,348,195428,2,0,B|46:323|34:300,1,65,0|8,2:0|2:0,0:0:0:0:
60,200,195765,6,0,B|90:225|102:248,2,65,0|0|0,3:0|2:0|3:0,0:0:0:0:
4,12,196439,1,2,0:2:0:0:
128,104,196776,2,0,P|164:112|192:112,1,65,0|8,2:0|2:0,0:0:0:0:
284,184,197113,2,0,P|334:132|348:76,2,130,0|0|8,3:0|2:0|0:0,0:0:0:0:
188,16,198124,1,4,2:0:0:0:
168,200,198461,5,0,3:0:0:0:
129,267,198630,1,0,3:0:0:0:
245,198,198798,1,0,3:0:0:0:
206,131,198967,1,0,3:0:0:0:
206,267,199135,2,2,P|288:264|318:168,1,195,4|2,0:2|2:0,0:0:0:0:
151,212,199810,5,0,3:0:0:0:
206,267,199979,1,0,3:0:0:0:
169,137,200147,1,0,3:0:0:0:
94,157,200316,1,0,3:0:0:0:
227,193,200484,2,2,P|245:113|160:59,1,195,4|2,0:2|2:0,0:0:0:0:
160,59,201158,5,4,3:0:0:0:
20,124,201495,1,0,3:0:0:0:
36,280,201832,2,0,P|56:344|112:372,1,130,2|0,0:2|3:0,0:0:0:0:
188,312,202338,1,0,3:0:0:0:
280,360,202506,2,0,L|344:372,2,65,8|4|4,0:0|0:3|3:0,0:0:0:0:
432,216,203180,2,0,L|496:228,1,65,8|4,0:0|3:0,0:0:0:0:
336,128,203518,2,0,L|400:140,1,65,8|8,0:0|3:0,0:0:0:0:
310,217,203855,6,0,P|256:178|245:117,1,130,4|0,0:0|3:0,0:0:0:0:
276,20,204360,2,0,L|340:32,1,65,0|4,0:0|0:2,0:0:0:0:
80,356,205203,6,0,P|26:317|15:256,1,130,4|0,3:0|2:0,0:0:0:0:
46,159,205708,2,0,L|110:171,1,65,0|4,3:0|0:2,0:0:0:0:
184,308,206214,1,0,2:0:0:0:
272,364,206383,6,0,L|308:368,2,32.5,2|2|0,2:0|2:0|3:0,0:0:0:0:
307,209,206888,1,0,3:0:0:0:
464,200,207225,2,0,P|456:270|421:318,1,130,2|0,0:2|2:0,0:0:0:0:
336,268,207731,2,0,L|307:209,1,65,0|0,2:0|3:0,0:0:0:0:
432,60,208237,2,0,P|472:44|492:20,2,65,0|4|2,2:0|3:0|0:2,0:0:0:0:
284,108,208911,6,0,P|224:76|204:20,1,130,0|0,2:0|3:0,0:0:0:0:
301,24,209416,1,0,3:0:0:0:
363,100,209585,2,0,L|416:136,1,65,0|0,3:0|3:0,0:0:0:0:
272,256,209922,2,2,P|204:184|216:96,1,195,4|2,0:2|2:0,0:0:0:0:
112,84,210596,5,0,3:0:0:0:
27,145,210765,1,0,3:0:0:0:
68,240,210933,2,0,L|114:195,1,65,0|0,3:0|3:0,0:0:0:0:
70,339,211270,2,2,P|159:310|207:226,1,195,4|2,0:2|2:0,0:0:0:0:
207,226,211944,5,4,3:0:0:0:
308,348,212282,2,0,B|372:372|436:352,1,130,0|2,3:0|0:2,0:0:0:0:
390,174,212956,2,0,P|334:182|286:234,1,130,0|8,3:0|0:0,0:0:0:0:
376,268,213461,1,8,0:0:0:0:
376,268,213546,1,8,0:0:0:0:
376,268,213630,2,8,L|408:264,3,32.5
457,244,213967,1,0,3:0:0:0:
471,133,214135,1,8,0:0:0:0:
471,133,214220,1,8,0:0:0:0:
471,133,214304,2,8,L|457:103,3,32.5
432,58,214641,6,0,P|384:16|320:4,1,130,4|4,0:0|0:3,0:0:0:0:
224,44,215147,1,0,0:0:0:0:
152,120,215315,2,2,P|80:132|35:98,1,130,10|0,0:0|3:0,0:0:0:0:
224,44,215989,2,0,L|280:84,1,65,0|0,3:0|2:0,0:0:0:0:
240,172,216327,2,0,P|288:180|304:176,1,65,4|10,3:0|0:0,0:0:0:0:
176,320,216832,2,0,P|158:274|147:262,2,65,2|8|0,3:1|0:0|3:0,0:0:0:0:
92,328,217338,5,4,0:0:0:0:
32,244,217506,2,0,L|4:228,2,32.5,2|2|0,2:0|2:0|3:0,0:0:0:0:
92,328,217843,1,0,2:0:0:0:
148,263,218012,2,2,P|156:156|96:104,1,195,2|0,0:2|3:0,0:0:0:0:
191,172,218686,6,0,L|259:192,1,65,8|8,0:0|0:0,0:0:0:0:
336,108,219023,2,2,L|273:89,1,65,10|10,0:0|0:0,0:0:0:0:
336,189,219360,2,0,L|404:209,1,65,8|8,0:0|0:0,0:0:0:0:
485,128,219697,1,10,0:0:0:0:
485,128,219866,1,10,0:0:0:0:
485,128,220034,6,0,P|476:204|484:264,1,130,4|0,0:0|3:0,0:0:0:0:
404,327,220540,1,0,0:0:0:0:
316,272,220709,2,2,P|253:268|192:296,1,130,10|0,0:0|3:0,0:0:0:0:
72,128,221383,2,0,L|32:76,1,65,0|0,3:0|2:0,0:0:0:0:
136,60,221720,1,4,3:0:0:0:
166,159,221888,2,2,P|120:213|65:227,1,130,10|0,0:0|3:0,0:0:0:0:
16,312,222394,1,8,0:0:0:0:
72,368,222562,1,0,3:0:0:0:
162,292,222731,5,4,0:0:0:0:
236,364,222900,1,2,2:0:0:0:
236,364,222984,1,2,2:0:0:0:
236,364,223068,2,0,P|273:366|300:360,1,65,0|0,3:0|2:0,0:0:0:0:
364,276,223405,2,2,P|401:332|460:356,1,130,8|0,0:0|3:0,0:0:0:0:
461,252,223911,1,0,3:0:0:0:
396,170,224079,6,2,L|342:133,1,65,12|8,0:0|0:0,0:0:0:0:
216,104,224416,2,2,L|220:39,1,65,10|10,0:0|0:0,0:0:0:0:
256,216,224753,2,2,L|309:252,1,65,12|8,0:0|0:0,0:0:0:0:
141,195,225091,2,2,L|82:223,1,65,10|10,0:0|0:0,0:0:0:0:
