osu file format v13

[General]
AudioFilename: 69.mp3
AudioLeadIn: 0
PreviewTime: 64741
Countdown: 0
SampleSet: Normal
StackLeniency: 0.7
Mode: 0
LetterboxInBreaks: 0
WidescreenStoryboard: 0

[Editor]
Bookmarks: 13313,19027,41884,64741,81884,104741,127598,149037
DistanceSpacing: 1.1
BeatDivisor: 12
GridSize: 32
TimelineZoom: 1.2

[Metadata]
Title:Heaven Knows
TitleUnicode:Heaven Knows
Artist:The Pretty Reckless
ArtistUnicode:The Pretty Reckless
Creator:Sieg
Version:Normal
Source:
Tags:going to hell alternative rock post-grunge
BeatmapID:525834
BeatmapSetID:222215

[Difficulty]
HPDrainRate:4
CircleSize:3.8
OverallDifficulty:4
ApproachRate:5.5
SliderMultiplier:2.2
SliderTickRate:2

[Events]
//Background and Video events
0,0,"bg.jpg",0,0
Video,1167,"vid.avi"
//Break Periods
//Storyboard Layer 0 (Background)
//Storyboard Layer 1 (Fail)
//Storyboard Layer 2 (Pass)
//Storyboard Layer 3 (Foreground)
//Storyboard Sound Samples
//Background Colour Transformations
3,100,163,162,255

[TimingPoints]
7599,714.285714285714,4,1,1,80,1,0
19116,-100,4,1,1,70,0,0
24741,-100,4,1,1,100,0,0
25456,-100,4,1,1,80,0,0
30456,-100,4,1,1,100,0,0
30545,-100,4,1,1,80,0,0
39027,-100,4,1,1,100,0,0
39741,-100,4,1,1,80,0,0
40456,-100,4,1,1,100,0,0
41170,-100,4,1,1,60,0,0
53313,-100,4,1,1,100,0,0
54027,-100,4,1,1,80,0,0
59027,-100,4,1,1,100,0,0
59116,-100,4,1,1,80,0,0
64741,-100,4,1,1,100,0,0
65456,-100,4,1,1,80,0,0
70456,-100,4,1,1,100,0,0
70545,-100,4,1,1,80,0,0
76170,-100,4,1,1,50,0,0
76527,-100,4,1,1,45,0,0
76884,-100,4,1,1,40,0,0
77241,-100,4,1,1,35,0,0
77598,-100,4,1,1,30,0,0
77956,-100,4,1,1,25,0,0
78313,-100,4,1,1,20,0,0
78670,-100,4,1,1,15,0,0
79027,-100,4,1,1,80,0,0
81884,-100,4,1,1,80,0,1
87509,-100,4,1,1,80,0,0
87598,-100,4,1,1,80,0,1
87688,-100,4,1,1,80,0,0
93313,-100,4,1,1,80,0,1
98938,-100,4,1,1,80,0,0
99027,-100,4,1,1,80,0,1
99116,-100,4,1,1,80,0,0
104741,-100,4,1,1,100,0,0
105456,-100,4,1,1,80,0,0
106170,-100,4,1,1,100,0,0
106884,-100,4,1,1,80,0,0
124384,-100,4,1,2,80,0,0
124741,-100,4,1,1,100,0,0
127598,-100,4,1,1,100,0,1
127688,-100,4,1,1,80,0,1
133223,-100,4,1,1,80,0,0
133313,-100,4,1,1,80,0,1
138938,-100,4,1,1,80,0,0
139027,-100,4,1,1,80,0,1
144652,-100,4,1,1,80,0,0
144741,-100,4,1,1,80,0,1
147956,-100,4,1,1,70,0,1
148313,-100,4,1,1,60,0,1
148670,-100,4,1,1,50,0,1
149027,-100,4,1,1,40,0,1
149384,-100,4,1,1,30,0,1
149563,-100,4,1,1,30,0,0
149741,-100,4,1,1,20,0,1
149920,-100,4,1,1,60,0,0

[Colours]
Combo1 : 0,127,167
Combo2 : 0,65,106
Combo3 : 178,190,171
Combo4 : 139,0,0
Combo5 : 80,37,40
Combo6 : 54,69,79
Combo7 : 47,79,79

[HitObjects]
177,45,13313,85,4,0:3:0:0:
109,269,14027,1,8,0:2:0:0:
331,337,14741,1,4,0:3:0:0:
401,115,15456,1,8,0:2:0:0:
263,356,16170,69,4,0:3:0:0:
90,200,16884,1,8,0:2:0:0:
245,27,17598,1,4,0:3:0:0:
419,182,18313,1,8,0:2:0:0:
244,349,19027,6,0,P|197:357|132:326,1,110,4|2,0:0|2:1,0:0:0:0:
46,258,19741,1,8,0:2:0:0:
46,258,20098,1,2,0:0:0:0:
43,137,20456,2,0,L|72:20,2,110,4|2|8,0:3|2:1|0:2,0:0:0:0:
148,196,21527,2,0,L|210:183,1,55,2|0,0:1|2:0,0:0:0:0:
256,137,21884,6,0,B|269:109|256:93|256:86|237:57|256:28,1,110,4|2,0:3|2:1,0:0:0:0:
372,56,22598,1,8,0:2:0:0:
485,99,22956,2,0,L|477:234,1,110,2|4,0:1|0:3,0:0:0:0:
437,322,23670,2,0,P|409:312|381:320,1,55,2|0,0:1|2:0,0:0:0:0:
320,348,24027,2,0,P|269:369|207:361,1,110,8|2,0:2|2:1,0:0:0:0:
102,321,24741,53,4,0:3:0:0:
102,321,25098,1,4,0:3:0:0:
11,240,25456,2,0,L|27:65,1,165,8|0,0:3|2:0,0:0:0:0:
76,25,26170,2,0,P|140:58|185:51,1,110,4|2,0:3|2:1,0:0:0:0:
212,169,26884,2,0,P|265:129|367:159,1,165,8|0,0:3|2:0,0:0:0:0:
414,105,27598,70,0,P|458:74|532:72,2,110,4|2|8,0:3|2:1|0:3,0:0:0:0:
501,188,28670,1,2,0:0:0:0:
423,281,29027,2,0,L|372:299,1,55,4|0,0:3|2:0,0:0:0:0:
356,229,29384,2,0,L|246:262,1,110,2|8,0:1|0:3,0:0:0:0:
169,172,30098,2,0,B|180:118,1,55,6|0,0:0|2:0,0:0:0:0:
182,45,30456,6,0,P|97:21|35:69,1,165,4|0,0:3|2:0,0:0:0:0:
25,132,31170,2,0,B|-1:265,1,110,8|2,0:3|0:0,0:0:0:0:
56,348,31884,1,4,0:3:0:0:
56,348,32241,1,2,0:0:0:0:
138,259,32598,2,0,B|172:253|187:211|187:211|163:147|196:101,1,165,8|0,0:3|2:0,0:0:0:0:
200,50,33313,70,0,P|245:78|256:132,1,110,4|2,0:3|2:1,0:0:0:0:
254,250,34027,1,8,0:3:0:0:
319,351,34384,2,0,P|352:349|379:328,1,55,2|0,0:0|2:0,0:0:0:0:
402,273,34741,2,0,P|469:260|489:225,1,110,4|2,0:3|2:1,0:0:0:0:
498,107,35456,1,8,0:3:0:0:
388,56,35813,2,0,L|321:44,1,55,2|0,0:0|2:0,0:0:0:0:
266,71,36170,38,0,P|313:104|315:162,1,110,4|2,0:3|2:1,0:0:0:0:
283,268,36884,1,8,0:3:0:0:
193,351,37241,2,0,P|160:349|133:328,1,55,2|0,0:0|2:0,0:0:0:0:
110,273,37598,2,0,P|43:260|23:225,1,110,4|2,0:3|2:1,0:0:0:0:
14,106,38313,2,0,P|81:119|101:154,1,110,8|2,0:3|2:1,0:0:0:0:
184,64,39027,37,4,0:3:0:0:
280,285,39741,1,2,0:0:0:0:
257,44,40456,1,4,0:3:0:0:
202,280,41170,1,2,0:0:0:0:
327,72,41884,86,0,P|375:41|437:43,1,110,4|2,0:0|2:1,0:0:0:0:
412,160,42598,1,10,0:2:0:0:
412,160,42956,1,2,0:0:0:0:
440,277,43313,2,0,L|318:304,1,110,4|2,0:3|2:1,0:0:0:0:
277,192,44027,2,0,L|156:161,1,110,10|2,0:2|2:1,0:0:0:0:
89,75,44741,6,0,P|34:112|27:163,1,110,4|2,0:3|2:1,0:0:0:0:
20,272,45456,2,0,L|13:332,2,55,10|0|2,0:2|2:0|0:0,0:0:0:0:
132,227,46170,1,4,0:3:0:0:
224,148,46527,2,0,L|231:88,1,55,2|0,0:0|2:0,0:0:0:0:
243,22,46884,2,0,P|290:49|298:113,1,110,10|2,0:2|2:1,0:0:0:0:
291,220,47598,70,0,L|234:264,2,55,4|0|2,0:3|2:0|0:0,0:0:0:0:
376,305,48313,2,0,P|437:338|484:336,1,110,10|2,0:2|2:1,0:0:0:0:
460,216,49027,1,4,0:3:0:0:
359,149,49384,2,0,L|290:160,1,55,2|0,0:0|2:0,0:0:0:0:
235,179,49741,2,0,P|271:125|267:62,1,110,10|2,0:2|2:1,0:0:0:0:
152,94,50456,5,4,0:3:0:0:
109,207,50813,2,0,L|129:277,2,55,2|0|10,0:0|2:0|0:2,0:0:0:0:
3,147,51527,1,2,0:0:0:0:
61,41,51884,2,0,L|185:26,1,110,4|2,0:3|2:1,0:0:0:0:
221,137,52598,1,10,0:2:0:0:
341,128,52956,2,0,L|389:96,1,55,2|0,0:0|2:0,0:0:0:0:
336,46,53313,70,0,P|391:46|444:13,1,110,4|4,0:3|0:3,0:0:0:0:
483,133,54027,2,0,B|489:183|471:215|471:215|499:241|511:298,1,165,10|0,0:3|2:0,0:0:0:0:
438,305,54741,2,0,P|409:257|351:242,1,110,4|2,0:3|2:1,0:0:0:0:
282,336,55456,2,0,P|205:313|111:342,1,165,10|0,0:3|2:0,0:0:0:0:
53,326,56170,70,0,P|44:277|-4:207,2,110,4|2|10,0:3|2:1|0:3,0:0:0:0:
127,230,57241,1,2,0:0:0:0:
246,211,57598,2,0,L|308:200,1,55,4|0,0:3|2:0,0:0:0:0:
337,140,57956,2,0,P|394:142|448:106,1,110,2|10,0:0|0:3,0:0:0:0:
365,21,58670,2,0,B|299:29,1,55,2|0,0:0|2:0,0:0:0:0:
256,75,59027,6,0,B|236:117|256:141|256:151|281:197|256:238,1,165,4|0,0:3|2:0,0:0:0:0:
193,203,59741,2,0,P|180:161|101:130,1,110,10|2,0:3|2:1,0:0:0:0:
9,93,60456,1,4,0:3:0:0:
9,93,60813,1,2,0:0:0:0:
38,210,61170,2,0,B|60:255|43:299|43:299|5:324|11:374,1,165,10|0,0:3|2:0,0:0:0:0:
83,360,61884,70,0,P|145:354|192:330,1,110,4|2,0:3|2:1,0:0:0:0:
288,267,62598,1,10,0:3:0:0:
173,227,62956,2,0,L|191:163,1,55,2|0,0:0|2:0,0:0:0:0:
216,108,63313,2,0,P|265:70|327:78,1,110,4|2,0:3|2:1,0:0:0:0:
428,97,64027,1,10,0:3:0:0:
465,212,64384,2,0,L|482:280,1,55,2|0,0:0|2:0,0:0:0:0:
461,335,64741,38,0,P|441:281|392:253,1,110,4|4,0:3|0:3,0:0:0:0:
285,299,65456,2,0,P|220:348|150:307,1,165,10|0,0:3|2:0,0:0:0:0:
216,275,66170,2,0,P|164:241|114:252,1,110,4|2,0:3|2:1,0:0:0:0:
2,273,66884,2,0,L|19:97,1,165,10|0,0:3|2:0,0:0:0:0:
91,104,67598,70,0,L|80:217,2,110,4|2|10,0:3|2:1|0:3,0:0:0:0:
194,44,68670,1,2,0:0:0:0:
188,166,69027,2,0,L|182:234,1,55,4|0,0:3|2:0,0:0:0:0:
186,293,69384,2,0,P|240:266|254:218,1,110,2|10,0:0|0:3,0:0:0:0:
268,102,70098,1,2,0:0:0:0:
361,24,70456,6,0,B|397:52|453:28|453:28|499:55|492:103,1,165,4|0,0:3|2:0,0:0:0:0:
428,112,71170,2,0,P|379:128|347:179,1,110,10|2,0:3|2:1,0:0:0:0:
457,226,71884,1,4,0:3:0:0:
457,226,72241,1,2,0:0:0:0:
412,338,72598,2,0,L|247:368,1,165,10|0,0:3|2:0,0:0:0:0:
238,296,73313,70,0,L|122:285,1,110,4|2,0:3|2:1,0:0:0:0:
31,358,74027,1,10,0:3:0:0:
19,237,74384,2,0,L|30:167,1,55,2|0,0:0|2:0,0:0:0:0:
99,178,74741,2,0,P|157:186|215:152,1,110,4|2,0:3|2:1,0:0:0:0:
137,62,75456,1,10,0:3:0:0:
255,36,75813,1,2,0:0:0:0:
256,192,76170,12,4,79027,0:3:0:0:
225,157,80456,5,4,0:3:0:0:
286,52,80813,1,8,0:3:0:0:
407,46,81170,2,0,L|471:65,1,55
429,126,81527,2,0,L|485:162,1,55,8|0,0:3|0:0,0:0:0:0:
435,215,81884,54,0,L|467:331,1,110,4|0,0:0|2:0,0:0:0:0:
343,328,82598,2,0,P|298:295|228:294,1,110,8|0,0:3|0:0,0:0:0:0:
216,171,83313,2,0,P|281:178|351:112,2,165,2|8|8,0:0|0:3|0:3,0:0:0:0:
122,94,84741,6,0,P|71:70|2:82,1,110,4|0,0:0|2:0,0:0:0:0:
50,192,85456,1,8,0:3:0:0:
50,192,85813,1,0,0:0:0:0:
12,306,86170,2,0,L|121:338,1,110,0|0,0:0|2:0,0:0:0:0:
184,312,86706,2,0,L|172:258,2,55,0|8|8,0:0|0:3|0:3,0:0:0:0:
255,311,87241,2,0,L|267:365,1,55,0|8,0:0|0:3,0:0:0:0:
336,348,87598,70,0,P|384:312|447:317,1,110,4|0,0:0|2:0,0:0:0:0:
483,201,88313,2,0,B|515:146|501:89|501:89|432:71|418:1,1,220,8|0,0:3|0:0,0:0:0:0:
305,43,89384,1,0,2:0:0:0:
376,140,89741,2,0,B|364:274,1,110,8|0,0:3|0:0,0:0:0:0:
274,328,90456,6,0,L|280:262,1,55,0|0,0:0|0:0,0:0:0:0:
207,264,90813,2,0,L|213:198,1,55,2|0,0:0|0:0,0:0:0:0:
140,206,91170,2,0,L|149:90,1,110,8|0,0:3|2:0,0:0:0:0:
256,41,91884,2,0,L|309:28,2,55,0|0|8,0:0|0:0|0:3,0:0:0:0:
232,108,92420,1,8,0:3:0:0:
296,138,92598,2,0,L|368:121,2,55,0|0|8,0:0|0:0|0:3,0:0:0:0:
302,259,93313,6,0,P|264:294|193:290,1,110,4|0,0:0|2:0,0:0:0:0:
131,203,94027,2,0,L|116:90,1,110,8|0,0:3|0:0,0:0:0:0:
36,185,94741,2,0,L|14:18,2,165,0|8|8,0:0|0:3|0:3,0:0:0:0:
57,304,96170,70,0,P|95:339|166:335,1,110,4|0,0:0|2:0,0:0:0:0:
146,220,96884,1,8,0:3:0:0:
146,220,97241,1,0,0:0:0:0:
132,99,97598,2,0,P|164:55|216:43,1,110,0|0,0:0|2:0,0:0:0:0:
287,57,98134,2,0,L|341:34,2,55,0|8|8,0:0|0:3|0:3,0:0:0:0:
261,123,98670,2,0,L|207:146,1,55,0|8,0:0|0:3,0:0:0:0:
190,213,99027,70,0,L|83:256,1,110,4|0,0:0|2:0,0:0:0:0:
197,346,99741,2,0,B|246:315|301:337|301:337|317:281|385:265,1,220,8|0,0:3|0:0,0:0:0:0:
488,360,100813,1,0,2:0:0:0:
501,217,101170,2,0,B|511:98,1,110,8|0,0:3|0:0,0:0:0:0:
403,49,101884,85,0,0:0:0:0:
344,154,102241,1,0,2:0:0:0:
282,51,102598,1,8,0:3:0:0:
135,247,103313,21,0,0:0:0:0:
135,126,103670,1,0,2:0:0:0:
30,187,104027,1,8,0:3:0:0:
228,327,104741,5,4,0:3:0:0:
291,93,105456,1,8,0:3:0:0:
301,333,106170,1,4,0:3:0:0:
221,107,106884,1,8,0:3:0:0:
361,305,107598,6,0,P|411:343|472:357,1,110,4|2,0:3|2:1,0:0:0:0:
461,232,108313,1,8,0:2:0:0:
461,232,108670,1,2,0:0:0:0:
346,192,109027,2,0,P|287:218|260:256,1,110,4|2,0:3|2:1,0:0:0:0:
187,349,109741,2,0,P|130:353|65:321,1,110,8|2,0:2|2:1,0:0:0:0:
149,233,110456,6,0,B|166:124,1,110,4|2,0:3|2:1,0:0:0:0:
46,140,111170,2,0,L|38:27,1,110,8|2,0:2|2:1,0:0:0:0:
157,12,111884,1,4,0:3:0:0:
182,130,112241,2,0,L|192:188,1,55,2|0,0:0|2:0,0:0:0:0:
219,252,112598,2,0,P|260:209|261:161,1,110,8|2,0:2|2:1,0:0:0:0:
318,53,113313,69,4,0:3:0:0:
438,67,113670,2,0,L|493:80,2,55,2|0|8,0:0|2:0|0:2,0:0:0:0:
390,178,114384,2,0,P|427:215|429:293,1,110,2|4,0:0|0:3,0:0:0:0:
315,273,115098,2,0,L|249:295,1,55,2|0,0:0|2:0,0:0:0:0:
256,218,115456,2,0,B|269:190|256:174|256:167|237:138|256:109,1,110,8|2,0:2|2:1,0:0:0:0:
173,21,116170,5,4,0:3:0:0:
129,133,116527,2,0,L|119:192,2,55,2|0|10,0:0|2:0|0:2,0:0:0:0:
55,37,117241,1,2,0:0:0:0:
18,152,117598,2,0,L|-2:264,1,110,4|2,0:3|2:1,0:0:0:0:
86,343,118313,1,10,0:2:0:0:
203,314,118670,2,0,L|250:281,1,55,2|0,0:0|2:0,0:0:0:0:
197,233,119027,6,0,P|252:233|305:200,1,110,4|2,0:3|2:1,0:0:0:0:
218,115,119741,1,10,0:2:0:0:
311,38,120098,2,0,P|366:38|419:71,1,110,2|4,0:0|0:3,0:0:0:0:
450,179,120813,2,0,L|467:247,1,55,2|0,0:0|2:0,0:0:0:0:
445,301,121170,2,0,P|425:247|376:219,1,110,10|2,0:2|2:1,0:0:0:0:
264,192,121884,70,0,P|243:135|253:80,1,110,4|2,0:3|2:1,0:0:0:0:
150,18,122598,2,0,P|126:74|81:107,1,110,10|2,0:2|2:1,0:0:0:0:
10,196,123313,2,0,L|127:217,1,110,4|2,0:3|2:1,0:0:0:0:
144,333,124027,2,0,L|262:320,1,110,10|4,0:2|2:2,0:0:0:0:
292,206,124741,85,4,2:2:0:0:
256,59,127598,86,0,B|236:101|256:125|256:135|284:179|256:222,1,165,4|0,0:3|2:0,0:0:0:0:
191,178,128313,2,0,P|172:230|119:260,1,110,8|2,0:3|2:1,0:0:0:0:
76,151,129027,1,4,0:3:0:0:
76,151,129384,1,2,0:0:0:0:
113,37,129741,2,0,P|187:29|282:73,1,165,8|0,0:3|2:0,0:0:0:0:
319,117,130456,70,0,P|366:153|429:160,1,110,4|2,0:3|2:1,0:0:0:0:
458,52,131170,1,8,0:3:0:0:
508,162,131527,2,0,L|504:221,1,55,2|0,0:0|2:0,0:0:0:0:
498,288,131884,2,0,P|461:240|412:226,1,110,4|2,0:3|2:1,0:0:0:0:
296,251,132598,1,8,0:3:0:0:
296,251,132956,1,2,0:0:0:0:
176,231,133313,38,0,B|126:225|94:243|94:243|61:210|12:205,1,165,4|0,0:3|2:0,0:0:0:0:
4,276,134027,2,0,P|51:307|67:363,1,110,8|2,0:3|2:1,0:0:0:0:
185,331,134741,2,0,P|262:331|292:299,1,110,4|2,0:3|2:1,0:0:0:0:
248,195,135456,2,0,P|288:142|389:129,1,165,8|0,0:3|2:0,0:0:0:0:
400,57,136170,70,0,P|452:33|512:45,2,110,4|2|8,0:3|2:1|0:3,0:0:0:0:
279,41,137241,1,2,0:0:0:0:
158,33,137598,2,0,L|98:40,1,55,4|0,0:3|2:0,0:0:0:0:
50,88,137956,2,0,P|114:87|163:118,1,110,2|8,0:0|0:3,0:0:0:0:
80,205,138670,2,0,L|38:253,1,55,2|0,0:0|2:0,0:0:0:0:
15,312,139027,6,0,B|61:329|97:296|97:296|138:286|180:337,1,165,4|0,0:3|2:0,0:0:0:0:
225,362,139741,2,0,P|236:308|201:258,1,110,8|2,0:3|2:1,0:0:0:0:
144,161,140456,1,4,0:3:0:0:
144,161,140813,1,2,0:0:0:0:
190,49,141170,2,0,B|223:42|252:76|252:76|253:144|300:175,1,165,8|0,0:3|2:0,0:0:0:0:
320,224,141884,70,0,P|353:184|347:129,1,110,4|2,0:3|2:1,0:0:0:0:
304,15,142598,1,8,0:3:0:0:
424,23,142956,2,0,P|453:20|482:28,1,55,2|0,0:0|2:0,0:0:0:0:
486,97,143313,2,0,L|499:228,1,110,4|2,0:3|2:1,0:0:0:0:
506,327,144027,1,8,0:3:0:0:
506,327,144384,1,2,0:0:0:0:
385,317,144741,38,0,P|327:334|265:258,1,165,4|0,0:3|2:0,0:0:0:0:
337,263,145456,2,0,P|349:210|403:182,1,110,8|0,0:3|2:1,0:0:0:0:
345,71,146170,2,0,P|324:121|267:140,1,110,4|2,0:3|2:1,0:0:0:0:
164,190,146884,2,0,P|193:250|128:322,1,165,8|0,0:3|2:0,0:0:0:0:
121,249,147598,70,0,L|15:293,2,110,4|0|4,0:3|2:0|0:0,0:0:0:0:
115,127,148670,1,0,2:0:0:0:
224,76,149027,2,0,P|283:60|347:70,2,110,4|0|0,0:3|2:0|2:1,0:0:0:0:
327,295,150456,5,4,1:1:0:0:
