osu file format v14

[General]
AudioFilename: 77.mp3
AudioLeadIn: 0
PreviewTime: 48230
Countdown: 0
SampleSet: Normal
StackLeniency: 0.7
Mode: 0
LetterboxInBreaks: 0
WidescreenStoryboard: 0

[Editor]
Bookmarks: 3848,11322,18797,33747,41222,48230,56172,74392,89809,97284,104292,112234,127184,134659
DistanceSpacing: 0.8
BeatDivisor: 4
GridSize: 4
TimelineZoom: 2

[Metadata]
Title:Fucked Up World
TitleUnicode:Fucked Up World
Artist:The Pretty Reckless
ArtistUnicode:The Pretty Reckless
Creator:-Bakari-
Version:Hopeless
Source:
Tags:F****d sieg going to hell collaboration messed f'd alexabm
BeatmapID:542023
BeatmapSetID:233562

[Difficulty]
HPDrainRate:6.5
CircleSize:4
OverallDifficulty:7
ApproachRate:8
SliderMultiplier:2.2
SliderTickRate:1

[Events]
//Background and Video events
0,0,"bg.jpg",0,0
//Break Periods
//Storyboard Layer 0 (Background)
//Storyboard Layer 1 (Fail)
//Storyboard Layer 2 (Pass)
//Storyboard Layer 3 (Foreground)
//Storyboard Sound Samples

[TimingPoints]
3848,467.184202944818,4,1,1,50,1,0
18798,-100,4,1,1,40,0,0
33747,-100,4,1,1,50,0,0
48230,-100,4,1,1,60,0,0
48697,-100,4,1,1,60,0,1
48814,-100,4,1,1,50,0,1
67385,-100,4,1,1,50,0,0
74859,-100,4,1,1,40,0,0
89809,-100,4,1,1,50,0,0
104292,-100,4,1,1,50,0,1
112001,-100,4,1,1,50,0,0
112234,-100,4,1,1,50,0,1
127184,-100,4,1,1,50,0,0

[Colours]
Combo1 : 48,10,57
Combo2 : 145,61,76
Combo3 : 112,80,103
Combo4 : 248,199,159

[HitObjects]
89,332,3848,6,0,P|70:282|23:249,1,110,12|0,0:0|2:0,0:0:0:0:
203,239,4315,2,0,P|254:223|290:178,1,110,8|0,0:0|2:0,0:0:0:0:
93,154,4782,1,8,0:0:0:0:
183,29,5015,1,0,0:0:0:0:
138,208,5249,1,8,0:0:0:0:
113,42,5483,1,0,0:0:0:0:
308,58,5716,6,0,P|258:77|225:124,1,110,8|0,0:0|2:0,0:0:0:0:
250,297,6183,2,0,P|301:281|337:236,1,110,8|0,0:0|2:0,0:0:0:0:
400,95,6651,1,8,0:0:0:0:
503,212,6884,1,0,0:0:0:0:
503,212,7001,1,0,0:0:0:0:
503,212,7118,1,8,0:0:0:0:
387,314,7351,2,0,P|356:314|323:332,1,55,0|0,0:0|2:0,0:0:0:0:
277,356,7585,6,0,P|307:294|299:243,1,110,8|0,0:0|2:0,0:0:0:0:
197,82,8052,2,0,P|167:144|175:195,1,110,8|0,0:0|2:0,0:0:0:0:
236,290,8519,1,8,0:0:0:0:
391,192,8753,1,0,0:0:0:0:
240,148,8987,1,8,0:0:0:0:
364,270,9220,1,0,0:0:0:0:
469,131,9454,6,0,L|379:63,1,110,8|0,0:0|2:0,0:0:0:0:
240,148,9921,2,0,L|117:134,1,110,8|0,0:0|2:0,0:0:0:0:
58,274,10388,1,8,0:0:0:0:
221,248,10622,1,0,0:0:0:0:
154,357,10855,1,8,0:0:0:0:
318,348,11089,1,0,0:0:0:0:
424,232,11322,6,0,P|420:192|384:132,1,110,8|0,0:0|2:0,0:0:0:0:
216,56,11790,2,0,L|100:68,1,110,8|0,0:0|2:0,0:0:0:0:
288,168,12257,1,8,0:0:0:0:
344,48,12490,1,0,0:0:0:0:
372,243,12724,2,0,B|324:287|264:283,1,110,8|0,0:0|0:0,0:0:0:0:
148,240,13191,5,8,0:0:0:0:
164,244,13658,2,0,L|172:128,1,110,8|0,0:0|2:0,0:0:0:0:
268,44,14126,2,0,L|276:168,1,110,8|0,0:0|0:0,0:0:0:0:
280,160,14476,1,0,0:0:0:0:
284,168,14593,1,8,0:0:0:0:
396,96,14826,1,0,0:0:0:0:
392,292,15060,6,0,P|352:320|280:328,1,110,8|0,0:0|2:0,0:0:0:0:
180,264,15527,2,0,L|192:380,1,110,8|0,0:0|2:0,0:0:0:0:
68,324,15994,1,8,0:0:0:0:
92,192,16228,1,0,0:0:0:0:
280,272,16461,2,0,B|336:276|384:228,1,110,8|0,0:0|0:0,0:0:0:0:
256,76,16929,6,0,B|200:72|152:120,1,110,8|0,0:0|2:0,0:0:0:0:
168,248,17396,2,0,L|60:208,1,110,8|0,0:0|2:0,0:0:0:0:
44,80,17863,2,0,L|152:120,1,110,8|0,0:0|0:0,0:0:0:0:
312,188,18330,1,8,0:0:0:0:
260,64,18564,1,0,0:0:0:0:
428,43,18797,6,0,B|476:116|476:116|474:151,1,110,6|0,0:0|2:0,0:0:0:0:
442,320,19265,2,0,B|415:235|415:235|387:215,1,110,10|0,0:0|2:0,0:0:0:0:
241,204,19732,2,0,L|132:234,1,110,10|0,0:0|0:0,0:0:0:0:
238,322,20199,2,0,L|352:349,1,110,10|0,0:0|0:0,0:0:0:0:
437,251,20666,1,6,0:0:0:0:
196,54,21133,6,0,P|141:145|11:145,1,220,10|10,0:0|0:0,0:0:0:0:
67,30,21834,1,0,0:0:0:0:
67,30,21951,1,0,0:0:0:0:
67,30,22068,1,10,0:0:0:0:
196,53,22301,1,0,0:0:0:0:
92,146,22535,6,0,P|50:182|45:243,1,110,10|0,0:0|2:0,0:0:0:0:
204,338,23002,2,0,B|94:323,1,110,10|0,0:0|2:0,0:0:0:0:
242,261,23469,2,0,L|365:231,1,110,14|0,0:0|0:0,0:0:0:0:
427,344,23936,1,10,0:0:0:0:
510,240,24170,1,0,0:0:0:0:
482,103,24404,6,0,B|423:113|384:67|384:67|324:81|284:38,1,220,2|10,0:0|0:0,0:0:0:0:
179,143,25104,1,8,0:0:0:0:
357,148,25338,1,10,0:0:0:0:
211,254,25572,1,0,0:0:0:0:
420,212,25805,2,0,P|428:275|390:331,1,110,14|8,0:0|0:0,0:0:0:0:
228,347,26272,5,10,0:0:0:0:
286,158,26506,1,0,0:0:0:0:
143,36,26740,2,0,P|136:94|168:161,1,110,10|0,0:0|2:0,0:0:0:0:
137,303,27207,2,0,P|114:243|50:203,1,110,10|0,0:0|0:0,0:0:0:0:
218,110,27674,1,10,0:0:0:0:
277,308,27907,1,0,0:0:0:0:
295,135,28141,1,10,0:0:0:0:
37,308,28608,5,10,0:0:0:0:
37,308,28842,1,8,0:0:0:0:
272,107,29309,5,0,0:0:0:0:
379,30,29543,1,10,0:0:0:0:
500,82,29776,1,0,0:0:0:0:
393,152,30010,2,0,B|353:200|393:252|393:260|433:316|393:360,1,220,14|10,0:0|0:0,0:0:0:0:
104,231,30944,6,0,L|-17:292,1,110,10|0,0:0|0:0,0:0:0:0:
112,361,31411,1,10,0:0:0:0:
247,307,31645,1,0,0:0:0:0:
199,293,31762,1,0,0:0:0:0:
150,282,31879,2,0,B|110:234|150:182|150:174|190:118|150:74,1,220,10|2,0:0|2:1,0:0:0:0:
362,102,33047,5,0,0:0:0:0:
313,91,33163,1,0,0:0:0:0:
265,77,33280,1,8,0:0:0:0:
400,23,33514,1,0,0:0:0:0:
500,240,33747,6,0,P|432:284|288:256,1,220,4|10,0:3|0:0,0:0:0:0:
224,156,34448,1,2,2:1:0:0:
144,364,34682,2,0,L|136:252,1,110,4|0,0:3|0:0,0:0:0:0:
224,156,35149,1,10,0:0:0:0:
424,232,35382,1,0,0:0:0:0:
340,128,35616,6,0,P|332:76|352:16,1,110,4|0,0:3|2:0,0:0:0:0:
496,180,36083,1,10,0:0:0:0:
440,300,36317,1,2,2:1:0:0:
320,244,36550,2,0,L|200:252,1,110,4|0,0:3|0:0,0:0:0:0:
132,360,37018,1,10,0:0:0:0:
80,156,37251,1,0,0:0:0:0:
192,224,37485,6,0,L|200:108,1,110,4|0,0:3|2:0,0:0:0:0:
296,24,37952,1,10,0:0:0:0:
332,152,38186,1,2,2:1:0:0:
452,212,38419,1,4,0:3:0:0:
356,124,38653,1,0,0:0:0:0:
464,200,38886,2,0,P|481:150|480:93,1,110,10|0,0:0|2:0,0:0:0:0:
244,152,39353,5,4,0:3:0:0:
188,32,39587,1,0,0:0:0:0:
156,232,39821,1,10,0:0:0:0:
256,144,40054,2,0,P|348:152|400:264,1,220,4|4,0:3|0:3,0:0:0:0:
300,340,40755,2,0,P|276:296|288:232,1,110,10|0,0:0|0:0,0:0:0:0:
263,68,41222,6,0,P|188:37|70:99,1,220,4|10,0:3|0:0,0:0:0:0:
181,170,41923,1,2,2:1:0:0:
48,214,42157,2,0,B|72:337|72:336,1,110,4|0,0:3|0:0,0:0:0:0:
194,364,42624,1,10,0:0:0:0:
329,337,42857,1,0,0:0:0:0:
251,232,43091,6,0,B|291:184|251:132|251:124|211:68|251:24,1,220,4|10,0:3|0:0,0:0:0:0:
374,72,43792,1,2,2:1:0:0:
475,184,44025,1,4,0:3:0:0:
399,38,44259,1,0,0:0:0:0:
439,207,44493,1,10,0:0:0:0:
438,29,44726,1,0,0:0:0:0:
255,68,44960,6,0,P|148:28|60:74,2,220,4|10|4,0:3|0:0|0:3,0:0:0:0:
339,169,46128,1,0,0:0:0:0:
287,289,46361,1,10,0:0:0:0:
207,185,46595,1,2,2:1:0:0:
400,52,46828,6,0,P|431:97|425:165,1,110,4|0,0:3|0:0,0:0:0:0:
279,141,47296,1,10,0:0:0:0:
196,17,47529,2,0,P|142:61|148:210,1,220,4|4,0:3|0:3,0:0:0:0:
272,216,48230,2,0,P|268:172|216:120,1,110,6|0,2:0|2:0,0:0:0:0:
56,216,48697,5,4,0:0:0:0:
36,16,48931,1,8,0:0:0:0:
56,56,49048,1,0,0:0:0:0:
76,96,49164,1,0,0:0:0:0:
96,136,49281,1,0,0:0:0:0:
120,172,49398,2,0,P|168:192|296:104,1,220
344,232,50099,2,0,P|392:248|456:232,1,110,10|0,0:0|2:0,0:0:0:0:
488,56,50566,5,4,0:0:0:0:
400,152,50800,1,0,0:0:0:0:
356,140,50916,1,0,0:0:0:0:
312,128,51033,1,0,0:0:0:0:
268,116,51150,1,0,0:0:0:0:
224,104,51267,2,0,P|180:100|116:140,2,110,4|0|0,0:0|2:0|0:0,0:0:0:0:
340,248,51967,1,10,0:0:0:0:
436,96,52201,1,0,0:0:0:0:
416,320,52435,6,0,P|376:344|304:344,1,110,4|0,0:0|2:0,0:0:0:0:
224,248,52902,1,10,0:0:0:0:
156,360,53135,1,0,0:0:0:0:
176,136,53369,2,0,P|216:124|296:144,1,110,4|0,0:0|2:0,0:0:0:0:
404,288,53836,1,10,0:0:0:0:
468,172,54070,1,4,0:2:0:0:
488,360,54303,5,4,2:1:0:0:
360,332,54537,2,0,P|312:336|244:364,2,110,0|10|0,0:0|0:0|0:0,0:0:0:0:
404,340,55121,1,0,0:0:0:0:
444,324,55238,1,0,0:0:0:0:
468,196,55471,1,4,0:0:0:0:
288,240,55705,2,0,P|236:236|176:192,1,110,10|0,0:0|0:0,0:0:0:0:
279,83,56172,5,4,0:0:0:0:
126,34,56406,1,8,0:0:0:0:
88,55,56523,1,8,0:0:0:0:
72,95,56639,1,8,0:0:0:0:
84,136,56756,1,8,0:0:0:0:
58,171,56873,2,0,P|18:249|91:350,1,220
218,301,57574,2,0,B|120:252|120:251,1,110,10|0,0:0|0:0,0:0:0:0:
186,137,58041,5,4,0:0:0:0:
289,220,58274,1,0,0:0:0:0:
326,242,58391,1,0,0:0:0:0:
369,249,58508,1,0,0:0:0:0:
412,243,58625,1,0,0:0:0:0:
451,222,58742,2,0,P|500:145|465:29,1,220,4|0,0:0|0:0,0:0:0:0:
269,32,59442,1,10,0:0:0:0:
369,117,59676,1,0,0:0:0:0:
196,158,59910,6,0,L|218:285,1,110,4|0,0:0|0:0,0:0:0:0:
317,351,60377,1,10,0:0:0:0:
127,294,60610,1,0,0:0:0:0:
292,171,60844,2,0,P|401:196|446:298,1,220,4|10,0:0|0:0,0:0:0:0:
489,105,61545,2,0,L|514:220,1,110,0|4,0:0|2:1,0:0:0:0:
343,270,62012,6,0,P|314:220|262:185,1,110,4|10,0:2|0:0,0:0:0:0:
177,44,62479,1,0,0:0:0:0:
177,44,62596,1,0,0:0:0:0:
177,44,62713,2,0,L|164:159,1,110,4|0,0:0|0:0,0:0:0:0:
138,305,63180,1,10,0:0:0:0:
41,182,63413,1,0,0:0:0:0:
227,124,63647,6,0,P|275:92|341:97,1,110,10|0,0:0|0:0,0:0:0:0:
457,196,64114,1,10,0:0:0:0:
417,42,64348,1,0,0:0:0:0:
299,166,64581,2,0,P|288:222|318:281,1,110,10|0,0:0|0:0,0:0:0:0:
438,343,65049,1,10,0:0:0:0:
233,347,65282,2,0,B|123:321,1,110,0|10,0:0|0:0,0:0:0:0:
172,133,65749,6,0,P|157:62|109:13,1,110,0|10,0:0|0:0,0:0:0:0:
0,133,66217,1,0,0:0:0:0:
137,231,66450,2,0,P|246:203|271:107,1,220,14|10,0:0|0:0,0:0:0:0:
417,55,67151,1,0,0:0:0:0:
205,30,67385,1,12,0:0:0:0:
256,192,67501,12,4,68786,0:0:0:0:
361,256,69253,5,10,0:0:0:0:
92,312,69720,1,10,0:0:0:0:
177,51,70188,1,10,0:0:0:0:
258,178,70421,2,0,L|247:243,1,55,0|0,0:0|2:0,0:0:0:0:
337,139,70655,1,10,0:0:0:0:
406,294,70888,2,0,L|413:357,1,55,0|0,0:0|2:0,0:0:0:0:
354,222,71122,6,0,P|436:210|490:319,1,220,14|10,0:0|0:0,0:0:0:0:
232,352,72056,1,10,0:0:0:0:
253,103,72290,1,0,0:0:0:0:
161,240,72524,1,10,0:0:0:0:
84,84,72757,2,0,L|77:21,1,55,0|0,0:0|2:0,0:0:0:0:
136,156,72991,6,0,P|54:168|0:59,1,220,14|10,0:0|0:0,0:0:0:0:
326,38,73925,1,10,0:0:0:0:
474,80,74159,1,0,0:0:0:0:
366,181,74392,1,10,0:0:0:0:
493,266,74626,1,0,0:0:0:0:
376,328,74859,6,0,P|304:312|248:164,1,220,4|10,0:0|0:0,0:0:0:0:
304,72,75560,1,0,2:0:0:0:
96,148,75794,2,0,P|48:136|12:80,1,110,10|0,0:0|0:0,0:0:0:0:
184,204,76261,2,0,P|140:240|84:248,1,110,10|0,0:0|0:0,0:0:0:0:
192,88,76728,5,8,0:0:0:0:
292,176,76962,1,0,2:0:0:0:
420,144,77195,1,10,0:0:0:0:
384,364,77429,2,0,P|360:320|368:248,1,110,12|0,0:0|0:0,0:0:0:0:
412,140,77896,1,0,0:0:0:0:
324,44,78130,2,0,L|192:52,1,110,10|0,0:0|0:0,0:0:0:0:
144,164,78597,5,4,0:0:0:0:
276,180,78831,1,0,2:0:0:0:
408,196,79064,1,10,0:0:0:0:
412,188,79531,1,10,0:0:0:0:
280,200,79765,1,0,0:0:0:0:
148,212,79999,2,0,P|132:240|132:328,1,110,10|0,0:0|0:0,0:0:0:0:
280,216,80466,6,0,P|296:188|296:100,1,110,10|0,0:0|2:0,0:0:0:0:
196,28,80933,1,10,0:0:0:0:
88,104,81166,1,0,2:0:0:0:
148,220,81400,2,0,P|156:260|132:340,1,110,14|0,0:0|0:0,0:0:0:0:
224,140,81867,2,0,L|384:152,2,110,8|0|4,0:0|0:0|0:2,0:0:0:0:
128,228,82568,5,2,2:0:0:0:
64,112,82802,1,10,0:0:0:0:
24,316,83035,1,0,2:0:0:0:
128,228,83269,2,0,P|180:224|240:236,1,110,10|0,0:0|0:0,0:0:0:0:
340,316,83736,1,10,0:0:0:0:
368,108,83970,1,0,0:0:0:0:
440,220,84203,6,0,P|488:184|504:124,1,110,12|0,0:0|2:0,0:0:0:0:
372,116,84670,2,0,P|324:152|308:212,1,110,10|10,0:0|0:0,0:0:0:0:
188,252,85138,2,0,P|136:244|80:264,1,110,0|2,2:0|0:0,0:0:0:0:
144,380,85605,1,10,0:0:0:0:
272,344,85838,1,0,0:0:0:0:
396,300,86072,6,0,B|420:252|404:188,1,110,4|0,0:0|2:0,0:0:0:0:
248,88,86539,1,10,0:0:0:0:
368,36,86773,1,0,2:0:0:0:
136,36,87006,2,0,P|128:72|152:148,1,110,10|8,0:0|0:0,0:0:0:0:
176,172,87357,1,8,0:0:0:0:
212,196,87473,2,0,L|280:188,1,55,0|8,0:0|0:0,0:0:0:0:
360,272,87707,2,0,L|296:268,1,55,8|0,0:0|0:0,0:0:0:0:
225,330,87941,6,0,L|97:342,2,110,10|0|4,0:0|2:0|2:0,0:0:0:0:
352,372,88641,1,4,0:0:0:0:
428,160,88875,2,0,P|380:184|320:176,1,110,12|0,0:0|0:0,0:0:0:0:
216,100,89342,1,8,0:0:0:0:
212,144,89459,1,8,0:0:0:0:
208,188,89576,1,8,0:0:0:0:
204,232,89693,1,8,0:0:0:0:
196,275,89809,6,0,B|187:215|157:194|157:194|178:62,1,220,4|10,0:3|0:0,0:0:0:0:
47,32,90510,1,2,2:1:0:0:
41,171,90744,2,0,L|24:279,1,110,4|0,0:3|0:0,0:0:0:0:
197,275,91211,1,10,0:0:0:0:
114,368,91444,1,0,0:0:0:0:
135,185,91678,6,0,B|194:195|233:149|233:149|293:163|333:120,1,220,4|10,0:3|0:0,0:0:0:0:
154,84,92379,1,2,2:1:0:0:
262,233,92612,1,4,0:3:0:0:
330,48,92846,1,0,0:0:0:0:
512,124,93080,1,10,0:0:0:0:
294,140,93313,1,0,0:0:0:0:
412,238,93547,6,0,P|406:301|263:338,2,220,4|10|4,0:3|0:0|0:3,0:0:0:0:
294,140,94715,1,0,0:0:0:0:
162,156,94948,1,10,0:1:0:0:
242,260,95182,1,2,2:0:0:0:
428,214,95415,6,0,P|398:265|404:327,1,110,4|0,0:3|0:0,0:0:0:0:
321,179,95883,1,10,0:0:0:0:
317,342,96116,2,0,P|281:281|133:264,1,220,4|4,0:3|0:3,0:0:0:0:
321,179,96817,2,0,L|311:66,1,110,2|0,0:0|0:0,0:0:0:0:
240,256,97284,6,0,P|176:248|72:364,1,220,4|10,0:3|0:0,0:0:0:0:
152,168,97985,1,2,2:1:0:0:
20,188,98219,2,0,P|20:152|48:80,1,110,4|0,0:3|0:0,0:0:0:0:
252,72,98686,1,10,0:0:0:0:
136,12,98919,1,0,0:0:0:0:
268,184,99153,6,0,P|328:160|368:16,1,220,4|10,0:3|0:0,0:0:0:0:
251,71,99854,1,2,2:1:0:0:
176,260,100087,1,4,0:3:0:0:
120,140,100321,1,0,0:0:0:0:
284,188,100555,2,0,P|324:172|364:108,1,110,10|0,0:0|0:0,0:0:0:0:
251,71,101022,6,0,P|192:112|196:276,1,220,4|10,0:3|0:0,0:0:0:0:
352,344,101723,1,2,2:1:0:0:
226,360,101956,1,4,0:3:0:0:
268,256,102190,1,0,0:0:0:0:
125,309,102423,2,0,P|113:265|121:197,1,110,10|0,0:0|2:0,0:0:0:0:
208,52,102891,5,4,0:3:0:0:
76,68,103124,1,8,0:0:0:0:
104,104,103241,1,8,0:0:0:0:
132,140,103358,1,10,0:0:0:0:
160,176,103475,1,0,0:0:0:0:
184,212,103591,1,4,0:3:0:0:
316,196,103825,1,10,0:0:0:0:
288,160,103942,1,8,0:0:0:0:
260,124,104059,1,8,0:0:0:0:
232,88,104176,1,8,0:0:0:0:
208,52,104292,5,0,0:0:0:0:
244,27,104408,1,0,0:0:0:0:
287,18,104525,1,0,0:0:0:0:
330,26,104642,1,0,0:0:0:0:
366,50,104759,1,4,0:2:0:0:
487,136,104993,2,0,P|461:187|474:255,1,110,4|8,0:0|0:0,0:0:0:0:
402,352,105460,6,0,P|375:301|314:271,1,110,0|8,0:0|0:0,0:0:0:0:
290,258,105810,1,8,0:0:0:0:
249,243,105926,1,0,0:0:0:0:
205,238,106043,1,8,0:0:0:0:
162,243,106160,1,10,0:0:0:0:
121,259,106277,1,0,0:0:0:0:
85,284,106393,1,0,0:0:0:0:
56,317,106510,1,0,0:0:0:0:
34,355,106628,6,0,L|10:241,1,110,4|0,0:0|0:0,0:0:0:0:
96,110,107095,2,0,L|120:224,1,110,8|0,0:0|0:0,0:0:0:0:
202,353,107562,1,8,0:0:0:0:
202,353,107679,1,0,0:0:0:0:
316,242,107913,1,0,0:0:0:0:
316,242,108030,1,10,0:0:0:0:
191,145,108263,1,0,0:0:0:0:
334,50,108497,6,0,P|389:46|447:83,1,110,4|0,0:0|2:0,0:0:0:0:
361,179,108964,1,10,0:0:0:0:
411,301,109198,1,0,0:0:0:0:
261,266,109431,2,0,P|227:309|227:378,1,110,4|0,0:0|2:0,0:0:0:0:
179,209,109898,1,10,0:0:0:0:
214,56,110132,2,0,P|244:136|383:182,1,220
348,53,110833,5,10,0:0:0:0:
185,112,111066,1,0,0:0:0:0:
185,112,111183,1,8,0:0:0:0:
185,112,111300,2,0,P|124:116|65:89,2,110,4|0|10,0:0|0:0|0:0,0:0:0:0:
318,125,112001,1,0,0:0:0:0:
409,220,112234,5,4,0:0:0:0:
413,263,112351,1,0,0:0:0:0:
392,302,112468,1,0,0:0:0:0:
361,333,112585,1,0,0:0:0:0:
319,345,112701,1,4,0:2:0:0:
128,257,112935,2,0,P|112:198|214:75,1,220,4|0,0:0|0:0,0:0:0:0:
319,124,113636,1,10,0:0:0:0:
358,143,113753,1,8,0:0:0:0:
401,135,113869,1,0,0:0:0:0:
433,105,113986,1,8,0:0:0:0:
443,62,114103,5,12,0:0:0:0:
468,97,114220,1,0,0:0:0:0:
494,132,114337,1,0,0:0:0:0:
507,173,114453,1,0,0:0:0:0:
499,216,114570,1,0,0:0:0:0:
354,306,114804,1,4,0:0:0:0:
238,368,115037,2,0,L|127:357,1,110,0|8,0:0|0:0,0:0:0:0:
84,364,115388,1,8,0:0:0:0:
41,350,115505,1,10,0:0:0:0:
34,306,115621,1,8,0:0:0:0:
59,269,115738,1,8,0:0:0:0:
100,255,115855,1,8,0:0:0:0:
140,271,115972,6,0,P|176:290|204:221,1,110,4|0,0:0|2:0,0:0:0:0:
372,296,116439,2,0,P|321:302|303:254,1,110,10|0,0:0|0:0,0:0:0:0:
345,102,116906,2,0,P|266:29|175:75,1,220,0|10,0:0|0:0,0:0:0:0:
258,328,117607,1,0,0:0:0:0:
243,191,117840,5,4,0:0:0:0:
353,280,118074,1,0,0:0:0:0:
166,317,118308,2,0,P|130:307|78:251,1,110,10|0,0:0|0:0,0:0:0:0:
69,213,118658,1,8,0:0:0:0:
78,169,118775,1,0,0:0:0:0:
254,205,119008,1,0,0:0:0:0:
188,52,119242,1,10,0:0:0:0:
159,242,119476,1,0,0:0:0:0:
311,138,119709,6,0,P|336:178|323:254,1,110,4|0,0:0|2:0,0:0:0:0:
205,279,120176,2,0,P|184:260|238:216,1,110,10|0,0:0|0:0,0:0:0:0:
290,325,120644,2,0,P|252:358|95:317,1,220,4|10,0:0|0:0,0:0:0:0:
125,95,121344,1,0,0:0:0:0:
46,201,121578,5,4,0:0:0:0:
28,69,121812,1,0,0:0:0:0:
186,190,122045,2,0,P|221:162|247:83,1,110,10|0,0:0|0:0,0:0:0:0:
234,53,122395,1,8,0:0:0:0:
268,21,122512,2,0,P|324:17|384:49,1,110
413,202,122979,2,0,P|357:206|297:174,1,110,10|0,0:0|0:0,0:0:0:0:
203,103,123447,6,0,L|209:249,1,110,12|0,0:0|0:0,0:0:0:0:
65,301,123914,2,0,L|74:186,1,110,10|0,0:0|0:0,0:0:0:0:
248,8,124381,2,0,P|290:54|225:196,1,220,10|10,0:0|0:0,0:0:0:0:
117,151,125082,1,0,0:0:0:0:
256,340,125315,6,0,L|139:348,1,110,10|0,0:0|0:0,0:0:0:0:
309,228,125783,1,10,0:0:0:0:
440,238,126016,1,0,0:0:0:0:
448,228,126250,1,10,0:0:0:0:
316,240,126483,1,8,0:0:0:0:
272,245,126600,1,8,0:0:0:0:
232,225,126717,1,10,0:0:0:0:
210,186,126834,1,8,0:0:0:0:
206,142,126951,1,8,0:0:0:0:
222,101,127067,1,8,0:0:0:0:
255,72,127184,5,2,0:3:0:0:
396,34,127418,1,2,2:3:0:0:
434,56,127535,1,0,2:0:0:0:
464,86,127651,1,10,0:0:0:0:
484,125,127768,1,0,2:0:0:0:
495,167,127885,1,2,2:3:0:0:
493,211,128002,1,0,2:0:0:0:
478,252,128118,1,8,0:0:0:0:
454,289,128235,1,0,2:0:0:0:
421,319,128352,1,0,0:0:0:0:
320,225,128586,1,10,0:0:0:0:
245,340,128819,1,0,0:0:0:0:
121,278,129053,5,12,0:0:0:0:
245,194,129286,1,0,0:0:0:0:
250,150,129403,1,2,2:3:0:0:
242,106,129520,1,10,0:0:0:0:
217,69,129637,1,2,2:3:0:0:
181,43,129754,1,0,0:0:0:0:
139,30,129870,1,2,2:3:0:0:
95,33,129987,1,8,0:0:0:0:
54,49,130104,1,2,2:3:0:0:
21,78,130221,1,0,0:0:0:0:
114,171,130454,1,10,0:0:0:0:
85,299,130688,1,0,0:0:0:0:
215,276,130922,5,12,0:0:0:0:
361,360,131155,1,0,0:0:0:0:
405,358,131272,1,2,2:3:0:0:
446,343,131389,1,10,0:0:0:0:
477,311,131506,1,2,2:3:0:0:
491,269,131622,1,0,0:0:0:0:
364,179,131856,2,0,B|305:199,2,55,8|2|0,0:0|2:3|0:0,0:0:0:0:
480,83,132323,1,10,0:0:0:0:
344,27,132557,1,0,0:0:0:0:
223,106,132790,5,12,0:0:0:0:
107,31,133024,1,0,0:0:0:0:
63,38,133141,1,2,2:3:0:0:
26,63,133258,1,10,0:0:0:0:
3,100,133374,1,2,2:3:0:0:
1,144,133491,1,0,0:0:0:0:
34,290,133725,1,10,0:0:0:0:
76,304,133842,1,8,0:0:0:0:
119,306,133958,1,8,0:0:0:0:
161,298,134075,1,8,0:0:0:0:
201,278,134192,1,8,0:0:0:0:
231,247,134309,1,8,0:0:0:0:
254,209,134425,1,8,0:0:0:0:
262,165,134542,1,8,0:0:0:0:
258,121,134659,5,14,0:0:0:0:
