osu file format v5

[General]
AudioFilename: 01 Such Great Heights.mp3
AudioLeadIn: 0
PreviewTime: -1
Countdown: 1
SampleSet: Normal
StackLeniency: 0.7
Mode: 0

[Metadata]
Title:Such Great Heights
Artist:The Postal Service
Creator:ichikam
Version:Normal

[Difficulty]
HPDrainRate:5
CircleSize:5
OverallDifficulty:5
SliderMultiplier:2
SliderTickRate:2

[Events]
//Background and Video events
1,0,"such great heights.avi"
//Break Periods
//Storyboard Layer 0 (Background)
//Storyboard Layer 1 (Failing)
//Storyboard Layer 2 (Passing)
//Storyboard Layer 3 (Foreground)
//Storyboard Sound Samples
//Background Colour Transformations
3,100,11,130,255

[TimingPoints]
0,685.886974991144,4,2,0,100
21262,685.886974991144,4,1,0,100

[HitObjects]
92,293,10974,1,0
96,133,11660,1,0
250,167,12345,1,0
409,172,13031,1,4
409,172,13203,1,4
411,291,13717,1,0
250,292,14403,1,4
250,292,14575,1,4
253,172,15089,5,0
253,11,15775,1,0
92,12,16461,1,0
89,172,17147,1,4
89,172,17318,1,4
209,172,17833,1,0
368,180,18518,1,0
425,329,19204,2,2,B|325:86|233:233|191:337|105:137,1,400
96,64,21948,5,0
96,144,22291,1,0
97,223,22634,1,0
97,303,22977,1,4
99,303,23148,1,4
202,241,23663,1,0
267,195,24006,2,0,B|288:84|251:67|251:67,1,100
229,89,24520,1,2
320,96,26063,5,0
320,96,26235,1,0
430,49,26749,1,0
416,208,27435,5,0
387,282,27778,1,0
318,323,28121,1,0
334,244,28464,1,0
358,167,28807,1,0
456,41,29493,1,4
457,43,29664,1,4
346,89,30179,6,0,B|219:89|219:89,2,100
319,164,31207,1,0
249,204,31550,2,0,B|153:268|153:268|57:268|25:268,1,200
115,202,32579,1,0
147,146,32922,2,0,B|83:-14|51:178,1,200
47,246,33951,5,0
96,308,34294,2,2,B|253:340|276:155|128:180,1,300
110,257,35666,5,0
43,111,36352,1,0
110,255,37037,1,0
170,106,37723,1,0
171,106,37895,1,0
61,56,38409,5,4
220,52,39095,1,4
380,53,39781,1,6
317,107,40124,1,6
382,152,40467,1,6
448,108,40810,1,6
448,109,40981,1,6
448,107,41153,1,6
378,145,41496,6,0,B|154:209|58:241|58:177|122:113|90:81,1,400
259,259,43896,1,4
257,98,44582,1,0
413,63,45268,1,4
439,93,45440,1,4
406,115,45611,1,4
433,144,45782,1,4
403,170,45954,1,4
244,195,46640,5,0
245,355,47326,1,0
100,286,48012,1,0
80,251,48183,1,4
112,227,48355,1,4
85,197,48526,1,4
85,157,48697,1,4
182,30,49383,5,0
209,105,49726,1,0
255,40,50069,1,0
279,116,50412,1,0
321,48,50755,1,0
346,123,51098,1,4
386,54,51441,1,4
438,114,51784,1,4
438,114,51955,1,4
438,115,52127,1,4
416,64,53499,6,0,B|416:256|359:225|320:160,1,200
288,192,54528,1,0
224,192,54870,2,0,B|224:64|384:96|416:96,1,200
352,128,55899,1,0
320,160,56242,6,0,B|480:224|320:320,1,200
310,299,57100,1,4
285,330,57271,1,4
252,306,57443,1,4
229,338,57614,2,0,B|133:306|133:146,1,200
199,129,58643,5,0
128,92,58986,1,0
105,250,59672,2,0,B|201:314|297:186,1,200
399,313,61043,1,0
386,234,61386,1,0
444,179,61729,1,4
435,139,61901,1,2
332,77,62415,5,2
245,211,63101,1,2
96,320,64473,6,0,B|64:96|224:224,1,250
328,192,65845,1,4
418,265,67216,1,0
453,193,67559,1,0
419,120,67902,1,0
419,120,68074,1,2
299,128,68588,2,4,B|203:64|139:192|107:192,1,200
280,225,69960,5,0
160,118,70646,1,0
43,227,71332,1,0
167,327,72018,1,0
325,304,72704,1,4
354,229,73046,1,4
429,255,73389,1,4
457,180,73732,1,4
457,180,73904,1,4
457,179,74075,1,4
409,114,74418,6,0,B|289:-27|-17:-12|121:242,1,500
100,297,76476,1,0
175,323,76819,1,4
247,180,77505,5,4
334,314,78191,1,0
329,234,78534,1,0
395,278,78877,1,0
259,193,79562,5,0
99,197,80248,1,0
102,37,80934,1,0
261,40,81620,1,0
262,200,82306,1,4
352,67,82992,5,4
350,227,83678,1,4
446,99,84364,1,4
466,176,84707,1,4
465,176,84878,1,0
456,214,85049,2,6,B|264:342|40:214|40:86,1,500
187,167,87450,5,0
263,26,88136,1,0
315,177,88822,1,0
469,134,89508,6,4,B|528:281|277:294,1,300
203,301,90880,2,4,B|-49:277|11:109|11:109,1,300
162,88,92594,1,2
322,88,93280,1,2
256,192,94652,5,4
256,192,94823,1,4
256,192,94995,1,4
181,162,95338,1,4
59,57,96024,5,0
127,98,96367,1,0
194,54,96710,1,0
252,108,97053,1,0
330,96,97395,5,4
327,96,97567,1,4
328,96,97738,1,4
397,55,98081,1,2
467,198,98767,6,0,B|435:358|339:262,1,200
390,111,100139,1,0
251,30,100825,5,0
252,110,101168,2,0,B|252:350,1,200
448,320,103225,5,0
320,224,103911,1,0
256,192,104597,12,0,106312
256,288,106998,6,0,B|256:160,1,100
256,192,107684,5,0
167,58,108370,1,0
89,198,109056,1,0
227,117,109741,1,2
227,118,109913,1,0
336,68,110427,1,0
217,175,111113,6,0,B|233:224|302:231,1,100
321,154,111799,1,0
456,68,112485,1,0
402,218,113171,1,2
401,218,113342,1,0
224,192,115229,5,0
288,192,116600,2,4,B|396:192|396:192,3,100
334,251,117972,5,0
188,317,118658,1,0
348,319,119344,1,0
455,200,120030,1,2
456,199,120201,1,0
374,110,120716,1,0
242,201,121401,5,0
117,100,122087,1,0
115,260,122773,1,0
114,260,122945,1,0
233,260,123459,1,2
128,138,124145,1,0
274,201,124831,5,0
289,122,125174,1,0
339,183,125517,1,0
354,104,125860,1,0
354,104,126031,1,0
393,94,126203,2,2,B|393:302,1,200
241,346,127574,5,0
191,283,127917,5,4
270,285,128260,5,4
235,213,128603,5,6
235,213,128775,1,6
256,192,128946,12,6,131004
64,192,131347,1,0
223,188,132033,1,0
382,191,132719,1,0
321,138,133062,1,0
315,58,133405,1,0
155,60,134090,2,0,B|155:300,1,200
280,159,135462,5,6
255,190,135634,1,6
282,218,135805,1,6
96,288,136491,5,2
224,192,137177,1,2
351,95,137863,1,2
320,64,138034,1,4
288,96,138206,1,4
256,64,138377,1,4
224,96,138549,1,4
109,208,139235,6,0,B|173:304|301:208|301:208|269:208,3,200
367,217,141635,5,4
485,324,142321,6,0,B|513:46|229:164,1,400
224,160,144036,6,0,B|-41:-4|36:361|36:361,1,400
108,320,145750,1,2
129,286,145922,1,0
406,251,147122,5,0
258,187,147808,1,0
256,192,148494,12,0,150551
