osu file format v5

[General]
AudioFilename: The Postal Service - Give Up - 06 - Clark Gable.mp3
AudioLeadIn: 0
PreviewTime: -1
Countdown: 1
SampleSet: Normal
StackLeniency: 0.7
Mode: 0
LetterboxInBreaks: 1
EditorBookmarks: 45394,57429,66629,72329,79429,88329,102229,125029,128529,136729,140829,150029,158829,162929,171729,185429,197529,210829,223329

[Metadata]
Title:Clark Gable
Artist:The Postal Service
Creator:mrtn
Version:Hard
Source:
Tags:

[Difficulty]
HPDrainRate:8
CircleSize:5
OverallDifficulty:5
SliderMultiplier:1.4
SliderTickRate:1

[Events]
//Background and Video events
//Break Periods
2,54029,56829
2,64629,66529
2,75028,79429
2,87029,87729
2,97429,101829
2,110229,125429
2,139779,140379
2,147829,149929
2,170179,170979
2,181029,185029
2,195028,197829
2,206229,210629
//Storyboard Layer 0 (Background)
//Storyboard Layer 1 (Failing)
//Storyboard Layer 2 (Passing)
//Storyboard Layer 3 (Foreground)
//Storyboard Sound Samples
//Background Colour Transformations
3,100,163,162,255

[TimingPoints]
45395,400.053340445393,4,1,0,100,1

[HitObjects]
48,224,45394,1,0
64,160,45595,1,0
112,112,45795,1,0
176,96,45995,1,0
240,96,46195,1,0
304,112,46395,1,0
336,176,46595,1,0
336,304,46995,1,0
208,304,47395,5,0
176,240,47595,1,0
160,176,47795,1,0
176,112,47995,1,0
64,48,48395,1,0
64,176,48795,5,0
192,176,49195,1,0
192,48,49595,1,0
432,304,50595,5,0
384,272,50795,1,0
280,200,51195,1,0
176,120,51595,2,0,B|30:60|-15:156|37:313|109:354|288:376|403:244|416:24,1,770
304,112,57996,5,0
240,112,58196,1,0
176,112,58396,1,0
112,144,58596,1,0
64,192,58796,1,0
64,256,58996,1,0
192,272,59396,1,0
256,160,59796,5,0
336,272,60196,1,0
256,160,60597,1,0
256,160,60797,1,0
192,272,61197,1,0
192,144,61597,5,0
224,96,61797,1,0
256,144,61997,1,0
256,272,62397,1,0
64,64,63397,5,0
64,128,63597,1,0
160,208,63997,1,0
288,208,64397,1,0
80,128,67797,5,0
80,128,67998,1,0
80,128,68198,1,0
208,128,68598,1,0
208,256,68998,1,0
392,304,69598,5,0
368,248,69798,1,0
328,160,70098,1,0
288,72,70398,1,0
232,48,70598,1,0
136,40,70898,1,0
136,136,71198,1,0
304,216,71798,1,0
240,216,71998,1,0
96,64,72798,5,0
96,128,72998,1,0
96,192,73198,1,0
208,128,73598,1,0
336,128,73998,2,0,B|384:224|256:304|160:304,1,280
368,144,80599,5,0
240,144,80999,1,0
160,240,81399,1,0
240,144,81799,1,0
320,48,82199,1,0
320,48,82399,1,0
304,296,83200,5,0
280,240,83400,1,0
232,160,83700,1,0
136,176,84000,1,0
80,200,84200,1,0
80,328,84600,1,0
136,296,84800,1,0
376,88,85800,5,0
344,144,86000,1,0
312,88,86200,1,0
256,120,86400,1,0
304,232,86800,1,0
416,112,89000,5,0
384,128,89100,1,0
368,96,89200,1,0
352,128,89300,1,0
336,96,89400,1,0
80,96,90200,5,0
80,224,90601,1,0
208,224,91001,1,0
208,96,91401,1,0
80,96,91801,1,0
80,224,92201,1,0
208,224,92601,1,0
256,256,92801,1,0
336,80,93401,5,0
368,128,93601,1,0
368,256,94001,1,0
240,264,94401,1,0
144,96,95001,1,0
88,128,95201,1,0
88,256,95601,1,0
216,256,96001,2,0,B|400:135|280:64|182:92|232:176|376:272,1,420
432,80,103002,5,0
304,80,103402,1,0
304,208,103802,1,0
176,208,104202,1,0
176,80,104602,1,0
112,80,104802,1,0
112,208,105202,1,0
112,80,105603,1,0
296,96,106203,5,0
296,160,106403,1,0
424,160,106803,1,0
424,32,107203,1,0
232,40,107803,1,0
216,96,108003,1,0
232,216,108403,1,0
344,264,108803,2,0,B|312:136|248:56|184:24|104:40|40:40,1,420
128,144,126605,5,0
128,272,127005,1,0
128,144,127405,1,0
128,144,127605,1,0
128,144,127805,1,0
128,144,128006,1,0
128,144,128206,1,0
320,144,128806,5,0
288,192,129006,1,0
288,320,129406,1,0
160,320,129806,1,0
160,192,130206,1,0
288,192,130606,1,0
216,88,131006,1,0
184,144,131206,1,0
88,304,131806,5,0
200,352,132206,1,0
264,240,132606,1,0
304,192,132806,2,0,B|207:124|96:208,1,210
72,80,133806,5,0
136,80,134006,1,0
128,208,134406,1,0
224,128,134806,2,0,B|468:302|302:404|118:319|256:208|416:112,1,560
128,112,137007,5,0
176,80,137207,1,0
304,80,137607,1,0
432,80,138007,1,0
432,272,138607,5,0
384,304,138807,1,0
256,304,139207,1,0
128,304,139607,1,0
96,288,141607,5,0
128,240,141807,1,0
208,144,142207,1,0
336,144,142607,1,0
336,272,143008,1,0
272,272,143208,1,0
432,80,144008,5,0
400,128,144208,1,0
368,80,144408,1,0
240,80,144808,1,0
176,192,145208,1,0
112,80,145608,1,0
192,352,146608,5,0
240,320,146808,1,0
272,200,147208,1,0
400,200,147608,1,0
136,288,151209,5,0
168,224,151409,1,0
208,168,151609,1,0
312,144,152009,1,0
56,144,152809,5,0
56,208,153009,1,0
152,208,153309,1,0
152,80,153709,1,0
280,80,154109,1,0
280,176,154409,1,0
464,176,155009,1,0
464,112,155209,1,0
208,128,156009,5,0
208,192,156209,1,0
208,288,156509,1,0
304,288,156809,1,0
176,296,157209,2,0,B|96:248|48:136|112:24|272:8|320:152|288:184|288:248|192:296,1,560
80,192,159210,5,0
112,128,159410,1,0
168,88,159610,1,0
288,80,160010,2,0,B|336:32|384:32|416:96|400:176,1,210
400,288,161010,5,0
336,288,161210,1,0
248,192,161610,1,0
176,88,162010,2,0,B|128:40|80:40|48:104|64:184,1,210
352,120,163810,5,0
272,216,164210,1,0
192,120,164610,1,0
80,176,165010,1,0
80,240,165210,1,0
192,296,165611,1,0
376,304,166211,5,0
376,176,166611,1,0
376,176,166811,1,0
256,176,167211,1,0
128,176,167611,1,0
128,240,167811,1,0
128,304,168011,1,0
328,240,168811,5,0
272,272,169011,1,0
328,304,169211,1,0
224,232,169611,1,0
224,104,170011,1,0
128,96,172211,5,0
144,128,172311,1,0
112,144,172411,1,0
144,160,172511,1,0
112,176,172611,1,0
352,96,173412,5,0
352,224,173812,1,0
224,224,174212,1,0
224,96,174612,1,0
352,96,175012,1,0
352,224,175412,1,0
224,224,175812,1,0
192,272,176012,1,0
160,80,176612,5,0
96,80,176812,1,0
96,208,177212,1,0
224,208,177612,1,0
352,64,178212,5,0
384,120,178412,1,0
376,248,178812,1,0
248,264,179212,2,0,B|145:367|41:153|121:10|336:40|360:126|337:224|270:251,1,560
112,96,186213,5,0
112,224,186613,1,0
216,288,187013,1,0
272,176,187413,1,0
272,288,187813,1,0
336,288,188014,1,0
336,160,188414,1,0
208,160,188814,1,0
176,344,189414,5,0
112,320,189614,1,0
112,192,190014,1,0
240,192,190414,1,0
424,144,191014,5,0
360,144,191214,1,0
280,240,191614,1,0
248,360,192014,2,0,B|-8:360|-8:73|104:8|392:8|505:75|505:360|296:360,1,980
80,96,199015,5,0
80,224,199415,1,0
80,96,199815,1,0
80,224,200215,1,0
80,96,200615,1,0
144,96,200815,1,0
208,208,201215,1,0
272,96,201615,1,0
272,280,202215,5,0
336,280,202415,1,0
384,160,202815,1,0
392,320,203416,1,0
352,264,203616,1,0
224,264,204016,1,0
384,160,204616,1,0
344,112,204816,2,0,B|216:64|88:96|24:304,1,420
160,80,211617,5,0
192,128,211817,1,0
192,256,212217,1,0
320,256,212617,1,0
192,256,213017,1,0
64,256,213417,1,0
64,128,213817,1,0
64,256,214217,1,0
128,256,214417,1,0
304,320,215017,5,0
336,264,215217,1,0
408,160,215617,1,0
416,288,216017,1,0
224,280,216617,1,0
248,224,216817,1,0
288,104,217217,1,0
104,72,217817,2,0,B|152:280|216:360|312:376|424:344|504:264|504:120|366:24|216:24|72:392|72:376,1,980
80,336,221018,2,0,B|376:249|384:64|80:81|0:220|368:336,1,700
96,96,224218,5,0
96,224,224618,1,0
224,224,225018,1,0
256,176,225218,1,0
288,224,225419,1,0
256,176,225619,1,2
224,224,225819,5,0
96,224,226219,1,0
96,96,226619,1,0
128,48,226819,1,0
160,96,227019,1,4
128,48,227219,1,4
96,96,227419,5,0
96,224,227819,1,0
224,224,228219,1,0
256,176,228419,1,0
288,224,228619,1,0
256,176,228819,1,2
224,224,229019,5,0
96,224,229419,1,0
96,96,229819,1,0
128,48,230019,1,0
160,96,230219,1,4
128,48,230419,1,4
96,96,230619,5,0
96,224,231019,1,0
224,224,231419,1,0
256,176,231619,1,0
288,224,231819,1,0
256,176,232019,1,2
224,224,232219,5,0
96,224,232619,1,0
96,96,233020,1,0
128,48,233220,1,0
160,96,233420,1,4
128,48,233620,1,4
96,96,233820,5,0
96,224,234220,1,0
224,224,234620,1,0
256,176,234820,1,0
288,224,235020,1,0
256,176,235220,1,2
