osu file format v5

[General]
AudioFilename: The Pink Spiders - Nobody Baby(1).mp3
AudioLeadIn: 0
PreviewTime: -1
Countdown: 1
SampleSet: Normal
StackLeniency: 0.7
Mode: 0
LetterboxInBreaks: 1
EditorBookmarks: 12257,47220,68890,81819,110227,128437

[Metadata]
Title:Nobody Baby
Artist:The Pink Spiders
Creator:Puffles
Version:Hard Rock
Source:
Tags:

[Difficulty]
HPDrainRate:6
CircleSize:5
OverallDifficulty:7
SliderMultiplier:1.6
SliderTickRate:2

[Events]
//Background and Video events
0,0,"Pink Lines.png"
//Break Periods
2,32852,46320
2,94038,109509
//Storyboard Layer 0 (Background)
//Storyboard Layer 1 (Failing)
//Storyboard Layer 2 (Passing)
//Storyboard Layer 3 (Foreground)
//Storyboard Sound Samples
//Background Colour Transformations
3,100,163,162,255

[TimingPoints]
8980,364.199999999999,4,1,0,100,1

[Colours]
Combo1 : 83,35,74
Combo2 : 217,65,133
Combo3 : 255,199,207

[HitObjects]
64,304,12257,1,0
144,304,12439,1,0
224,304,12622,2,0,L|273:242|336:320,1,160
64,64,13714,1,0
144,64,13896,1,0
224,64,14078,1,0
304,64,14260,2,0,L|353:126|416:48,1,160
352,208,15171,1,4
192,208,15535,1,0
112,208,15717,1,0
112,128,15899,1,0
192,128,16081,1,0
272,128,16263,1,0
352,128,16446,2,0,L|401:66|464:144,1,160,0|4
96,304,18084,5,0
176,304,18267,1,0
256,304,18449,1,0
336,304,18631,1,0
416,304,18813,1,4
96,224,19541,1,0
176,224,19723,1,0
256,224,19905,1,0
336,224,20088,2,0,L|398:175|320:112,1,160
256,192,20998,12,4,22819
176,160,23365,5,8
176,320,23730,1,0
256,320,23912,1,8
336,320,24094,1,0
416,320,24276,2,8,L|478:271|400:208,1,160
336,224,24822,1,8
336,64,25186,1,0
256,64,25368,1,8
176,64,25551,1,0
176,224,25915,1,8
416,64,26461,5,8
336,64,26643,1,0
256,64,26825,1,8
176,64,27007,1,0
96,64,27189,2,8,L|34:113|112:176,1,160
176,160,27736,1,0
256,160,27918,1,8
256,240,28100,1,0
176,240,28282,1,8
176,320,28464,1,0
256,320,28646,1,8
376,216,29193,6,4,L|376:56,1,160
376,56,29739,1,0
296,56,29921,2,4,L|296:216,1,160
296,216,30467,1,0
216,216,30649,2,4,L|216:56,1,160
216,56,31195,1,0
136,56,31377,2,4,L|136:216,1,160
136,216,31923,1,0
136,296,32106,2,4,L|376:296,1,240
64,80,47220,5,0
144,80,47402,1,0
224,80,47585,2,0,L|224:160|112:160,1,160
64,320,48677,1,0
144,320,48859,1,0
224,320,49041,1,0
304,320,49224,2,0,L|304:240|192:240,1,160
64,240,50134,1,4
224,80,50498,1,0
224,160,50680,1,0
304,160,50862,1,0
304,80,51044,1,0
384,80,51226,1,0
384,160,51409,2,0,L|464:160|464:80,1,160,0|4
64,80,52866,5,0
64,160,53048,1,0
144,160,53230,1,0
144,80,53412,1,0
224,80,53594,1,0
224,160,53776,1,0
304,160,53958,1,0
304,80,54140,2,0,L|384:80|384:160,1,160
384,320,54869,1,0
304,320,55051,2,0,L|304:240|384:240,1,160
256,192,55961,12,4,57054
256,144,57964,5,0
336,144,58146,1,0
416,144,58329,2,0,L|416:64|336:64,1,160
256,64,58875,2,0,L|176:64|176:144,1,160,8|0
176,224,59421,1,0
256,224,59603,1,8
336,224,59785,2,0,L|336:304|256:304,1,160
176,304,60332,1,8
96,304,60514,1,0
96,224,60696,1,0
96,144,60878,1,0
176,144,61060,1,8
256,144,61242,1,0
336,144,61424,1,0
416,144,61606,1,0
416,224,61788,1,8
416,304,61971,1,0
336,304,62153,1,0
256,304,62335,1,0
176,304,62517,1,8
96,304,62699,2,0,L|96:224|176:224,1,160
256,224,63245,1,8
256,64,63609,1,8
256,64,63792,1,8
136,168,64156,6,4,L|136:328,1,160
136,328,64702,1,0
216,328,64884,2,4,L|216:168,1,160
216,168,65430,1,0
296,168,65612,2,4,L|296:328,1,160
296,328,66158,1,0
376,328,66340,2,4,L|376:168,1,160
376,168,66886,1,0
376,88,67069,2,4,L|136:88,1,240
418,301,68890,5,0
338,301,69072,1,0
258,301,69255,1,0
178,301,69437,1,0
176,224,69619,1,0
256,224,69801,1,0
336,224,69983,1,0
416,224,70165,1,4
416,224,70711,1,4
256,48,71440,6,0,L|194:97|272:160,1,160,0|0
336,144,71986,1,8
416,144,72168,1,0
416,224,72350,1,0
336,224,72532,1,0
256,224,72714,1,8
176,224,72897,1,0
96,224,73079,2,0,L|34:275|96:324,1,160,0|8
176,320,73625,1,0
416,320,74171,5,8
416,240,74353,2,0,L|366:177|317:240,1,160,0|0
320,320,74900,1,8
240,320,75082,1,0
240,240,75264,1,0
240,160,75446,1,0
240,80,75628,1,8
160,80,75810,1,0
160,160,75992,2,0,L|110:223|61:161,1,160,0|8
64,80,76539,1,0
336,160,77085,5,8
336,240,77267,2,0,L|285:303|236:241,1,160,0|0
240,160,77813,1,8
160,160,77995,1,0
160,240,78177,2,0,L|111:304|61:242,1,160,0|8
64,160,78724,1,0
64,80,78906,1,0
144,80,79088,1,0
224,80,79270,1,8
304,80,79452,1,0
384,80,79634,2,0,L|447:131|385:180,1,160,0|8
304,176,80181,1,4
224,64,82002,5,0
144,64,82184,2,0,L|64:64,1,80,0|0
64,144,82548,2,0,L|160:144,1,80
144,224,82912,2,0,L|48:224,1,80,0|0
64,304,83276,2,0,L|160:304,1,80
304,304,83823,1,4
464,304,84187,1,0
464,224,84369,1,0
464,144,84551,2,0,L|413:81|364:143,1,160,0|0
368,224,85097,2,0,L|288:208,1,80
208,208,85461,2,0,L|128:224,1,80
128,144,85826,2,0,L|208:128,1,80
288,128,86190,2,0,L|368:144,1,80
256,272,86736,1,4
136,312,87829,5,0
216,312,88011,2,0,L|296:312,1,80
296,232,88375,2,0,L|200:232,1,80
216,152,88739,2,0,L|312:152,1,80
296,72,89103,2,4,L|216:72,1,80
216,72,89468,1,0
136,72,89650,2,4,L|136:232,1,160
136,232,90196,1,0
136,312,90378,2,4,L|376:312,1,240
256,192,91289,12,4,93838
296,296,110409,1,4
376,296,110591,1,4
376,216,110773,1,4
376,136,110955,2,4,L|376:-8,1,80
376,56,111320,1,0
296,56,111502,2,4,L|296:216,1,160
296,216,112048,1,0
216,216,112230,2,4,L|216:56,1,160
216,56,112776,1,0
136,56,112958,2,4,L|136:216,1,160
136,216,113504,1,0
136,296,113687,2,4,L|376:296,1,240
94,301,115508,5,0
174,301,115690,1,0
254,301,115873,1,0
334,301,116055,1,0
336,224,116237,1,0
256,224,116419,1,0
176,224,116601,1,0
96,224,116783,1,4
96,224,117329,1,4
256,48,118057,6,0,L|336:48|336:160,1,160,0|0
336,208,118604,1,8
336,288,118786,1,0
256,288,118968,1,0
176,288,119150,1,0
96,288,119332,1,8
96,208,119514,1,0
96,128,119696,2,0,L|96:48|208:48,1,160,0|8
256,48,120243,1,0
256,288,120789,5,8
336,288,120971,2,0,L|336:208|224:208,1,160
176,208,121517,1,8
96,208,121699,1,0
96,128,121881,1,0
176,128,122064,1,0
256,128,122246,1,8
336,128,122428,1,0
416,128,122610,2,0,L|416:48|336:48,1,160,0|8
256,48,123156,1,0
48,176,123702,5,8
48,256,123885,2,0,L|48:336|160:336,1,160
208,336,124431,1,8
288,336,124613,1,0
368,336,124795,2,0,L|448:336|448:224,1,160,0|8
448,176,125341,1,0
368,176,125523,1,0
288,176,125706,1,0
208,176,125888,1,8
128,176,126070,1,0
48,176,126252,2,0,L|48:96|160:96,1,160,0|8
208,96,126798,1,4
288,320,128619,5,0
368,320,128801,2,0,L|448:320,1,80,0|0
448,240,129165,2,0,L|352:240,1,80
368,160,129529,2,0,L|464:160,1,80,0|0
448,80,129893,2,0,L|352:80,1,80
208,80,130440,1,4
48,80,130804,1,0
48,160,130986,1,0
48,240,131168,2,0,L|99:303|148:241,1,160,0|0
144,160,131714,2,0,L|224:176,1,80
304,176,132078,2,0,L|384:160,1,80
384,240,132443,2,0,L|304:256,1,80
224,256,132807,2,0,L|144:240,1,80
256,112,133353,1,4
376,72,134446,5,0
296,72,134628,2,0,L|216:72,1,80
216,152,134992,2,0,L|312:152,1,80
296,232,135356,2,0,L|200:232,1,80
216,312,135720,2,4,L|296:312,1,80
296,312,136085,1,0
376,312,136267,2,4,L|376:152,1,160
376,152,136813,1,0
216,72,137542,6,0,L|296:72,1,80,0|0
296,152,137906,2,0,L|200:152,1,80
216,232,138270,2,0,L|312:232,1,80
296,312,138634,2,4,L|216:312,1,80
216,312,138999,1,0
136,312,139181,2,4,L|136:152,1,160
136,152,139727,1,0
296,72,140456,6,0,L|216:72,1,80,0|0
216,152,140820,2,0,L|312:152,1,80
296,232,141184,2,0,L|200:232,1,80
216,312,141548,2,4,L|296:312,1,80
296,312,141913,1,0
376,312,142095,2,4,L|376:152,1,160
376,152,142641,1,0
376,72,142823,2,4,L|136:72,1,240
136,312,144462,5,0
216,312,144644,1,0
296,312,144826,1,0
376,312,145008,1,0
256,112,145554,5,4
