osu file format v5

[General]
AudioFilename: FLCL_-_Ride_On_Shooting_Star.mp3
AudioLeadIn: 0
PreviewTime: -1
Countdown: 1
SampleSet: Soft
StackLeniency: 0.7
Mode: 0
LetterboxInBreaks: 1
EditorBookmarks: 15567

[Metadata]
Title:Ride On Shooting Star
Artist:The Pillows
Creator:Zerostarry
Version:Normal
Source:
Tags:

[Difficulty]
HPDrainRate:5
CircleSize:5
OverallDifficulty:5
SliderMultiplier:1.4
SliderTickRate:1

[Events]
//Background and Video events
0,0,"Screenshot7.png"
//Break Periods
2,56330,63257
//Storyboard Layer 0 (Background)
//Storyboard Layer 1 (Failing)
//Storyboard Layer 2 (Passing)
//Storyboard Layer 3 (Foreground)
//Storyboard Sound Samples
//Background Colour Transformations
3,100,163,162,255

[TimingPoints]
171,433.839479392625,4,2,0,100,1
27497,433.839479392625,4,1,0,100,0
63940,433.839479392625,4,2,0,100,0
76087,433.839479392625,4,1,0,100,0

[Colours]
Combo1 : 255,0,128
Combo2 : 255,128,255
Combo3 : 255,255,255
Combo4 : 128,128,255

[HitObjects]
184,96,15572,1,0
256,96,15789,1,0
328,96,16006,1,0
256,216,16439,1,2
256,216,16656,1,2
392,216,17090,1,4
392,216,17524,1,4
72,192,19043,5,0
128,152,19259,1,0
184,192,19476,2,2,L|328:192,1,140
376,240,20127,1,2
256,192,22513,5,0
256,192,22730,1,0
256,192,22947,1,0
392,192,23381,1,2
392,192,23598,1,2
392,328,24032,2,4,B|392:256,2,70
56,72,25984,5,0
104,120,26201,1,0
104,192,26418,2,0,L|104:272,1,70
160,304,26852,1,2
160,304,27069,1,2
256,192,27936,5,4
256,192,28370,5,4
432,192,29238,6,0,L|432:120,3,70
432,48,30105,1,2
224,48,30756,6,0,L|72:48,1,140
80,120,31407,1,2
216,120,31841,1,2
424,120,32492,1,0
400,184,32708,2,0,L|248:184,1,140
120,192,33576,1,0
256,64,34227,5,2
256,64,34444,1,2
392,64,34878,2,8,L|392:280,1,210
248,272,35962,5,2
248,272,36179,1,2
104,272,36613,2,0,L|104:128,1,140
304,56,37698,1,0
376,56,37915,1,0
376,192,38348,2,0,L|376:352,4,140
256,192,40518,12,4,41819
96,56,42253,6,4,L|376:56,1,280
344,192,43554,1,0
200,192,43988,1,4
200,192,44205,1,4
56,192,44639,1,2
56,192,45073,1,2
56,312,45724,5,0
192,312,46157,1,0
328,312,46591,1,0
464,312,47025,1,0
384,192,47459,2,4,L|104:192,1,280
256,56,49194,5,0
256,192,49628,1,0
256,328,50062,1,0
256,328,50496,1,0
112,328,50930,2,0,L|112:48,1,280
392,72,52665,5,0
320,72,52882,1,0
320,144,53099,1,2
200,144,53533,1,0
200,72,53750,1,0
128,72,53967,1,2
120,208,54400,2,4,B|416:208,2,280
72,80,64162,5,0
120,128,64379,1,0
72,176,64596,2,2,B|72:256,1,70
144,248,65030,1,2
280,248,65680,1,4
280,248,66114,1,4
368,72,67633,5,0
296,72,67849,1,0
296,144,68066,2,0,B|296:240,2,70
368,144,68717,1,0
88,192,69585,1,2
88,192,69802,1,2
88,192,70019,1,2
64,72,71103,6,0,B|208:72,1,140
344,72,71971,1,0
344,144,72188,1,0
416,144,72405,1,0
416,216,72622,1,4
416,216,73056,1,4
72,296,74574,5,0
72,224,74791,1,0
136,192,75008,2,2,B|136:40,1,140
208,56,75659,1,2
256,192,76526,5,4
256,192,76960,5,4
256,48,77828,5,0
184,48,78045,1,0
184,120,78262,1,0
112,120,78479,1,0
112,192,78695,1,2
256,312,79346,5,0
328,312,79563,1,0
328,240,79780,1,0
400,240,79997,1,0
400,168,80214,1,0
472,168,80431,1,2
72,192,81082,5,0
72,120,81298,2,0,B|224:120,1,140
352,120,82166,2,2,B|352:280,2,140
280,192,83468,1,0
280,120,83685,1,0
208,120,83902,1,0
208,192,84118,1,0
208,328,84552,5,0
280,328,84769,2,0,B|376:328,1,70
416,328,85203,2,0,B|416:248,1,70
416,184,85637,2,0,B|416:104,1,70
416,40,86071,1,0
256,40,86505,5,0
184,40,86721,1,0
184,112,86938,1,0
184,184,87155,1,0
112,184,87372,1,0
112,256,87589,2,4,B|328:256,2,210
256,192,89325,12,4,90409
96,56,90843,6,4,L|392:56,1,280
344,192,92144,1,0
200,192,92578,1,4
200,192,92795,1,4
56,192,93229,1,2
56,192,93663,1,2
56,312,94314,5,0
192,312,94748,1,0
328,312,95181,1,0
464,312,95615,1,0
384,192,96049,2,4,L|104:192,1,280
256,56,97784,5,0
256,192,98218,1,0
256,328,98652,1,0
256,328,99086,1,0
112,328,99520,2,0,L|112:48,1,280
392,72,101255,5,0
320,72,101472,1,0
320,144,101689,1,2
200,144,102123,1,0
200,72,102340,1,0
128,72,102557,1,2
120,208,102990,2,4,B|416:208,1,280
416,328,104726,6,4,L|144:328,1,245
168,192,106027,1,0
312,192,106461,1,4
312,192,106678,1,4
456,192,107112,1,2
456,192,107546,1,2
456,72,108197,5,0
320,72,108630,1,0
184,72,109064,1,0
48,72,109498,1,0
128,192,109932,2,4,L|408:192,1,280
256,328,111667,5,0
256,192,112101,1,0
256,56,112535,1,0
256,56,112969,1,0
400,56,113403,2,0,L|400:336,1,280
240,352,115138,6,4,C|224:336|216:232|120:200|120:184|216:160|224:56|240:40|296:136|392:104|400:120|344:192|400:264|392:280|296:248|256:320,1,1120
