osu file format v14

[General]
AudioFilename: The Pierces - Secret.mp3
AudioLeadIn: 1000
PreviewTime: 1
Countdown: 0
SampleSet: Soft
StackLeniency: 0.3
Mode: 0
LetterboxInBreaks: 0
WidescreenStoryboard: 1

[Editor]
Bookmarks: 71,39653
DistanceSpacing: 0.9
BeatDivisor: 2
GridSize: 4
TimelineZoom: 1.1

[Metadata]
Title:Secret
TitleUnicode:Secret
Artist:The Pierces
ArtistUnicode:The Pierces
Creator:Gero
Version:AverAge.
Source:Pretty Little Liars
Tags:Ravenswood Dirty Secrets The Lying Game Pequeñas Lindas Mentirosas Sara Shepard I. Marlene King Oliver Goldstick Warner Horizon Alloy Entertainment Freeform Original Productions ABC Family Spencer Hastings Troian Bellisario Toby Cavanaugh Keegan Allen Aria Montgomery Lucy Hale Ezra Fitz Ian Harding Hanna Marin Ashley Benson Caleb Rivers Tyler Blackburn Emily Fields Shay Mitchell Alison DiLaurentis Sasha Pieterse Mona Vanderwaal Janel Parrish Jessica Mary Drake Andrea Parker Big Red Coat Black Window A.D. Uber A Bad EmojA Evil Emoji A-moji CeCe Charlotte Vanessa Ray Noel Kahn Brant Daugherty Harvey Dre Davis Jenna Marshall Tammin Sursok #PLLEndGame PLL PLLTVSeries LGBT Lesbian Gay Bisexual Transgender Queer Intersex After Death Killers MkGuh -M4x
BeatmapID:1151105
BeatmapSetID:521792

[Difficulty]
HPDrainRate:4
CircleSize:3.5
OverallDifficulty:4
ApproachRate:5
SliderMultiplier:1.2
SliderTickRate:1

[Events]
//Background and Video events
0,0,"bAckgrounD.jpg",0,0
Video,0,"Lying Bitches.avi"
//Break Periods
//Storyboard Layer 0 (Background)
//Storyboard Layer 1 (Fail)
//Storyboard Layer 2 (Pass)
//Storyboard Layer 3 (Foreground)
//Storyboard Sound Samples

[TimingPoints]
491,419.58041958042,3,2,1,80,1,0
20352,419.58041958042,3,2,1,80,1,0
20772,419.58041958042,3,2,1,80,1,0

[Colours]
Combo1 : 103,189,207
Combo2 : 227,111,142
Combo3 : 135,186,175
Combo4 : 219,156,111
Combo5 : 163,163,163
Combo6 : 255,85,85
SliderBorder : 255,0,128
SliderTrackOverride : 255,0,0

[HitObjects]
256,96,71,5,0,0:0:0:0:
204,172,491,6,0,B|204:276|308:276|308:380,1,240,2|2,0:0|0:1,0:0:0:0:
204,380,1749,2,0,B|204:276|308:276|308:172,1,240,2|2,0:0|0:1,0:0:0:0:
384,95,3008,1,2,0:0:0:0:
307,18,3428,1,2,0:1:0:0:
205,18,3847,1,2,0:1:0:0:
128,95,4267,1,2,0:0:0:0:
204,171,4686,2,2,B|233:171|256:197|256:197|279:171|308:171,1,120,2|2,0:1|3:0,0:1:0:0:
384,95,5525,6,0,B|420:123|432:171|420:219|384:247|384:247|430:293,1,240,2|2,0:0|0:1,0:0:0:0:
354,370,6784,2,0,B|300:316|300:316|212:316|212:316|158:370,1,240,2|2,0:0|0:1,0:0:0:0:
81,293,8043,2,0,B|128:247|128:247|92:219|80:171|92:123|128:95,1,240,2|2,0:0|0:1,0:0:0:0:
205,18,9302,1,2,0:0:0:0:
256,112,9721,1,2,0:1:0:0:
307,18,10141,1,2,3:0:0:0:
384,95,10560,6,0,P|403:151|384:207,1,120,2|2,0:0|0:1,0:0:0:0:
460,283,11400,1,2,0:1:0:0:
383,359,11819,2,0,B|383:327|355:299|323:299|323:299|296:299,1,120,2|2,0:0|0:1,0:0:0:0:
256,200,12658,1,2,0:1:0:0:
215,299,13078,2,0,B|189:299|189:299|157:299|129:327|129:359,1,120,2|2,0:0|0:1,0:0:0:0:
52,283,13917,1,2,0:1:0:0:
127,206,14337,2,0,P|108:150|127:94,1,120,2|2,0:0|0:1,0:0:0:0:
205,18,15176,1,2,3:0:0:0:
256,112,15595,6,0,B|291:118|330:104|354:59|354:59|361:110|393:136|429:142,1,240,2|2,0:0|0:1,0:0:0:0:
429,241,16854,2,2,B|393:247|361:273|354:324|354:324|330:279|291:265|256:272,1,240,2|2,0:0|0:1,0:0:0:0:
328,192,18113,2,0,L|516:192,2,180,2|0|4,0:0|0:0|0:0,0:0:0:0:
328,192,20352,5,0,0:0:0:0:
328,192,20772,6,0,B|356:180|366:148|366:148|356:116|328:104,1,120,2|2,0:0|0:1,0:0:0:0:
256,24,21611,1,2,0:1:0:0:
184,104,22030,2,0,B|156:116|146:148|146:148|156:180|184:192,1,120,2|2,0:0|0:1,0:0:0:0:
256,272,22869,1,2,0:1:0:0:
328,351,23289,2,0,L|429:288,1,120,2|2,0:0|0:1,0:0:0:0:
480,192,24128,1,2,0:1:0:0:
429,95,24548,2,0,L|328:33,1,120,2|2,0:0|0:1,0:0:0:0:
256,112,25387,1,2,3:0:0:0:
184,192,25806,6,0,B|256:288|256:288|328:192,1,240,2|2,0:0|0:1,0:0:0:0:
256,112,27065,2,0,L|256:352,1,240,2|2,0:0|0:1,0:0:0:0:
179,275,28324,1,2,0:0:0:0:
179,275,28744,1,2,0:1:0:0:
256,200,29163,1,2,0:1:0:0:
333,275,29583,1,2,0:0:0:0:
333,275,30002,1,2,0:1:0:0:
256,352,30422,1,2,3:0:0:0:
179,275,30841,6,0,B|136:244|124:192|136:140|168:108|168:108|204:72,1,240,2|2,0:0|0:1,0:0:0:0:
308,72,32100,2,0,B|344:108|344:108|376:140|388:192|376:244|333:275,1,240,2|2,0:0|0:1,0:0:0:0:
409,356,33359,1,2,0:0:0:0:
485,274,33778,1,2,0:1:0:0:
409,192,34198,1,2,0:1:0:0:
485,110,34618,1,2,0:0:0:0:
409,28,35037,1,2,0:1:0:0:
333,109,35457,1,2,3:0:0:0:
409,192,35876,6,0,B|409:268|409:268|409:321|364:372|303:371,1,240,2|2,0:0|0:1,0:0:0:0:
208,371,37135,2,2,B|148:372|103:321|103:268|103:268|103:192,1,240,2|2,0:0|0:1,0:0:0:0:
179,109,38394,2,0,B|224:124|256:78|256:78|288:124|333:109,2,180,2|0|4,0:0|0:0|0:0,0:0:0:0:
