osu file format v7

[General]
AudioFilename: The Opposites - Vandaag.mp3
AudioLeadIn: 0
PreviewTime: 54512
Countdown: 1
SampleSet: Normal
StackLeniency: 0.7
Mode: 0
LetterboxInBreaks: 1

[Editor]
Bookmarks: -3,13222,23545,33867,44190,54512,64835,75158,85480,95803,106125,116448,126770,137093
DistanceSpacing: 1
BeatDivisor: 4
GridSize: 8

[Metadata]
Title:Vandaag
Artist:The Opposites
Creator:lesjuh
Version:Normal
Source:
Tags:

[Difficulty]
HPDrainRate:3
CircleSize:4
OverallDifficulty:4
SliderMultiplier:1
SliderTickRate:2

[Events]
//Background and Video events
0,0,"TheOpposites.png"
//Break Periods
2,75034,84160
//Storyboard Layer 0 (Background)
//Storyboard Layer 1 (Fail)
//Storyboard Layer 2 (Pass)
//Storyboard Layer 3 (Foreground)
//Storyboard Sound Samples
//Background Colour Transformations
3,100,0,0,0

[TimingPoints]
2900,322.58064516129,4,1,0,50,1,0
18303,-100,4,1,2,50,0,0
18464,-100,4,1,0,50,0,0
37980,-100,4,1,2,50,0,0
38141,-100,4,1,0,50,0,0
40077,-100,4,1,2,50,0,0
40238,-100,4,1,0,50,0,0
43141,-100,4,1,2,50,0,0
43303,-100,4,1,0,50,0,0
54512,-100,4,1,0,70,0,1
60722,-100,4,1,2,70,0,1
60883,-100,4,1,0,70,0,1
64754,-100,4,1,0,70,0,0
64835,-100,4,1,0,70,0,1
69916,-100,4,1,2,70,0,0
70077,-100,4,1,0,70,0,1
70561,-100,4,1,1,70,0,1
70722,-100,4,1,0,70,0,1
75158,-100,4,1,0,70,0,0
75319,-100,4,1,0,50,0,0
86529,-100,4,1,2,50,0,0
86690,-100,4,1,0,50,0,0
91690,-100,4,1,2,50,0,0
91851,-100,4,1,0,50,0,0
98303,-100,4,1,2,50,0,0
98464,-100,4,1,0,50,0,0
100883,-100,4,1,2,50,0,0
101045,-100,4,1,0,50,0,0
107658,-100,4,1,2,50,0,0
107819,-100,4,1,0,50,0,0
109754,-100,4,1,2,50,0,0
109916,-100,4,1,0,50,0,0
116448,-100,4,1,0,70,0,1
121529,-100,4,1,2,70,0,1
121690,-100,4,1,0,70,0,1
122174,-100,4,1,1,70,0,1
122335,-100,4,1,0,70,0,1
126690,-100,4,1,0,70,0,0
126770,-100,4,1,0,70,0,1
131851,-100,4,1,2,70,0,1
132012,-100,4,1,0,70,0,1
132496,-100,4,1,1,70,0,1
132658,-100,4,1,0,70,0,1
137093,-100,4,1,0,70,0,0

[Colours]
Combo1 : 0,147,0
Combo2 : 193,0,0
Combo3 : 0,119,176

[HitObjects]
136,64,13222,2,0,B|48:128|80:248,1,200,4|8
160,304,14190,1,0
160,304,14351,2,0,B|224:264|312:280,1,150,4|4
392,336,15158,1,8
464,264,15480,1,0
448,168,15803,5,4
312,16,16448,2,0,B|256:120|136:80,1,200,8|4
56,136,17416,1,4
112,216,17738,1,8
88,312,18061,1,0
112,216,18383,6,0,B|224:184|280:296,1,200,4|8
336,368,19351,1,0
336,368,19512,2,0,B|320:296|336:216,1,150,4|4
376,128,20319,1,8
376,128,20641,1,0
472,96,20964,5,4
280,144,21609,2,0,B|208:120|152:56,1,150,8|4
56,80,22416,1,0
16,168,22738,1,0
16,168,22899,2,0,B|112:256|8:344,1,200,8|4
192,256,24190,5,8
272,312,24512,1,0
272,312,24674,2,0,B|344:296|424:304,1,150,4|4
480,224,25480,1,8
392,184,25803,1,0
448,104,26125,1,4
256,40,26770,6,0,B|296:104|280:192,1,150,8|4
208,256,27577,1,0
208,256,27738,1,4
160,168,28061,1,8
72,216,28383,1,0
120,304,28706,6,0,B|64:208|120:112,1,200,4|8
200,56,29674,1,0
200,56,29835,2,0,B|288:64|360:56,1,150,4|4
432,112,30641,1,8
344,168,30964,1,0
424,232,31287,1,4
256,344,31932,6,0,B|184:320|128:256,1,150,8|4
176,168,32739,1,0
272,200,33061,1,0
272,200,33222,2,0,B|368:112|264:24,1,200,8|4
72,32,34512,5,8
24,120,34835,1,0
112,168,35158,2,0,B|144:216|160:264,1,100,0|4
248,304,35803,1,8
320,240,36125,1,0
320,240,36448,2,0,B|264:144|320:48,1,200,4|8
464,144,37738,6,0,B|520:240|464:336,1,200,0|8
368,304,38706,1,0
288,368,39029,1,4
288,368,39190,1,0
176,264,39674,2,0,B|128:176|24:136,2,200,8|0|8
272,88,41609,6,0,B|320:72|376:80,1,100,4|0
328,168,42254,2,0,B|280:184|224:176,1,100,8|0
192,144,42738,2,0,B|72:224|256:288|128:360,1,250,4|8
48,176,44190,5,4
32,80,44512,1,0
128,48,44835,1,8
200,184,45319,2,0,B|280:160|312:88,1,150,4|4
310,90,46125,1,8
472,208,46770,5,4
448,304,47093,1,0
352,272,47416,1,8
264,328,47738,1,0
264,328,47899,2,0,B|184:312|112:336,1,150,4|4
115,334,48706,1,8
48,144,49351,6,0,B|96:152|144:176,1,100,4|0
240,200,49996,2,0,B|320:176|376:128,1,150,8|4
240,56,50964,5,4
240,56,51287,1,8
256,192,51932,12,6,54512
400,64,55158,6,2,B|448:128|432:208,1,150,10|6
336,320,56125,1,2
248,280,56448,1,10
176,344,56770,1,0
88,304,57093,6,2,B|32:208|88:112,1,200,6|10
168,56,58061,1,0
168,56,58222,1,6
272,168,58706,1,2
336,248,59029,1,10
336,248,59351,1,0
432,224,59674,6,2,B|488:136|472:24,2,200,6|10|2
368,144,61287,1,2
272,168,61609,1,10
224,256,61932,1,0
224,256,62254,6,2,B|128:288|24:256,1,200,6|10
104,128,63383,2,2,B|80:80|40:48,2,100,6|2|2
144,160,64190,2,2,B|248:160,1,100,10|2
312,88,64835,5,6
480,200,65480,2,2,B|464:272|416:336,1,150,10|6
272,360,66447,1,2
208,288,66770,1,10
112,272,67092,1,0
112,272,67415,6,2,B|56:176|112:80,1,200,6|10
200,40,68383,1,0
200,40,68544,1,6
352,56,69028,1,2
320,152,69351,1,10
320,152,69673,1,0
416,184,69996,6,2,B|480:264|448:376,2,200,6|10|2
320,152,71609,1,2
248,216,71931,1,10
272,312,72254,1,0
272,312,72576,6,2,B|176:280|72:312,1,200,6|10
32,168,73705,2,2,B|80:144|112:104,2,100,6|2|2
0,208,74512,2,2,B|0:312,1,100,10|2
72,80,85480,5,4
128,160,85803,1,0
224,128,86125,2,0,B|272:112|328:120,2,100,8|0|0
128,160,87093,1,0
88,256,87416,1,8
88,256,87738,1,0
160,328,88061,6,0,B|256:368|360:344,1,200,4|8
424,272,89029,1,0
424,272,89190,2,0,B|384:200|400:120,1,150,4|4
328,56,89996,1,8
240,96,90319,1,0
192,184,90641,6,0,B|80:168|48:56,2,200,4|8|0
288,168,92254,1,0
344,248,92577,2,0,B|350:298|334:346,1,100,8|0
256,288,93222,6,0,B|208:184|280:96,1,200,4|8
408,32,94351,1,4
448,120,94674,1,0
400,208,94996,1,0
400,208,95158,2,0,B|312:176|304:256|200:224,1,200,8|4
136,152,96125,5,0
48,200,96448,2,0,B|40:256|48:304,1,100,8|0
136,352,97093,1,0
232,312,97416,1,0
216,216,97738,1,8
216,216,97899,1,0
216,216,98061,2,0,B|264:112|384:136,1,200
472,96,99029,6,0,B|496:40|504:-8,2,100,8|0|0
496,192,99996,1,4
432,272,100319,1,8
432,272,100480,1,0
432,272,100641,2,0,B|384:168|264:192,1,200
224,280,101609,5,8
136,320,101932,1,0
64,256,102254,1,0
64,256,102416,1,0
48,160,102738,1,0
48,160,102899,2,0,B|96:136|152:136,1,100,8|0
248,144,103545,5,4
264,240,103867,2,0,B|312:264|368:264,1,100,0|8
496,200,104674,5,4
408,152,104996,1,0
448,64,105319,1,0
448,64,105480,2,0,B|360:-32|272:72,1,200,8|4
216,144,106448,6,0,B|224:200|240:248,1,100,0|8
328,280,107093,1,0
328,280,107416,2,0,B|208:248|152:352,1,200,0|8
64,304,108383,1,0
16,216,108706,5,4
88,144,109029,1,0
184,128,109351,1,8
184,128,109512,1,0
184,128,109674,2,0,B|216:80|224:24,2,100,0|0|4
208,224,110641,5,8
304,192,110964,1,0
352,104,111287,2,0,B|480:96|472:232,1,200,4|8
440,320,112254,1,0
344,304,112577,1,0
344,304,112738,1,0
256,352,113061,5,0
256,352,113222,1,8
184,280,113545,1,0
256,192,113867,12,6,116448
56,64,117093,6,2,B|104:128|88:208,1,150,10|6
176,328,118060,1,2
264,280,118383,1,10
336,344,118705,1,0
424,304,119028,6,2,B|368:208|424:112,1,200,6|10
344,56,119996,1,0
344,56,120157,1,6
240,168,120641,1,2
176,248,120964,1,10
176,248,121286,1,0
80,216,121609,6,2,B|104:104|24:24,2,200,6|10|2
104,312,123222,1,2
176,248,123544,1,10
272,240,123867,1,0
272,240,124189,6,2,B|368:272|472:240,1,200,6|10
408,104,125318,2,2,B|432:56|472:24,2,100,6|2|2
368,136,126125,2,2,B|264:136,1,100,10|2
184,80,126770,5,6
24,200,127415,2,2,B|40:272|88:336,1,150,10|6
232,360,128382,1,2
296,288,128705,1,10
392,264,129029,1,0
392,264,129350,6,2,B|448:168|392:72,1,200,6|10
296,104,130318,1,0
296,104,130479,1,6
160,40,130963,1,2
72,80,131286,1,10
72,80,131608,1,0
120,168,131931,6,2,B|72:264|120:368,2,200,6|10|2
216,136,133544,1,2
296,200,133866,1,10
272,296,134189,1,0
272,296,134511,6,2,B|368:264|472:296,1,200,6|10
432,152,135640,2,2,B|480:128|512:88,2,100,6|2|2
384,128,136447,2,2,B|280:128,1,100,10|2
200,72,137093,5,4
