osu file format v7

[General]
AudioFilename: The Opposites - Vandaag.mp3
AudioLeadIn: 0
PreviewTime: 54512
Countdown: 1
SampleSet: Normal
StackLeniency: 0.7
Mode: 0
LetterboxInBreaks: 1

[Editor]
Bookmarks: -3,13222,23545,33867,44190,54512,64835,75158,85480,95803,106125,116448,126770,137093
DistanceSpacing: 1
BeatDivisor: 4
GridSize: 8

[Metadata]
Title:Vandaag
Artist:The Opposites
Creator:lesjuh
Version:Easy
Source:
Tags:

[Difficulty]
HPDrainRate:0
CircleSize:3
OverallDifficulty:0
SliderMultiplier:0.8
SliderTickRate:2

[Events]
//Background and Video events
0,0,"TheOpposites.png"
//Break Periods
//Storyboard Layer 0 (Background)
//Storyboard Layer 1 (Fail)
//Storyboard Layer 2 (Pass)
//Storyboard Layer 3 (Foreground)
//Storyboard Sound Samples
//Background Colour Transformations
3,100,0,0,0

[TimingPoints]
2900,322.58064516129,4,1,0,50,1,0
13787,-100,4,1,1,50,0,0
13948,-100,4,1,0,50,0,0
16367,-100,4,1,1,50,0,0
16529,-100,4,1,0,50,0,0
54512,-100,4,1,0,70,0,1
64754,-100,4,1,0,70,0,0
64835,-100,4,1,0,70,0,1
69916,-100,4,1,2,70,0,0
70077,-100,4,1,0,70,0,1
70561,-100,4,1,1,70,0,1
70722,-100,4,1,0,70,0,1
75158,-100,4,1,0,70,0,0

[Colours]
Combo1 : 0,147,0
Combo2 : 193,0,0
Combo3 : 0,119,176

[HitObjects]
48,136,13222,6,0,B|88:8|248:16|288:144,1,320,4|0
440,88,15158,1,8
464,248,15803,6,0,B|424:368|264:376|224:240,1,320,4|0
88,336,17738,1,8
16,192,18383,5,4
152,104,19029,1,8
312,136,19674,2,0,B|400:144|464:88,2,160,0|8|4
184,224,21609,1,8
112,336,22254,6,2,B|-24:192|120:48,1,320,2|4
224,168,24190,1,8
376,112,24835,1,0
352,272,25480,1,8
224,168,26125,6,0,B|208:16|48:16|40:176,1,320,4|0
136,296,28061,1,8
288,344,28706,6,0,B|504:376|440:144,1,320,4|0
312,56,30641,1,8
184,152,31287,6,0,B|112:112|24:128,1,160,4|8
112,264,32577,2,2,B|256:400|400:256,1,320,2|4
320,120,34512,1,8
464,48,35158,1,0
320,120,35803,1,8
184,32,36448,6,0,B|32:48|32:208|192:216,1,320,4|0
256,360,38383,1,8
328,216,39029,6,0,B|480:200|480:40|320:32,1,320,4|0
192,120,40964,1,8
72,224,41609,6,0,B|112:296|192:336,1,160,4|8
344,336,42899,2,2,B|208:192|352:48,1,320,2|4
480,136,44835,1,8
408,280,45480,1,0
256,328,46125,1,8
104,280,46770,6,0,B|72:64|304:128,1,320,4|0
440,200,48706,1,8
408,40,49351,6,0,B|264:0|248:96|88:48,1,320,4|0
40,200,51287,2,0,B|56:240|80:272,1,80,8|0
256,192,51932,12,6,54512
80,80,55158,1,8
176,152,55641,2,0,B|280:136|352:56,1,200,6|8
472,168,57093,5,6
400,312,57738,1,8
312,232,58222,2,0,B|208:248|136:328,1,200,6|8
16,224,59674,6,0,B|0:144|16:56,2,160,6|8|0
152,144,61609,1,8
304,96,62254,6,0,B|384:120|440:184,1,160,6|8
384,288,63383,2,2,B|344:312|320:344,2,80
208,192,64835,5,6
80,288,65480,1,8
200,320,65963,2,0,B|304:304|376:224,1,200,6|8
432,80,67415,5,6
288,16,68060,1,8
200,96,68544,2,0,B|96:112|24:192,1,200,6|8
112,320,69996,6,0,B|192:336|280:320,2,160,6|8|0
200,184,71931,1,8
352,128,72576,6,0,B|432:152|488:216,1,160,6|8
408,304,73705,2,2,B|368:328|344:360,2,80
256,176,75158,5,4
