osu file format v14

[General]
AudioFilename: 188_2babc01461a6.mp3
AudioLeadIn: 0
PreviewTime: 80625
Countdown: 1
SampleSet: Normal
StackLeniency: 0.7
Mode: 0
LetterboxInBreaks: 1
WidescreenStoryboard: 1

[Editor]
DistanceSpacing: 2
BeatDivisor: 6
GridSize: 32
TimelineZoom: 1.1

[Metadata]
Title:Vi`dy noch`u v kyxny s kotom
TitleUnicode:Выйду ночью в кухню с котом
Artist:The Nepodarki
ArtistUnicode:The Неподарки
Creator:Xazariorus
Version:Insane
Source:
Tags:
BeatmapID:656370
BeatmapSetID:282081

[Difficulty]
HPDrainRate:4
CircleSize:4
OverallDifficulty:9
ApproachRate:8
SliderMultiplier:2.99999990463257
SliderTickRate:3

[Events]
//Background and Video events
0,0,"1356245408_374217_002.jpg",0,0
//Break Periods
2,180574,193000
2,202574,212000
//Storyboard Layer 0 (Background)
//Storyboard Layer 1 (Fail)
//Storyboard Layer 2 (Pass)
//Storyboard Layer 3 (Foreground)
//Storyboard Sound Samples

[TimingPoints]
45000,750,4,1,0,100,1,0

[Colours]
Combo1 : 13,10,156
Combo2 : 0,202,202
Combo3 : 225,0,225
Combo4 : 179,179,0
Combo5 : 0,174,0

[HitObjects]
256,64,3125,5,0,0:0:0:0:
96,96,3500,1,0,0:0:0:0:
256,0,3875,1,0,0:0:0:0:
160,64,4125,1,2,0:0:0:0:
160,64,4250,1,2,0:0:0:0:
160,64,4375,1,2,0:0:0:0:
160,64,4500,2,0,B|160:160|192:224|192:224|256:96,1,299.999990463257
64,320,5625,5,0,0:0:0:0:
160,288,5750,2,0,P|224:224|416:160,1,249.999992052714
448,64,8875,6,0,P|352:96|320:192,1,199.999993642171
416,192,9500,1,0,0:0:0:0:
352,96,9750,1,8,0:0:0:0:
192,64,10125,1,8,0:0:0:0:
64,96,10500,2,8,B|96:192|160:224|320:192,1,299.999990463257
416,192,11625,2,0,P|256:160|64:288,1,399.999987284342
384,320,14250,6,0,P|448:224|448:192,1,149.999995231628
448,96,14750,1,0,0:0:0:0:
448,288,15000,2,0,P|288:320|224:256,1,249.999992052714
288,352,15750,2,8,B|320:256|192:128|32:160,1,349.9999888738
160,64,17500,6,0,L|192:128,2,49.9999984105428
256,192,18250,5,8,0:0:0:0:
288,64,18375,1,8,0:0:0:0:
96,160,18625,5,8,0:0:0:0:
128,32,18750,1,8,0:0:0:0:
96,320,19125,6,0,L|160:320,2,49.9999984105428
96,320,19500,2,0,B|128:256|128:256|192:320,1,149.999995231628
352,320,20250,2,0,B|448:288|448:288|352:256|352:256|448:224|448:224|320:128|320:128|160:128|160:128|160:96,1,649.999979337056
160,64,22125,1,8,0:0:0:0:
64,224,22500,2,0,P|160:256|288:224,2,199.999993642171
160,192,23750,2,8,P|256:160|384:224,1,249.999992052714
64,288,26375,5,0,0:0:0:0:
64,224,26625,2,0,B|128:128|192:128|160:128,1,149.999995231629
161,128,27125,2,0,P|320:128|352:160,1,199.999993642171
343,149,27750,2,0,P|416:256|320:288,1,249.999992052714
320,288,28500,2,0,P|256:192|160:160,1,199.999993642171
224,160,29625,6,8,P|256:288|384:288,1,249.999992052714
416,224,30375,2,2,L|448:160,1,49.9999984105428
416,224,30625,2,2,L|352:160,1,49.9999984105428
384,128,31000,2,2,L|416:64,1,49.9999984105428
384,128,31250,2,2,L|320:64,1,49.9999984105428
96,96,32250,5,8,0:0:0:0:
160,288,32625,1,8,0:0:0:0:
224,96,33000,1,8,0:0:0:0:
64,224,33250,2,0,B|128:256|128:320|128:320|192:224,1,199.999993642171
352,96,34000,5,0,0:0:0:0:
416,96,34125,2,0,P|384:224|160:256,1,349.9999888738
384,256,35250,1,0,0:0:0:0:
192,160,35750,2,0,P|288:160|320:192,1,99.9999968210857
256,192,37125,12,0,38250,0:0:0:0:
64,128,39000,6,0,B|32:32|32:32|160:32,1,199.999993642171
192,128,39625,1,0,0:0:0:0:
256,128,39750,2,0,P|352:96|352:32,3,149.999995231629
416,64,41250,2,8,P|192:192|192:224,1,299.999990463257
160,128,42250,2,0,P|224:128|256:160,1,99.9999968210857
32,64,45000,6,8,B|64:192|64:160,1,99.9999968210857
192,64,45500,2,0,B|128:128|128:288|320:320,1,349.9999888738
416,288,46500,1,8,0:0:0:0:
384,192,47125,2,0,L|384:128,1,49.9999984105428
352,160,47375,2,0,L|352:96,1,49.9999984105428
320,128,47625,2,0,B|320:64|256:32|32:96,1,299.999990463257
64,160,48500,5,8,0:0:0:0:
64,160,48625,1,8,0:0:0:0:
416,288,50250,5,8,0:0:0:0:
416,96,50500,1,8,0:0:0:0:
288,256,50750,1,8,0:0:0:0:
256,64,51000,2,0,P|224:160|128:192,1,199.999993642171
64,128,51625,1,0,0:0:0:0:
128,64,51750,2,0,B|192:128|192:288|352:288|352:288|448:256,1,399.999987284343
288,128,54000,6,0,L|384:224,1,99.9999968210857
416,288,54750,2,0,P|256:224|64:256,1,349.9999888738
192,224,56375,2,8,L|256:224,1,49.9999984105428
256,224,56625,2,0,P|352:160|224:64,1,299.999990463257
160,96,57625,1,8,0:0:0:0:
160,96,57750,1,8,0:0:0:0:
128,128,58000,2,0,P|192:224|416:224,1,349.9999888738
352,160,59625,2,8,P|288:96|128:128,1,249.999992052714
288,224,60875,6,0,L|288:160,1,49.9999984105428
224,224,61750,2,0,L|224:160,1,49.9999984105428
64,64,62125,2,0,B|64:192|64:192|160:160|160:160|160:288|160:288|416:288|416:288,1,599.999980926514
448,256,63875,2,0,B|352:128|128:96|96:128|96:128|128:256,1,499.999984105428
256,256,66000,2,2,L|320:224,1,49.9999984105428
288,288,66250,2,2,L|352:256,1,49.9999984105428
320,320,66500,2,0,P|416:320|448:160,1,249.999992052714
96,192,68250,5,8,0:0:0:0:
256,64,68500,1,8,0:0:0:0:
256,256,68750,1,8,0:0:0:0:
384,288,69000,2,0,P|448:160|320:64,1,299.999990463257
256,64,70125,1,0,0:0:0:0:
64,64,70500,2,0,P|64:192|224:224,1,299.999990463257
384,192,71625,2,8,L|320:224,1,49.9999984105428
192,288,74875,5,8,0:0:0:0:
128,256,75000,1,8,0:0:0:0:
64,64,75375,1,0,0:0:0:0:
256,64,75625,2,0,P|384:96|448:224,1,249.999992052714
448,288,76500,1,0,0:0:0:0:
320,256,77250,2,0,L|320:160,1,49.9999984105428
256,192,77625,2,0,B|256:32|256:32|128:96,1,299.999990463257
96,256,78750,6,2,L|160:224,1,49.9999984105428
160,256,79000,2,2,L|224:224,1,49.9999984105428
384,224,79500,1,2,0:0:0:0:
384,224,79625,1,2,0:0:0:0:
288,96,80125,2,8,L|288:160,1,49.9999984105428
64,320,80750,6,0,L|128:288,1,49.9999984105428
192,256,81000,1,0,0:0:0:0:
288,320,81250,2,0,B|384:192|384:96|352:128,1,199.999993642171
160,160,82000,2,8,L|96:192,1,49.9999984105428
192,128,82250,2,8,L|256:96,1,49.9999984105428
384,96,83625,6,0,P|224:128|128:256,1,299.999990463257
352,288,86250,1,8,0:0:0:0:
416,128,86625,2,0,P|256:96|64:192,1,349.9999888738
64,224,87750,2,0,L|128:256,2,49.9999984105428
96,288,88125,2,8,P|352:288|384:256,1,299.999990463257
192,224,89500,2,0,P|288:192|320:128,1,149.999995231629
352,256,90000,5,2,0:0:0:0:
352,160,90125,1,2,0:0:0:0:
320,64,90250,1,2,0:0:0:0:
224,32,90375,1,2,0:0:0:0:
128,96,90750,2,0,P|256:192|384:128,1,299.999990463257
128,224,92250,2,8,P|192:256|256:224,1,99.9999968210857
288,192,92625,1,0,0:0:0:0:
64,288,93000,1,0,0:0:0:0:
352,320,93375,2,0,L|384:256,1,49.9999984105428
320,288,93625,2,0,L|352:224,1,49.9999984105428
320,224,94000,2,8,P|352:128|288:96,1,149.999995231629
288,96,94500,2,0,P|288:160|256:160,1,99.9999968210857
224,160,94875,2,0,P|256:128|224:64,1,99.9999968210857
192,96,95250,2,0,P|64:128|64:288,1,299.999990463257
256,192,96375,12,0,97500,0:0:0:0:
416,288,98250,6,0,L|416:224,1,49.9999984105428
384,256,98500,2,0,L|384:192,1,49.9999984105428
416,96,99000,2,0,B|256:128|288:288|0:256,1,449.999985694886
64,192,100500,2,8,P|192:96|288:160,1,249.999992052714
288,224,101500,1,0,0:0:0:0:
288,224,101625,2,8,P|416:160|448:64,1,249.999992052714
384,64,102750,2,0,L|320:64|352:64,1,49.9999984105428
224,64,103125,6,8,P|288:192|288:256,1,199.999993642171
96,320,104250,1,0,0:0:0:0:
32,128,104625,1,0,0:0:0:0:
192,192,105000,1,0,0:0:0:0:
288,288,105375,2,2,L|352:256,1,49.9999984105428
288,256,105625,2,2,L|352:224,1,49.9999984105428
288,224,106000,2,8,B|384:128|384:96|96:96,1,349.9999888738
64,96,107000,2,8,P|96:256|192:288,1,249.999992052714
160,160,107875,2,0,B|192:288|256:320|384:288,1,299.999990463257
96,128,111000,6,0,L|160:96,1,49.9999984105428
160,160,111375,2,0,L|224:128,1,49.9999984105428
224,224,111750,1,0,0:0:0:0:
352,320,112125,2,8,P|320:160|160:128,1,299.999990463257
256,224,113250,2,0,P|128:128|128:32,1,249.999992052714
160,128,114375,2,8,P|192:96|224:96,1,49.9999984105428
384,256,116500,6,2,P|384:224|352:192,1,49.9999984105428
320,288,116750,2,0,P|192:256|128:160,1,249.999992052714
128,162,117500,2,8,P|128:128|160:96,1,49.9999984105428
134,115,117750,2,0,P|192:64|288:64,1,149.999995231629
224,160,118250,2,8,L|256:224,1,49.9999984105428
256,64,118750,2,0,P|320:96|384:192,1,149.999995231629
352,192,119500,5,2,0:0:0:0:
352,256,119625,2,0,P|320:160|192:160,1,199.999993642171
256,64,122000,6,0,P|192:128|192:160,1,99.9999968210857
256,128,122375,2,8,P|256:160|224:192,1,49.9999984105428
192,128,122625,1,2,0:0:0:0:
128,160,123000,2,0,P|160:288|384:288,1,349.9999888738
320,256,124250,2,0,B|192:192|192:128|192:128,2,199.999993642171
416,224,125500,5,0,0:0:0:0:
416,224,125625,1,0,0:0:0:0:
416,224,125750,1,0,0:0:0:0:
416,224,125875,2,8,B|416:128|320:64|160:96,1,299.999990463257
189,91,126750,2,0,P|128:224|96:224,1,199.999993642171
99,224,127375,2,8,P|160:160|32:64,1,249.999992052714
256,64,128250,5,0,0:0:0:0:
416,64,128625,1,0,0:0:0:0:
448,128,128875,2,8,P|352:224|320:224,1,149.999995231629
347,224,129375,2,0,B|256:224|224:320|32:288,1,299.999990463257
64,224,130500,1,0,0:0:0:0:
96,64,130875,1,0,0:0:0:0:
192,64,131250,2,8,P|224:224|480:288,1,449.999985694886
64,64,134250,6,0,B|64:192|288:288|288:288|288:160,1,449.999985694886
288,96,135750,2,0,B|384:160|416:352|416:352|352:352,1,349.9999888738
256,192,136875,12,0,137625,0:0:0:0:
256,192,138000,6,8,L|128:192,1,99.9999968210857
156,192,138375,2,0,P|256:256|352:224,1,199.999993642171
320,192,139125,2,8,P|224:128|192:128,1,149.999995231629
256,64,140500,5,2,0:0:0:0:
352,64,140625,2,0,P|384:192|320:320,1,249.999992052714
256,320,141375,1,2,0:0:0:0:
192,320,141500,1,2,0:0:0:0:
128,320,141625,2,0,P|64:160|96:128,1,199.999993642171
64,128,142375,2,0,B|160:64|160:64|160:224|160:224|256:192|256:192,1,399.999987284343
256,128,143625,2,8,P|224:224|448:288,1,399.999987284343
416,192,146625,6,8,P|352:160|320:192,1,99.9999968210857
334,170,147000,2,0,P|256:224|64:160,2,299.999990463257
96,96,149250,2,2,L|160:96,1,49.9999984105428
128,128,149500,2,2,L|192:128,1,49.9999984105428
160,160,149750,2,0,L|416:160,1,249.999992052714
384,64,153000,6,0,L|384:128,1,49.9999984105428
384,320,153375,2,0,L|384:224,1,49.9999984105428
384,192,153625,2,0,L|160:192,1,199.999993642171
160,96,154250,2,8,P|96:192|160:320,1,249.999992052714
448,288,155250,1,0,0:0:0:0:
288,192,155500,1,0,0:0:0:0:
448,64,155750,1,0,0:0:0:0:
448,192,156000,2,8,P|352:160|96:224,1,349.9999888738
256,192,158375,5,2,0:0:0:0:
320,192,158625,2,0,P|416:160|416:64,1,199.999993642171
128,64,159750,2,8,P|96:128|192:352,1,299.999990463257
224,320,161625,2,0,B|128:224|160:96|160:96|320:96,1,399.999987284343
352,96,162875,2,2,L|352:160,1,49.9999984105428
320,128,163125,2,2,L|320:192,1,49.9999984105428
288,160,163375,2,2,L|288:224,1,49.9999984105428
416,256,164375,5,8,0:0:0:0:
384,256,164500,2,0,P|224:256|96:192,1,299.999990463257
100,195,165375,2,8,L|96:128,1,49.9999984105428
97,145,165625,2,0,P|160:192|448:192,1,349.9999888738
422,204,166750,2,0,P|416:128|288:128,1,199.999993642171
448,32,167500,2,8,P|384:128|288:192,1,199.999993642171
128,160,168250,1,2,0:0:0:0:
64,96,170250,6,0,P|32:192|64:256,1,149.999995231629
128,224,171000,2,0,P|96:160|160:96,2,149.999995231629
192,160,171875,1,2,0:0:0:0:
288,160,172000,1,2,0:0:0:0:
384,160,172500,2,8,P|352:256|256:288,1,199.999993642171
96,96,173875,6,0,L|128:160,1,99.9999968210857
224,128,174375,2,8,L|64:128,1,149.999995231629
288,128,175000,2,2,L|352:128,1,49.9999984105428
338,128,175250,2,2,L|416:128,1,49.9999984105428
388,128,175500,2,2,L|448:128|448:128,1,49.9999984105428
448,192,176250,2,0,P|352:256|256:256,1,199.999993642171
64,288,177000,1,2,0:0:0:0:
64,192,177125,1,2,0:0:0:0:
128,224,177375,2,8,L|160:288,1,49.9999984105428
32,128,177750,6,0,P|160:128|288:320,1,349.9999888738
416,288,179250,2,2,L|352:256,1,49.9999984105428
384,224,179500,2,2,L|320:192,1,49.9999984105428
448,224,180000,2,8,P|364:303|301:288,1,149.999995231629
64,96,193750,5,4,0:0:0:0:
64,192,193875,1,4,0:0:0:0:
96,160,194000,2,4,L|160:128,1,49.9999984105428
384,256,195500,5,4,0:0:0:0:
384,160,195625,1,4,0:0:0:0:
256,256,196125,6,2,L|256:192,1,49.9999984105428
224,192,196375,2,2,L|224:256,1,49.9999984105428
384,288,197500,6,4,L|384:224,1,49.9999984105428
192,320,197875,2,8,P|288:288|288:160,1,199.999993642171
32,256,198750,1,2,0:0:0:0:
32,256,198875,1,2,0:0:0:0:
96,288,199125,2,8,P|160:256|192:160,1,149.999995231629
320,128,201750,6,4,P|384:160|416:352,1,249.999992052714
256,192,212750,12,0,218625,0:0:0:0:
256,192,219000,5,2,0:0:0:0:
64,64,219375,2,8,L|96:128,1,49.9999984105428
64,320,219750,2,0,P|192:320|288:256,1,199.999993642171
64,224,220500,2,8,P|128:288|192:288,1,149.999995231629
480,320,221250,5,0,0:0:0:0:
384,32,221625,2,8,L|352:96,1,49.9999984105428
384,128,222000,2,4,P|288:192|256:224,3,149.999995231629
64,64,225000,6,8,L|64:192,1,99.9999968210857
32,352,225500,2,0,L|96:192,1,149.999995231629
96,192,226000,2,2,L|160:192,1,49.9999984105428
256,352,226375,2,8,P|192:256|224:192,1,149.999995231629
64,128,227250,2,4,L|160:96,1,99.9999968210857
256,96,227625,1,2,0:0:0:0:
256,128,227750,1,2,0:0:0:0:
256,160,227875,1,2,0:0:0:0:
256,192,228000,1,2,0:0:0:0:
256,224,228125,2,4,L|256:288,8,49.9999984105428
352,320,230250,6,8,P|256:224|128:192,2,249.999992052714
416,256,231750,2,0,P|320:288|160:256,1,249.999992052714
64,256,232500,1,2,0:0:0:0:
64,224,232625,1,2,0:0:0:0:
64,192,232750,1,2,0:0:0:0:
64,96,233750,6,0,P|96:192|192:320,1,249.999992052714
182,311,234500,2,8,P|288:288|320:160,1,249.999992052714
320,162,235250,2,0,P|224:256|64:192,1,299.999990463257
256,96,236250,6,8,L|384:96,1,99.9999968210857
448,96,236625,2,0,P|416:224|288:256,1,249.999992052714
224,256,237375,1,2,0:0:0:0:
192,256,237500,1,2,0:0:0:0:
160,256,237625,1,2,0:0:0:0:
128,256,237750,1,2,0:0:0:0:
96,256,237875,1,2,0:0:0:0:
64,96,238250,5,8,0:0:0:0:
256,96,238500,2,4,P|160:160|96:256,2,199.999993642171
288,192,239625,2,8,P|128:192|64:96,2,249.999992052714
64,96,242375,5,4,0:0:0:0:
256,96,242625,1,4,0:0:0:0:
480,96,243000,2,8,L|448:224,1,149.999995231629
256,288,243625,1,0,0:0:0:0:
352,224,243750,2,8,B|352:160|224:64|32:96|32:96|32:224,1,499.999984105428
320,320,245375,5,2,0:0:0:0:
224,288,245500,1,2,0:0:0:0:
288,192,245625,1,2,0:0:0:0:
192,192,245750,2,0,B|32:192|32:192|96:64|160:96,1,299.999990463257
224,96,246625,1,2,0:0:0:0:
320,96,246750,1,2,0:0:0:0:
416,128,246875,1,2,0:0:0:0:
416,320,247125,2,8,P|352:192|352:128,1,199.999993642171
128,160,248250,5,4,0:0:0:0:
128,256,248375,1,4,0:0:0:0:
224,224,248500,1,2,0:0:0:0:
32,192,249000,2,8,P|160:128|256:160,1,249.999992052714
160,160,249750,2,0,L|160:96,1,49.9999984105428
160,110,250000,2,4,L|256:64,1,99.9999968210857
250,66,250375,2,8,P|320:96|384:256,1,249.999992052714
385,248,251125,2,0,P|320:160|256:128,1,149.999995231629
224,224,251625,2,8,P|384:192|416:128,1,199.999993642171
